This file was generated by Ched 2.7.0.0.
#TITLE ""
#ARTIST ""
#DESIGNER ""
#DIFFICULTY 0
#PLAYLEVEL
#SONGID ""
#WAVE ""
#WAVEOFFSET 0
#JACKET ""
#REQUEST "ticks_per_beat 480"
#00002: 4
#BPM01: 185
#00008: 01
#TIL00: ""
#VOLUME: ""
#HISPEED 00
#MEASUREHS 00
#00312:1616
#0211a:14
#0221a:14
#02312:14
#02412:14
#02518:14
#02618:14
#02714:14
#02814:14
#0411a:0014
#04110:0041
#0531a:00140000
#05414:00140000
#05518:00140000
#00218:2616
#00418:1616
#00512:1616
#00918:16
#00912:0026
#00910:0041
#01018:0016
#01012:16
#01118:16
#01112:0016
#01212:16
#01218:0016
#01318:16
#01312:0016
#01612:0016
#03318:14
#03414:14
#03518:14
#03614:14
#04212:00140000
#05014:00140000
#05118:00140000
#05212:00140000
#05612:00140000
#0561a:00000014
#05818:00000016
#05812:00160000
#05810:00410000
#05718:00000016
#05712:00260000
#0571f:21
#05912:00160016
#06018:00160016
#06312:00000016
#06418:00160000
#06412:00000016
#06918:00000016
#06912:00160000
#06818:00000016
#06812:00260000
#07012:00160000
#07018:00000016
#07118:00160000
#07112:00000016
#07612:00000016
#07618:00160000
#07718:00160000
#07712:00000016
#07812:00160000
#07818:00000016
#07918:00160000
#07912:00000016
#08018:00160000
#06112:00160000
#06518:00160000
#06512:00000016
#08218:00000016
#08312:00160000
#08318:00000016
#08412:00160000
#08418:00000016
#06712:00160000
#06718:00000016
#08618:00160000
#08612:00000016
#08718:00160000
#08712:00000016
#08812:00160000
#08818:00000016
#01418:16
#01412:0016
#07518:00160000
#07512:00000026
#07510:00000041
#0481f:11
#04512:24
#02910:41
#01810:41
#006380:1626
#007320:1636
#008320:00260000
#015380:1636
#016380:26
#017380:1626
#018320:1626
#019380:1626
#020320:1626
#0293a0:14
#0303a0:24
#031320:14
#032320:24
#037380:14
#038380:0024
#040340:14000024
#0433a0:14
#0443a0:24
#045320:14
#047340:00240000
#048380:14
#049380:00240000
#061380:00000016
#062380:00360036
#063380:00260000
#066380:00160026
#072380:00160026
#073320:00160036
#074320:0026
#080320:00000016
#081320:00360000
#082320:26
#085320:00160026
#089380:0000160000000036
#090380:0036000000000000
#091380:26
