This file was generated by Ched 2.7.0.0.
#TITLE ""
#ARTIST ""
#DESIGNER ""
#DIFFICULTY 0
#PLAYLEVEL
#SONGID ""
#WAVE ""
#WAVEOFFSET 0
#JACKET ""
#REQUEST "ticks_per_beat 480"
#00002: 4
#BPM01: 185
#00008: 01
#TIL00: ""
#VOLUME: ""
#HISPEED 00
#MEASUREHS 00
#0481f:11
#04812:23
#0481b:23
#05619:0013
#05616:00130000
#0561b:00130000
#05617:13000013
#05612:13
#02418:0013130026002600
#02415:1300001300000000
#02412:0000230000260000
#0241b:23
#02012:13131300
#0201b:0013001300000000
#02018:1300000000131300
#02015:0000001300001300
#01912:0013
#0191b:13
#01918:00000013
#01915:0000000000000013
#01916:24
#04118:00000013000013000000000000000000
#04117:00000013
#0411b:0013
#04112:00001313
#04115:0013130000000000
#04110:0041
#00312:00130013
#0031b:1313
#00317:00130013
#00316:1313
#04612:0000000000001323
#04613:0000132300000000
#04614:23
#02512:13230013
#02518:0000001300002300
#0251b:23131300
#02515:0023
#02318:00130013
#02312:13231323
#02315:0000001300000000
#0231b:2323
#02615:1300001300002300
#02618:0013000023001300
#0261b:2300130000130000
#02612:00231300
#02218:1300001300002300
#02215:0013000023001300
#02212:2300130000130000
#0221b:00231300
#0271b:13000013
#02718:0000130000130000
#02712:2300001300000000
#02715:0013000013000000
#02716:00000013
#0211b:23230013
#02115:0000001300002300
#02112:23131300
#02118:0023
#02817:13
#02816:0000001300000000
#02814:0033
#02815:00000000000000330000000000000000
#0711b:0013000000001300
#07116:0013000013001300
#07117:13130000
#07112:1300000000130000
#05416:12
#05418:12000024
#0541a:0024
#07912:00130013
#07917:13130000
#07916:0013
#0791b:0013000000000000
#07816:00001313
#07817:0000000000130000
#0781b:00131300
#07812:1300130000130000
#07317:0000130000000013
#0731b:1300000000131300
#07312:0000130000000013
#07316:13001313
#07319:0013000000000000
#07314:0013000000000000
#07417:0013001300000000
#0741a:00130000
#0741b:13
#07412:0013001300000000
#07415:00130000
#07416:13
#07717:1313
#07716:00130000
#0751b:13
#07519:00130000
#07512:13
#07514:00130000
#07515:00000000000000000013001300000000
#07518:0000000013132300
#07510:00000041
#08014:0013000000000000
#08017:00130000
#08019:0013000000000000
#0801b:13001313
#08012:00130000
#08016:0013
#07617:0013130000000000
#07616:0000000000131300
#07612:0013130000000000
#0761b:00000013
#0721b:00130013
#07217:13
#07219:0000000000130000
#07216:00000013
#07214:0000000000130000
#07212:0013
#08612:0013000000002300
#08618:0013001300000000
#08615:1323
#0861b:00002323
#08417:13
#0841b:00130000
#08412:13
#08416:00130000
#08414:00000013
#08419:00000013
#08516:13
#08512:0000001300000000
#0851b:13
#08517:0000001300000000
#08312:00130000
#08316:13
#08317:00230000
#0811b:0013000000130000
#08112:1300001300000000
#08118:00131300
#08115:00130023
#08716:13
#08717:0013
#08712:00000023
#0871b:00230000
#08915:1300000000000013
#0891b:0000000023230000
#08918:00230000
#08812:0013000000130000
#0881b:0000001300000013
#08818:23130013
#08815:2313
#07012:13000013
#0701b:00001313
#07016:00130000
#06516:13
#06512:00130000
#0651b:13
#06517:00130000
#06519:00000013
#06514:00000013
#06617:13
#0661b:0000001300000000
#06612:13
#06616:0000001300000000
#05312:14
#0531a:14
#05316:00000012
#05318:0000000000120000
#06112:00131313
#06117:00131300
#06114:0013000000000000
#06116:13
#06119:0013000000000000
#0611b:13
#06212:0013000000130000
#0621b:1300001300000000
#06215:00131300
#06218:00130023
#06816:0000000000131300
#0681b:0000000000131300
#06815:13
#06818:13
#06917:0013000000000000
#06912:00131300
#06918:0000001300000013
#0691b:00130013
#06915:0000000000130000
#0641b:00130000
#06417:13
#06416:00230000
#06718:00130000
#06715:0013
#06712:00000023
#0671b:00000023
#04016:00000013
#0401b:00000013
#04017:13
#04012:13
#0361b:00130013
#03616:00000013
#03612:1323
#03617:23
#0601b:00130000
#06015:1313
#06012:00130000
#06018:0013
#05918:0013
#0591b:00130013
#05912:00130013
#05915:0013
#0581b:00130013
#05816:00000013
#05812:0013000013000000
#05815:13
#05810:00410000
#0571b:0000230000130013
#05717:00000013
#05712:26000000000000130000000013000000
#05716:00130000
#0571f:21
#04217:00000013
#04216:00130000
#04212:13
#04219:0013
#0421b:00130000
#04316:13
#04312:0000000000130000
#04318:0000130000000013
#0431b:0000000013130000
#04418:1300000013130000
#04415:00000000000000000013001300000000
#04412:0000001300000023
#0441b:00130023
#03317:1313
#03316:00130000
#03312:23000013
#03412:0013
#0341b:00130013
#03416:1300000000000013
#03212:13000013
#0321b:00000013
#03215:0013
#0301b:1300000000000013
#0301a:0013
#03019:0000001300000000
#0171b:00001313
#01712:00001324
#01812:13130024
#0181b:0013
#0181a:00240000
#01816:2424
#01810:41
#0161a:00240014
#01615:00240014
#01612:0024
#01617:0024
#00916:0000000000000013
#0091b:0000000000000013
#00917:00120000
#0091a:0024
#00912:0024
#00910:0041
#0101b:13000013
#01016:13000013
#01017:0000001313000000
#01012:0013
#00217:0000001313000000
#00212:2400001313000000
#00216:0000000000000013
#0021a:24
#09012:0016000000000000
#09018:1316000000000000
#05218:14
#05214:14
#05212:00001213
#0521b:00000013
#0521c:0012
#05114:00140000
#05112:14
#05118:00140000
#0511a:14
#04916:00000012
#04918:00000012
#05012:00121314
#0501a:00000014
#0501b:0013
#0501c:00120000
#04515:2300000013230000
#04518:23
#04516:00230000
#04718:0013
#04715:0000000000000013
#04712:0000230000230000
#0471b:0000000000230000
#03512:23130000
#0351b:23001313
#03516:00002313
#03517:00130000
#03519:0000002300000000
#03514:0000000000000023
#03115:0013
#03112:0000000000000013
#0291b:2300000000000013
#02918:0013
#02910:41
#00816:13
#0081b:13
#00717:00130013
#00712:00130013
#00716:1313
#0071b:1313
#00714:0013000000000000
#01517:1313
#01512:1313
#01516:00130000
#0151b:00130000
#01414:0000000000000013
#01417:00131300
#01412:00231300
#01416:13000013
#0141b:13000013
#01314:1300000000000013
#01317:00130013
#01312:00130000
#01316:0013
#01319:13
#0131b:0023
#00616:00130013
#00617:1313
#00612:2313
#00619:0000001300000000
#0061b:00000023
#01212:13130000
#0121b:13000013
#01219:0013
#01216:00000013
#01217:00130000
#01214:0013
#01112:1313
#01117:1313
#01116:00130000
#0111b:00130000
#0041b:13001313
#00412:0013
#00416:13000013
#00516:00000013
#0051b:00000013
#00514:1313
#00512:00130000
#00519:1313
#00517:00130000
#0821b:00232300
#08212:00232323
#06312:00232300
#0631b:00232323
#05516:24
#05514:00240000
#0551a:0024
#05512:0024
#02052:0023
#0205b:0023000000000000
#02058:53000053
#02055:0000006300006300
#0195b:63
#02552:13
#02352:13
#0275b:13
#02756:00000063
#02857:53
#02856:0000006300000000
#0715b:0023000000006300
#07156:0023000063006300
#07157:53530000
#07152:5300000000230000
#05456:22
#05458:22
#07952:00530023
#07957:53530000
#07956:0063
#0795b:0023000000000000
#07856:00006363
#07857:0000000000230000
#0785b:4363
#07852:3300000000230000
#07357:0000530000000023
#0735b:00000063
#07352:0000000000000023
#07356:00000063
#07457:0023002300000000
#0745a:00630000
#0745b:63
#07452:0023002300000000
#07455:00630000
#07456:63
#07459:0043
#07454:0043
#07757:2323
#07756:00230000
#07752:3333
#0775b:00430000
#07657:00530000
#0765b:00000043
#07656:00000023
#0725b:00230000
#07257:53
#08457:53
#0845b:00230000
#08452:53
#08456:00230000
#08556:63
#08552:0000002300000000
#0855b:63
#08557:0000002300000000
#08352:00530000
#08356:2313
#08357:00530000
#0835b:0013
#0805b:00000063
#08056:0063
#08158:0053
#0815b:0000000000230000
#08155:00630000
#08152:0000002300000000
#08756:23
#08757:0023
#0875b:00630000
#08955:63
#0895b:0000000000130000
#08958:00130000
#08952:0000000000130000
#08852:0023000000230000
#0885b:0000002300000023
#08858:00530053
#08855:6363
#06556:63
#06552:00230000
#0655b:63
#06557:00230000
#06657:53
#0665b:0000002300000000
#06652:53
#06656:0000002300000000
#05352:54
#0535a:64
#06152:00000053
#06157:0053
#06255:0063
#06252:0000000000230000
#06258:00530000
#0625b:0000002300000000
#06856:00000063
#06855:23
#06858:23
#06852:00330000
#0685b:00430000
#06952:00335333
#06958:0000002300000023
#0695b:00634363
#06955:0000000000230000
#0705b:4343
#07056:00230000
#07052:5333
#0645b:00630000
#06457:2313
#06456:00630000
#06452:0013
#04056:00000013
#0405b:00000013
#04057:13
#04052:13
#0365b:00630063
#03656:00000063
#03652:53
#05958:0053
#0595b:00000063
#05957:33
#05952:33
#06055:6323
#06052:00530033
#06058:0023
#0605b:00000043
#0585b:00630023
#05856:00000023
#05852:0023000053000000
#05855:63
#0575b:0000130000000023
#05757:00000053
#05752:16000000000000230000000000000000
#05756:00630000
#05656:00630000
#05657:00000053
#04257:00000053
#04256:00630000
#04252:53
#04356:63
#04352:0000000000230000
#04157:00000053
#0415b:0063
#04152:0013
#03357:5353
#03356:00630000
#03352:13000053
#03452:0053
#0345b:00630000
#03456:23
#03252:53
#0305b:63
#0165a:00000024
#01655:00000024
#01652:0054
#01657:0054
#09052:0056000000000000
#09058:0066000000000000
#05258:54
#05254:64
#05154:00240000
#05152:5434
#05158:00240000
#0515a:6444
#04956:00000062
#04958:00000052
#00856:63
#0085b:63
#00857:00130000
#00852:00130000
#00757:00000053
#00752:00000053
#00756:0063
#0075b:0063
#01557:5353
#01552:5353
#01556:00630013
#0155b:00630013
#01352:00530000
#01356:0023
#01056:63
#01156:00630043
#01152:0023
#0115b:00630043
#01157:0023
#00257:0053
#00252:34
#0025a:44
#00357:00000053
#00352:00000053
#0045b:23
#00456:23
#00457:00330000
#00452:00330000
#0055b:00000063
#00657:23
#02458:00001616
#02452:0000000000160000
#0215b:13
#02152:13
#0295b:13
#07558:00000013
#0825b:00136300
#08252:00130053
#08255:13
#08258:13
#08652:00000053
#06352:00135300
#0635b:00130063
#06358:13
#06355:13
#06752:00000053
#0675b:00000063
#04558:53
#04652:0000000000000013
#0095a:0044
#00952:0034
#03856:0013
#0385b:0013
#03757:13
#03752:13
#01757:00140000
#01752:00140000
#04852:53
#0485b:63
#002370:0013
#0023b0:0000000000000023
#003370:00000013
#0043b0:53
#004370:00230000
#003321:00000013
#004361:53
#004321:00230000
#0053b1:00000013
#006371:53
#0063b1:00230000
#0073b1:0013
#007371:00000033
#0083b1:33
#008371:00230000
#007360:0013
#007320:00000033
#008360:33
#008320:00230000
#010360:13
#010320:0000002300000000
#011360:00130023
#011320:0053
#0113b1:00130023
#011371:0053
#013321:00130023
#013361:0053
#015321:1333
#015361:00330023
#015370:1333
#0153b0:00330023
#016370:0014
#0163a0:00000054
#017370:34240000
#016321:0014
#016351:00000054
#017321:34240000
#0183b1:00000013
#0193b1:53
#019371:0023
#020381:13230000
#0203b1:0053000000000000
#020351:0000001300333300
#020321:0053
#021321:23
#020380:00000013
#0213b0:23
#027360:00000013
#028320:23
#028371:13
#0293b1:23
#028360:0000001300000000
#028350:00000000000000330000000000000000
#028340:0033
#028320:0000000000000000000000000000000000000000000000000000000000000000000000000000000000000000000000000000000000000000000000000000000000000000000000000000000000000000000000000000000000000000000000000000000000000000000000000000000000000000000000000000000000000053
#029320:360000530000540000530000000000000000000000000000000000000000000000000000000000000000000000000000000000000000000000000000000000000000000000000000000000000000000000000000000000000000000000530000360000540000550000530000000000000000000000000000000000000000000000000000000000000000000000000000000000000000000000000000000000000000000000000000000000000000000000000000000000000000000053000000360000005300000055000000530000000000000000000000000000000000000000000000000000000000000000000000000000000000000000000000000000000000000000000000000000000000000000000000000000000000000053000000360000005400000054000000530000000000000000000000000000000000000000000000000000000000000000000000000000000000000000000000000000000000000000000000000000000000000000000000000000000000000053000000
#030320:365355530000000000000000000000000000000000000053365355530000000000000000000000000000000000000053365354530000000000000000000000000000000000000053365355530000000000000000000000000000000000000000
#031320:23
#0303b1:13
#030381:00230000
#0313b1:130000000000000000000000000000000000000000000053005300530000000000000000000000000000000000000053005300530000000000000000000000000000000000000053000000530000000000000000000000000000000000000053
#031381:00363636
#031391:000000000000000000000000005500000000000000000000000000000000000000000000005500000000000000000000
#0313a1:000000000000000000000000000000000000000000000000000000000000000000000000000000000000000000000000000054000000000000000000000000000000000000000000005400000000000000000000000000000000000000000000
#032381:36360000
#0323b1:005300530000000000000000000000000000000000000053005300530000000000000000000000000000000000000000230000000000000000000000000000000000000000000000000000000000000000000000000000000000000000000000
#032391:005500000000000000000000000000000000000000000000000000000000000000000000000000000000000000000000
#0323a1:000000000000000000000000005400000000000000000000000000000000000000000000000000000000000000000000
#032320:13
#032350:00230000
#033371:13
#0333b1:00230000
#033360:00130000
#033320:0023
#033371:0013
#0333b1:00000023
#033320:00000013
#034360:53
#034320:00230000
#0343b1:00130000
#034371:0023
#034320:0013
#034360:00000023
#036320:13
#036360:00230000
#0363b1:00130000
#036371:0023
#0363b1:00000013
#037371:23
#036360:00000013
#037320:23
#038360:00132300
#0383b1:00132300
#0413b1:0013
#041371:00000033
#0423b1:23
#042320:13000023
#042360:00330000
#042371:00000013
#0433b1:23
#043360:13
#043320:0000000000530000
#044360:00230000
#045380:13
#0463b0:0053
#0473b0:00230000
#048320:13
#049360:00220000
#0483b1:13
#049381:00220000
#049361:00000012
#050321:0022000000000000
#049380:00000012
#0503c0:0022000000000000
#051320:1424
#051340:00540000
#0513a1:1424
#051381:00540000
#052341:14
#052321:00230000
#052380:14
#0523b0:00230000
#053320:14
#053360:0022
#0533a1:14
#053381:0022
#054381:12
#0543a1:00240000
#054360:12
#054320:00240000
#054340:0014
#054320:00000024
#0553a0:14
#055380:00240000
#056360:00130000
#056320:00000023
#056371:00000013
#0573b1:00230000
#057360:0000130000230000
#057320:00000000000000530000000000000000
#057370:00000013
#0573b0:0000000000000053
#058380:23
#058351:13
#058321:0053000000000000
#058361:00230000
#0583b0:00130000
#058370:0023
#058321:0013
#058361:00000053
#059321:23
#0583b0:00000013
#059370:23
#059380:0013
#0593b0:00000033
#060380:23
#060351:1333
#060321:00330023
#060380:0013
#0603b0:00000023
#061370:0013
#0613b0:00000023
#061321:00000013
#062361:23
#062381:00132300
#0623b1:0000005300000000
#062350:00001333
#062320:0000000000530000
#063350:23
#062381:00000013
#063381:23
#063321:0013
#063361:00000023
#0633b0:00000013
#064370:5323
#0643b0:00330000
#064361:00130000
#064321:0023
#065361:1323
#065321:00530000
#0653b0:1323
#065370:00530000
#066320:13000023
#066360:0000005300000000
#066371:13000023
#0663b1:0000005300000000
#067321:00000013
#068351:53
#068321:00230000
#0673b0:00000013
#068380:53
#0683b0:00230000
#068360:00000013
#069320:0023000000000000
#0693b0:00132300
#069380:0000005300000000
#069321:00001323
#069351:0000000000530000
#0693b0:00000013
#069380:0000000000000053
#0703b0:23
#070321:1323
#070361:00530000
#071321:13230000
#071361:0053000000000000
#071370:13330000
#0713b0:0053000023000000
#071361:00001333
#071321:0000000000530000
#072321:23
#0713b0:00000013
#072370:3323
#0723b0:00530000
#073370:00130000
#0733b0:0023
#0733b0:00000013
#073370:0000000000000053
#0743b0:33
#074370:0053005300000000
#0743a0:00330000
#074390:0023
#073361:00000013
#073321:0000000000000053
#074361:33
#074321:0053005300000000
#074351:00330000
#074341:0023
#076371:00130000
#0763b1:0000000000230000
#076361:00000013
#077321:23
#077370:13
#0773b0:00230000
#077361:00130000
#077321:0023
#077370:0013
#0783b0:23
#0783b0:00001323
#078370:0000000000530000
#078361:00001333
#078321:0000000000530000
#079321:23
#079370:13330000
#0793b0:0053000023000000
#079321:00130053
#079361:0033
#080361:23
#080361:0013
#080321:00000023
#0803b0:00000013
#081370:23
#081350:00132300
#081320:0000005300000000
#081381:00001333
#0813b1:0000000000530000
#082381:23
#081350:00000013
#082350:23
#0823b0:0013
#082370:00000023
#082321:00000013
#083361:5323
#083321:00330000
#083370:00130000
#0833b0:0023
#084370:1323
#0843b0:00330000
#084321:1323
#084361:00330000
#0853b1:13000023
#085371:0000005300000000
#085360:13000023
#085320:0000005300000000
#086320:00000013
#087360:53
#087320:00230000
#0873b1:00130023
#087371:0053
#088351:13333333
#088321:0053000000530000
#089351:33
#089321:0000000000230000
#088380:13333333
#0883b0:0000005300000053
#089380:23
#090321:0016000000000000
#090361:00520000
#091361:22
#090380:0016520000000000
#091380:22
