This file was generated by Ched 2.7.0.0.
#TITLE ""
#ARTIST ""
#DESIGNER ""
#DIFFICULTY 0
#PLAYLEVEL
#SONGID ""
#WAVE ""
#WAVEOFFSET 0
#JACKET ""
#REQUEST "ticks_per_beat 480"
#00002: 4
#BPM01: 185
#00008: 01
#TIL00: ""
#VOLUME: ""
#HISPEED 00
#MEASUREHS 00
#05618:13000013
#05612:13130000
#09018:13
#08915:0000000000000013
#0891b:13
#08912:13
#00415:00000013
#00417:13
#0051b:13
#00518:00130000
#00515:0013
#00512:00000013
#00215:0000001300000000
#00218:0013
#0021a:24
#00212:24
#00312:13
#00315:00130000
#00318:0013
#0031b:00000013
#00612:00000013
#00616:13
#00618:0000001300000000
#00615:0013
#0061b:00000023
#0081b:13
#02018:0000130000130000
#0201b:13
#02012:13
#01915:0014000000000013
#01918:00000013
#0191a:0014000000000000
#03015:0000000000000013
#03012:0000001300000000
#03018:1313
#03115:0013
#03112:13
#03118:1300001300000013
#0311b:0013
#03212:00000013
#0321b:00000013
#03218:0013
#03215:13
#05715:0000000000130000
#05718:00000013
#0571b:00230000
#0571f:21
#06016:00000013
#0601b:00130000
#06012:0013
#06018:13
#06118:0013000000000000
#06115:00130000
#0611b:0013
#04012:13
#04018:13
#0401b:00000013
#04015:00000013
#07515:00130023
#07512:1313
#0751b:00130023
#07518:1313
#07510:00000041
#0271b:13000013
#02718:0000130000130000
#02715:0013000013000000
#02712:2300001300000000
#02817:13
#02415:00132300
#02412:13000023
#02418:2300001300230000
#0241b:00230023
#02312:1323
#02315:0000001300002300
#0231b:23000013
#02318:00230000
#02215:0013000000130000
#0221b:0000001300000000
#02218:00232313
#02212:23000023
#02115:2300001300001300
#02118:2323
#02112:00230000
#0211b:00000023
#02515:1323
#02518:2300001300001300
#0251b:00230000
#02512:00000023
#00718:13130000
#00715:0013000000000000
#00712:0013
#01218:00130000
#01212:0013
#01215:00000013
#01318:13
#01317:0013
#0131b:00130000
#01315:0000000000000013
#00918:0000000000000013
#00912:0024
#0091a:0024
#00910:0041
#0101b:0013
#01018:00000013
#01015:13
#01115:13
#01116:0013
#01112:00130000
#0141b:00130000
#01418:13000013
#01415:0000000013000013
#01412:00230000
#01512:0013
#0151b:13
#01714:14
#01718:14
#01712:00000024
#01717:00000024
#02918:0013
#02915:0000000000000013
#02912:0013
#0291b:23
#02910:41
#04112:0013
#04115:00000013
#04110:0041
#04618:0013000000000000
#04615:0013000000000000
#05015:00000013
#05018:1313
#05318:13000013
#05315:0000000000130000
#05915:00000013
#05912:0013
#06212:13130000
#06218:0013000000000000
#0621b:00000023
#0491b:00000013
#05115:00130000
#05112:13
#0521b:13
#05212:0013
#05415:13
#05418:00000024
#0541a:0024
#07113:00000013
#07115:00130000
#07116:13
#07114:0013
#07118:00000013
#0711a:00130000
#0711b:13
#07119:0013
#07318:0000000000130000
#07317:13
#07312:13
#07315:00001313
#0731b:00000013
#0721b:00130000
#07217:13
#07216:00130000
#07212:13
#06912:00130000
#06915:00000013
#0691b:00000013
#06918:00130000
#07012:00130000
#07015:13
#07018:00130000
#0701b:13
#06815:00000013
#06818:0000000000130000
#0791a:00130000
#07919:13
#07915:00130000
#07914:13
#07912:00000013
#07916:0013
#07917:00000013
#0791b:0013
#07818:00000013
#07817:0013
#07813:00000013
#07812:0013
#08116:0013000000000000
#0811b:13130000
#08112:00000023
#08016:0013
#0801b:0013
#0761b:00000013
#07618:00130000
#07615:0013000000001300
#0771b:00000013
#07718:00131300
#07715:00000013
#07712:00131300
#0871b:00130000
#08716:00130000
#08812:23130000
#08818:0013
#08815:00000013
#0881b:23
#04218:13
#0421b:00130000
#04316:0000000000130000
#04312:13
#06418:00130000
#06718:0013
#06715:00130000
#0671b:00000023
#06712:00000023
#06617:0000001300000000
#0661b:13
#06518:00000013
#06516:00130000
#06512:13
#08315:00130000
#08516:0000001300000000
#08512:13
#08415:00000013
#08417:00130000
#0841b:13
#08615:0013000000000000
#08618:13
#08617:00002323
#08612:00002323
#0361b:13130000
#03612:00000013
#03615:23
#03512:0013
#03518:0000002323000000
#03515:2300000000000023
#03412:0013
#03417:13
#03418:0000000000000013
#03312:13
#03316:00130000
#0331b:00000013
#02618:0013000000130000
#02612:0000001300000000
#02615:00232313
#0261b:23000023
#07418:13
#0741b:00130000
#07412:13
#07415:00130000
#0481f:11
#04812:23
#0481b:23
#0161a:00242400
#01612:00242400
#0181a:2424
#01815:2424
#01817:00240024
#01812:00240024
#01810:41
#0471b:0000000000230000
#04712:0000000000230000
#05512:0024
#05514:00240000
#05516:24
#06312:0023
#0631b:00000023
#0451b:23
#04512:23
#04412:00000023
#0441b:00000023
#0821b:0023
#08212:00000023
#05810:00410000
#05658:00000053
#05652:00530000
#0085b:63
#00858:00130000
#06056:00000023
#06052:0053
#04052:13
#04058:13
#0405b:00000013
#04055:00000013
#0275b:00000063
#02857:53
#00258:0053
#0025a:14
#00252:14
#00457:23
#0045b:00430000
#0035b:00000063
#00656:23
#00552:00000053
#00752:0053
#01552:0053
#0155b:63
#01555:00000013
#01055:63
#01156:0023
#01152:00530033
#01357:0023
#0135b:00630000
#01754:64
#01758:54
#01752:00140000
#0175a:00140000
#03058:53
#03255:63
#04658:0023000000000000
#04655:0023000000000000
#05758:00000053
#0575b:00130000
#0615b:0063
#06252:00530000
#0625b:00000063
#05058:23
#0495b:00000063
#05155:00230000
#05152:5313
#0525b:63
#05252:0053
#05358:53
#05455:63
#07357:53
#07352:53
#0735b:00000063
#07355:00000063
#0725b:00230000
#07257:53
#07256:00230000
#07252:53
#06952:00530000
#06958:00530000
#07052:00230000
#07055:6313
#07058:00230000
#0705b:6313
#06855:00130063
#06858:00130000
#08056:0063
#0805b:0063
#07952:00000023
#07956:0063
#07957:00000023
#0795b:0063
#0765b:00000063
#07658:00530000
#07655:00000063
#0775b:00000023
#07758:0053
#07755:00000023
#07752:0053
#0875b:00630000
#08756:00630000
#08852:00530000
#08858:0053
#08855:00000063
#0885b:63
#0895b:63
#08952:53
#04356:0000000000230000
#04352:53
#0425b:00630000
#06458:00530000
#0645b:0013
#06657:0000002300000000
#0665b:63
#06556:00230000
#06552:53
#08355:00630000
#08352:0013
#08556:0000002300000000
#08552:53
#08457:00230000
#0845b:63
#03452:0053
#03457:23
#03352:53
#03356:00630000
#0335b:00000063
#0365b:00630000
#03652:00000053
#0195a:0024000000000000
#01955:0024000000000000
#07458:5313
#0745b:00630000
#07452:5313
#07455:00630000
#0815b:00630000
#08152:00000053
#01652:0054
#0165a:0064
#04852:53
#0485b:63
#0635b:00000063
#06357:13
#0675b:00000063
#06752:00000053
#08657:00000053
#08652:00000053
#07555:00000013
#0755b:00000013
#0295b:13
#02155:13
#02158:13
#00952:0014
#0095a:0014
#01852:00000054
#01857:00000054
#0455b:63
#04552:53
#08252:00000053
#08256:13
#05955:13
#05958:13
#0385b:0013
#03855:0013
#07858:13
#07852:13
#03755:13
#002380:0013
#0023b0:0000000000000023
#0033b0:00000013
#004370:53
#0043b0:00230000
#005320:00000013
#006360:53
#006320:00230000
#007320:0013
#007350:00000023
#0083b0:13
#008380:00230000
#010350:13
#010320:0000002300000000
#011320:00130023
#011360:0053
#0133b0:00130023
#013370:0053
#0153b0:13
#015380:00230000
#015320:0013
#015350:00000023
#016320:0014
#017340:34
#017320:00240000
#0163a1:0014
#017381:34
#0173a1:00240000
#018321:00000014
#019351:0054000000000000
#019321:0024
#018370:00000014
#0193a0:0054000000000000
#019370:0024
#020350:0000001300000000
#021350:23
#020381:00000013
#021381:23
#0273b1:00000013
#028371:33
#0293b1:23
#030381:13
#0303b1:00230000
#032351:13
#032321:00230000
#033321:1323
#033361:00330000
#0333b1:00000013
#034371:53
#0343b1:00230000
#034321:0013
#034351:00000023
#0363b1:00130000
#036381:0023
#036321:00000013
#037351:23
#0383b1:00132300
#038350:00132300
#0423b0:00130000
#042370:00000023
#043320:13
#043360:0000000000530000
#044320:00230000
#0453b0:13
#046380:0053000000000000
#0473b0:00230000
#045321:13
#046351:0053000000000000
#047321:00230000
#0483b1:13
#049381:00230000
#048320:13
#049350:00230000
#0493b0:00000013
#050380:53
#0503b0:00230000
#051320:1323
#051350:00530000
#0523b0:13
#052380:00230000
#052320:0013
#052350:00000023
#053380:13
#0533b0:0023
#054350:13
#054320:00230000
#056320:00130000
#056350:00000023
#056381:00000013
#0573b1:00230000
#057381:00000013
#0583b1:23
#058351:00130000
#059351:23
#058380:0013
#059380:23
#060320:0013
#060360:00000053
#061320:23
#0613b0:0013
#061370:00000023
#062320:00130000
#062360:0023
#0623b0:00000013
#063370:23
#0633b0:00000013
#064380:00330000
#0643b0:0023
#065320:1323
#065360:00530000
#0663b0:13000023
#066370:0000005300000000
#0673b0:00000013
#068380:00230000
#067321:00000013
#068351:00230000
#068351:00000013
#069321:0023000000000000
#069321:00130000
#069351:0023
#069380:00130000
#0693b0:0023
#070350:1323
#070320:00530000
#0703b1:1323
#070381:00530000
#072371:1300000033332300
#0723b1:00530000
#072320:1300000033332300
#072360:00530000
#073370:13
#0733b0:00230000
#073321:13
#073361:00230000
#0733b1:00000013
#074381:3323
#0743b1:00330000
#073350:00000013
#074320:3323
#074350:00330000
#076380:00130000
#0763b0:0000000000230000
#0763b0:00000013
#077380:23
#076351:00000013
#077321:23
#077381:0013
#0773b1:00000053
#078381:23
#077320:0013
#077350:00000053
#078320:23
#079360:0013
#079320:00000053
#080360:3333230000000000
#0793b1:0013
#079371:00000053
#0803b1:3333230000000000
#080361:0013
#080321:00000023
#0803b0:0013
#080370:00000023
#0813b0:00130000
#081370:0023
#081320:00000013
#082360:23
#082320:00000013
#083350:00330000
#083320:0023
#0843b0:1323
#084370:00330000
#085320:13000023
#085360:0000005300000000
#086370:00000013
#0873b0:00330000
#087370:00000023
#086321:00000013
#087361:00330000
#087321:00000023
#0883b1:13000033
#088381:00333300
#0893b1:33
#089381:0000000000230000
#088320:13330000
#088350:00003333
#089320:33
#089350:0000000000230000
#090320:0013000000000000
#091320:23
#0903b1:0013000000000000
#0913b1:23
