This file was generated by Ched 2.7.0.0.
#TITLE ""
#ARTIST ""
#DESIGNER ""
#DIFFICULTY 0
#PLAYLEVEL
#SONGID ""
#WAVE ""
#WAVEOFFSET 0
#JACKET ""
#REQUEST "ticks_per_beat 480"
#00002: 4
#BPM01: 185
#00008: 01
#TIL00: ""
#VOLUME: ""
#HISPEED 00
#MEASUREHS 00
#05917:00130013
#05912:0000130000130000
#05916:0013
#0591b:0000000000000013
#06212:00131300
#06214:0013000000000000
#06216:1300001300132400
#0621b:0000001300130000
#06217:00130000
#06812:00000026260000001300000000000000
#0681b:00001313
#06816:00000013
#06814:0000000000130000
#06818:2526260000000000
#06813:00250000000000000000000000000000
#0701b:00000013
#07012:14001413
#07017:0014000000000000
#0701a:00140000
#07014:0000001400000000
#09014:18
#08916:0000230000000014
#08912:2300000023230000
#08917:23
#00917:00120000
#00914:0000000000000013
#00912:00002613
#00916:00000014
#00918:0026
#00910:0041
#01212:1313
#01216:00140014
#01217:0013
#0121b:13130013
#01219:0000001300000013
#01214:0000000000130000
#01312:1300000023000013
#01316:14000013
#0131b:00002313
#01318:00000013001300130000000000000000
#01315:0013131300000000
#01016:13141314
#0101b:1313
#01012:00000013
#01014:0000000000130013
#01019:0000001300000000
#01017:0013000000000000
#0111b:1313
#01114:0013000000000000
#01116:1300141300001400
#01112:00130000
#01117:0000000000130000
#0141b:1300130000130000
#01417:0013
#01412:00231313
#01414:0000000000000013
#01416:14000014
#01712:24001313
#01716:0024140014000000
#01714:0000000000000013
#0171a:24240024
#02718:00000013000000000000000016000000
#02712:0000001c00000000
#02714:001a
#02716:0000000000180000
#0271a:0000000000000014
#02715:0013130000000000
#0271b:23
#03119:0000000000000013
#03112:13131313
#0311b:13
#03117:0013
#03512:00131313
#0351b:23132313
#03517:0000002300000000
#03516:0000000000000023
#0321b:0013
#03212:13131300
#03217:13
#03215:00000000000000000013001300000000
#03218:0000000000131300
#04315:0000130000131300
#0431b:1300000013000013
#04312:2300000013000013
#04318:00000000000000000000001300000000
#04418:1300131313132323
#04415:00001300001300130013001300230000
#04414:00000000000000000000000000000024
#05717:0000000000131300
#05716:0000130000000013
#05712:2c00001300131300
#0571b:0000230013000013
#0571f:21
#0611b:13001313
#06119:0013000000000000
#06117:0000130000130013
#06116:1313
#06112:0000000000130013
#0691b:00130000
#06916:0000001400140000
#06917:13
#06912:00141300
#0691a:00000014
#06915:0000000000000014
#06914:0013000000000000
#06919:0013000000000000
#07212:13231313
#07216:0013000000130000
#0721b:0013000000130000
#07217:13231313
#07616:00131314
#07614:0013000000130000
#0761b:00130000
#07617:1300001300000000
#07619:0013000000130000
#07612:0000000000001313
#07518:0000001313130000
#07515:00001300000000130013001300000000
#07512:13130013
#0751b:13130023
#07516:0000000000000013
#07510:00000041
#0061b:00130000
#00612:2c13
#00615:0000161616000000
#00614:00000028
#00718:0000000000001313
#00715:16001600160000000000000000130013
#00712:1300000000130000
#0071b:0000130000130000
#00716:0024
#00818:13
#0081b:00130000
#00812:00130000
#00815:0016000000000000
#01517:0013000000000000
#0151b:13000023
#01516:2300000014130000
#01512:00131300
#01519:0000001300000000
#01616:0000002414001400
#0161a:00240024
#01612:2c242400
#01916:1400140000000013
#0191b:00000013
#01917:0013
#01919:0000000000130000
#01912:2414
#0191a:0000000000000014
#01816:24000000140000001400001400000000
#01819:0013000000000000
#0181b:13
#01812:0000240000141400
#0181a:00002424
#01810:41
#02014:1300130000130000
#02016:0000001313000000
#02019:00000000001300000013000000000000
#0201b:00000000000000130000000000000000
#02017:00000013000000000000001300000000
#02012:0013000000000000
#0251b:13000023
#02512:13232300
#02515:00000013000000000000000000001300
#02518:00001300000000000013000000000013
#02318:00001300000000000013000023000013
#02315:00000013000000002300000000001300
#02312:23230000
#02818:0000001300000000
#02815:00000000000000130000000000000000
#02812:1300000000000013
#02816:00000013000000000000000000000000
#0281b:0013
#02817:00000013
#0281c:12
#02914:0000000000000013
#0291b:23131313
#02912:13
#02916:0013
#02910:41
#03014:0000001300000000
#03016:1313
#03015:0000000000000013
#0301b:13131313
#0451b:0000000013130000
#04518:2425260000000013
#04513:00250000000000000000000000000000
#04512:00000026000000000000000000000000
#04515:0000000000260000
#04612:2600131300000026
#04618:13000000000000000000001300002600
#04615:0000002600131300
#04712:0000130000290013
#0471b:0000000013130000
#04715:00290000
#0581b:00130013
#05816:0013000013001300
#05812:1300000000130013
#05817:0000001300130013
#05819:0013000000000000
#05810:00410000
#06012:13000013
#06016:0013000000000000
#06018:0000001313130000
#06015:00000000000000130013001300000000
#0601b:00130013
#0811b:00131300
#08119:0013000000000000
#08117:1300001300130000
#08112:0000001300130000
#08116:00130024
#08016:1300130000130013
#08012:0013000013001300
#0801b:1300130000130013
#08017:0013000013000000
#07117:1300001300000000
#07119:0013000000000000
#07116:00131300
#0711b:0000130000130013
#07112:1300001300130013
#07114:0013000000000000
#07118:00000013
#07412:0000000013000013
#07418:00130013
#07415:13
#07419:0013000000000000
#07413:0000001300000000
#0741b:0000000000000013
#07417:0013
#07414:00130000
#0741a:13
#0731b:0013000000131300
#07316:0000230000000013
#07312:0000001300000000
#07317:23002313
#07816:0000000013000013
#07814:0000000000130000
#07817:00130013
#07812:00130013
#0781b:0000000013000013
#07819:0000000000130000
#0781a:14
#07916:00001323
#0791b:0013001313002300
#07912:0013001300130000
#07917:1300000000130000
#07915:00130000
#07712:00130014
#07714:0000001300000000
#07719:0000000000130000
#0771b:1313000013000000
#07716:1400140014001414
#08612:00002600000013000000000000230000
#0861b:0013001300002300
#08618:13
#08619:0000000000000023
#08614:00000000000000000000000000000023
#08616:00000000000000000023002300000000
#08617:0000000023230000
#08518:0000000000132600
#0851b:0013000013000000
#08515:0000000000000013
#08512:13132613
#08519:0000001300000000
#08517:00130000
#08516:14
#04812:13
#0481f:11
#04815:29
#06712:00000013001300000013001300000000
#06716:00140000140000000000000000000000
#0671b:2313001313000000
#06717:00000000000000140000000000000000
#06715:00000000000000000000140000230000
#06718:0000000000002324
#06714:00000000000000000000000000000024
#06612:00130000000000230013000000230013
#06618:0013000024000000
#06615:00000013000000000000002400000000
#0661b:1300231300231300
#06614:00000000002400000000000000000000
#06617:0000000000000024
#0631a:00001424
#06317:0000000000140000
#06315:0000000000000014
#0631b:00230000
#06312:00232400
#06412:14242414
#0641a:00142400
#06416:0014001400000000
#06415:0000000000140000
#06512:1300000000131300
#06517:13
#06516:0013000014001413
#0651b:0013001313000000
#08212:00231424
#08215:0000000000140000
#08217:0000000000000014
#0821b:00230000
#0821a:0024
#0831a:14242414
#08312:00142400
#08316:0014001400000000
#08317:0000000000140000
#0841b:1300000000131300
#08416:13001414
#08417:0013000000000000
#08412:0013001313000013
#05614:00000000001400000000000000000000
#05617:0000001400000000
#05615:00000000000000140000000000000000
#05616:00000000000000002414141400001400
#05619:0014000000000000
#05613:00000014000000000000000000000000
#05612:00140000000000000000000024000000
#0561a:24000024
#05618:00240000
#05518:0000000000130013
#0551b:13002313
#05515:00000000000000000000001300000013
#05512:00000000000000000013000000130000
#05516:0014140000000000
#02118:00000013000000000000000000001300
#02115:00001300000000000013000000000013
#02112:23000023
#02112:23
#0211b:23232300
#0211b:23
#03616:00130013000000000000000000000000
#0361b:2313000000000000
#03614:00000000001300130000000000000000
#03619:0000231300000000
#03612:00000000000000000013001300000000
#03617:0000000023131300
#03712:16
#0411b:0000001313000000
#04115:0016
#04116:00001414140000000000000000001300
#04112:0000001300001300
#04117:0000000000130000
#04110:0041
#04015:16000016
#0401b:13
#04012:00000013
#03818:0016
#03816:00130000
#04219:0000000000130013
#04217:13000013
#04215:00130000
#0421b:0013000013000000
#04212:0000001300001300
#0331b:1313
#03317:0013000000130000
#03312:2300001300001300
#03316:0000130000000013
#03319:00330033000000000033003300000000
#03314:00000000003300330000000000330033
#0341b:1300000000130000
#03417:0013000013000000
#03412:00130013
#03416:0000001300000013
#03419:00330033000000000033003300000000
#03414:00000000003300330000000000330033
#04916:00000014
#0491a:0014
#05016:1414
#05012:00000014
#05116:1414
#0511a:00000014
#05216:14000014
#05212:0014
#00512:00000000000000000000000000160016
#00518:2313241425152616
#00513:00000000000000000015001500000000
#00514:00000000001400140000000000000000
#00515:00130013000000000000000000000000
#00314:0013
#00313:00130000
#00315:00000013
#00318:16363636363636363600000000000000
#0031b:00000000000000000033333333333333
#00218:26000013
#00219:0013
#0021a:00130000
#00212:16363636363636363633333333333333
#0041b:0013
#00418:00130013
#00412:16363636363636363600000000000000
#00415:00000000000000000033333333333333
#02418:0000001300000000
#02415:00000000001300002900000029000000
#02412:00000000000000130000290000000000
#0241b:23230000
#02218:00000000001300000000130000000000
#02215:00000000000000000000001300000000
#02212:23000000230000000013000023000000
#0221b:0023
#02615:00000000001300000000130000000000
#02618:00000000000000000000001300000000
#0261b:23000000230000000013000023000000
#02612:0023
#05412:00130013
#0541b:1313
#05416:24000014000014001400000024000014
#0531b:0013
#05312:14000013
#05316:00000000240000140000140014000000
#08718:2323260000000000
#08712:00232300
#08719:0025
#0871a:00000024
#08714:00000023
#08715:00230023000000000000000000000000
#08812:00262524
#0881b:23230000
#08816:23
#08819:0023
#08817:00000023
#01256:00140014
#01356:14
#05756:0000630000000023
#05752:1c00002300005300
#05757:00000053
#0575b:0000130000000023
#0695b:00630000
#06956:0000002400240000
#06952:00345334
#0695a:00004464
#06955:0000000000000024
#06856:00000063
#06858:00460000
#06852:00360000
#06157:0000000000000023
#0615b:00000063
#06156:2363
#06152:0000330000230000
#0065b:00130000
#00652:0013
#00752:13
#0075b:00130000
#0085b:00130000
#00852:00130000
#01156:0000142300001400
#01152:00530000
#01157:0000000000230000
#0115b:00006343
#00956:00000014
#00958:0046
#00952:0036
#01057:0023000000000000
#0105b:63
#01056:00140014
#01456:14000014
#01557:0023000000000000
#0155b:63
#01556:0000000014230000
#01552:00005333
#01656:00001414
#01652:1c
#01756:00141400
#0175a:00140000
#01956:24140000
#01952:1414
#0195a:0000000000000014
#01856:00141400
#0185a:00000064
#0255b:13
#02852:53
#02856:00000023000000000000000000000000
#0285b:0063
#02857:00000023
#02952:53
#02956:0063
#0295b:13
#03056:63
#0315b:63
#03157:0053
#03257:53
#0435b:0013
#04352:0000000000000013
#0585b:00630063
#05856:0023000063006300
#05852:5300000000230023
#05857:0000002300000023
#0605b:00000043
#06052:00000053
#06256:0000000000230000
#06252:00005333
#0625b:4300002300000000
#06257:00530000
#08056:0000000000000023
#08052:00000053
#0805b:0000000000230000
#08057:0053
#08157:0000000000230000
#0815b:00006343
#08152:3300002300000000
#08156:00630000
#07552:00000053
#07556:0000000000000023
#0755b:00000043
#0765b:00630000
#07657:0000002300000000
#07656:00000044
#07052:54353400
#07057:0024000000000000
#0705a:00644400
#07054:0000002400000000
#07059:45
#07257:53330000
#07252:53330000
#07256:0023000000000000
#0725b:0023000000000000
#07156:00636300
#0715b:0000630000000023
#07152:0000002300230000
#07158:00000053
#07157:0000002300000000
#07452:0033
#07458:00430000
#07455:33
#0735b:00000043
#07956:00006343
#0795b:0023000063004300
#07957:5300000000230000
#07955:00630000
#07952:0000002300230000
#07857:00000053
#07852:34000053
#07856:0000000000000023
#0785b:0000000000000023
#0785a:44
#07756:3400440034004424
#07752:00000054
#04852:53
#04855:19
#0635a:00004464
#06357:0000000000240000
#06355:0000000000000024
#0635b:00430000
#06352:00335400
#06356:14
#06452:3434
#0645a:00446400
#06455:0000000000240000
#06552:53000053
#06557:53
#06556:0023000034004423
#0655b:0023000000000000
#08252:00333454
#08255:0000000000240000
#08257:0000000000000024
#0825b:00430000
#0825a:0064
#08256:14
#0835a:4444
#08352:00345400
#08357:0000000000240000
#0845b:63
#08456:63004434
#08457:0023000000000000
#08452:0023000000000000
#08556:44
#03752:36
#0375b:43
#0415b:0063
#04155:0036
#04152:00000053
#04157:0000000000230000
#04156:0000000000000023
#04055:36000046
#0405b:43
#04052:00000033
#03858:0046
#03856:00230000
#03852:0033
#04257:53
#04255:00630000
#04252:0000002300000000
#0425b:0023000000000000
#03657:00000023
#0335b:6363
#03357:0023000000230000
#03352:1300002300005300
#03356:0000630000000023
#0345b:6300000000230000
#03457:0023000053000000
#03452:00530053
#03456:0000002300000023
#00354:0013
#00353:00130000
#00355:00000013
#00358:56
#00352:13
#00258:46000013
#00259:0013
#0025a:00130000
#00252:66
#0045b:1313
#00458:00130013
#00452:56
#02152:33
#0215b:43
#04558:00160000
#04555:0000000000160000
#04652:1600000000000016
#04658:0000000000000016
#04655:0000001600000000
#04755:00190000
#04752:0000000000190000
#08758:00460000
#08752:00330000
#08759:0045
#0875a:00000044
#08952:3300000000130000
#08957:53
#08956:00130000
#0895b:0000000000130000
#08852:00363534
#0885b:43
#02455:00004949
#02452:0000000000390000
#04957:00120000
#05956:43
#0595b:43
#0235b:43
#02752:33
#002320:16363636363636363633333333333333
#003320:23
#003381:16363636363636363600000000000000
#0033b1:00000000000000000033333333333333
#0043b1:23
#004320:16363636363636363600000000000000
#004350:00000000000000000033333333333333
#005350:23
#0103b0:13230000
#010370:0053000000000000
#011320:00132300
#011360:0000005300000000
#0113b1:00001323
#011371:0000000000530000
#0153b1:13230000
#015371:0053000000000000
#015321:00001323
#015361:0000000000530000
#0183a1:00000014
#019361:54
#0193a1:00240000
#020321:00000013
#020341:00000000000000000000000000000000000000000000000000000000000000000000000000000000000000000000000000530000530000000000000053000053
#020331:0000000000000000000000000000000000000000000000000053000000000053
#020351:00000000000000000000000000000000000000000000000000000000000000000000000000000000000000000000000000000053000053000000530000530000
#020361:00000000000000000000000000000000000000000000000000000000000000000000000000000000000000000000000000000000005300005300005300000000
#020371:00000000000000000000000000000000000000000000000000000000000000000000000000000000000000000000000000000000000000530053000000000000
#021321:23
#021321:00132300
#021361:0000003300000000
#021381:0000000000132300
#0223b1:13230000
#022371:0033000000000000
#022351:0000001323000000
#0223b1:00000013
#022371:0000000000000033
#0233b1:23
#0233b1:00132300
#023371:0000003300000000
#023321:0000000000132300
#024321:13230000
#024361:0033000000000000
#0253b1:00132300
#025371:0000003300000000
#025351:0000000000132300
#026321:13230000
#026361:0033000000000000
#026381:0000001323000000
#026321:00000013
#026361:0000000000000033
#027321:23
#028321:1300002300000000
#028361:00000053000000000000000000000000
#0283b1:0013
#028371:00000053
#0293b1:23
#029320:13
#029360:00230000
#029360:0013
#029320:00000023
#030360:13
#030320:00230000
#0313b0:13
#031370:00230000
#031370:0013
#0313b0:00000023
#032370:13
#0323b0:00230000
#0333b0:13230000
#033390:00330033000000000000000000000000
#033370:0033000000000000
#033361:00132300
#033341:00000000003300330000000000000000
#033321:0000003300000000
#0333b0:00001323
#033390:00000000000000000033003300000000
#033370:0000000000330000
#033321:00000013
#033341:00000000000000000000000000330033
#033361:0000000000000033
#034321:23
#0343b0:13230000
#034390:00330033000000000000000000000000
#034370:0033000000000000
#034321:00132300
#034341:00000000003300330000000000000000
#034361:0000003300000000
#034370:00001323
#034390:00000000000000000033003300000000
#0343b0:0000000000330000
#034321:00000013
#034341:00000000000000000000000000330033
#034361:0000000000000033
#035321:23
#036371:00000013
#0373b1:23
#038361:00130000
#038321:0023
#0413b1:00001323
#041371:0000000000530000
#041320:00000013
#041360:0000000000000053
#042320:23
#042371:13
#0423b1:0053000000000000
#042381:00230000
#042350:00130000
#042320:0000005300000000
#042360:0023
#048320:13
#049370:00220000
#049320:0013
#050320:00230000
#0503b1:00130000
#0513b1:00230000
#051320:00130000
#052320:00230000
#0523b1:00130000
#0533b1:00230000
#055321:00132300
#057361:00132300
#057321:0000005300000000
#057321:00000013
#057361:0000000000000053
#058321:33230000
#058361:0053000000000000
#057370:00000013
#0573b0:0000000000000053
#058370:23
#0583b0:00132300
#058370:0000005300000000
#058361:00001333
#058321:0000000000530053
#059361:23
#0583b0:00000013
#058370:0000000000000053
#0593b0:23
#0593b0:0013
#059370:0000000000230000
#059320:00000013
#059360:0000000000000023
#060370:13
#0603b0:0023000000000000
#060360:00130000
#060320:0000002300000000
#060320:00000013
#061360:53
#061320:00230000
#061360:00001323
#061320:0000000000530000
#0613b1:00000013
#061371:0000000000000053
#0623b1:23
#062371:00132300
#0623b1:0000005300000000
#062320:00001323
#062360:0000000000530000
#062361:00000014
#063361:24
#063321:00001424
#063371:0000000000540000
#0633a0:00000014
#063350:0000000000000054
#0643a0:24
#0643a0:00001424
#064350:0000000000540000
#065370:13230000
#0653b0:0053000000000000
#065321:13230000
#065361:0053000000000000
#065321:00000013
#065361:0000000000000053
#066321:23
#068361:00000013
#069321:23
#0693b1:00130000
#069361:0000005400000000
#0693a1:0024
#069320:00001324
#069360:0000000000540000
#0693a1:00000014
#069351:0000000000000054
#070391:25
#070320:14250000
#070370:0054000000000000
#0703a1:00142400
#070341:0000005400000000
#0713b1:00132300
#071371:0000005300000000
#071360:00133300
#071320:0000005300530000
#071350:00000023
#071381:00000013
#0713b1:0000000000000053
#072371:33230000
#0723b1:0053000000000000
#072320:13230000
#072360:0053000000000000
#073320:1323000000000000
#0733b0:0000132300000000
#073320:0000000013230000
#075320:00000013
#075360:0000000000000053
#076320:23
#0763b0:00132300
#076370:0000005300000000
#077320:00000014
#077360:0000000000000054
#078320:24
#078320:00000013
#078360:0000000000000053
#079320:23
#078371:00000013
#0783b1:0000000000000053
#079371:33
#0793b1:0053000000000000
#079381:00230000
#079350:00130000
#079320:0000005300530000
#079360:00003323
#0793b1:00001323
#079371:0000000000530000
#080371:00001323
#0803b1:0000000000530000
#080320:00000013
#080360:0000000000000053
#081320:23
#081360:00132300
#081320:0000005300000000
#0813b1:00001323
#081371:0000000000530000
#081360:00000014
#082360:24
#0823a0:00001424
#082350:0000000000540000
#082321:00000014
#082371:0000000000000054
#083321:24
#083321:00001424
#083371:0000000000540000
#084361:13230000
#084321:0053000000000000
#0843b0:13230000
#084370:0053000000000000
#089370:13
#0893b0:0000000000230000
#090320:001c000000000000
#091320:2c
