This file was generated by Ched 2.7.0.0.
#TITLE ""
#ARTIST ""
#DESIGNER ""
#DIFFICULTY 0
#PLAYLEVEL
#SONGID ""
#WAVE ""
#WAVEOFFSET 0
#JACKET ""
#REQUEST "ticks_per_beat 480"
#00002: 4
#BPM01: 185
#00008: 01
#TIL00: ""
#VOLUME: ""
#HISPEED 00
#MEASUREHS 00
#08918:0000000000000014
#08912:14
#0161a:00000014
#01614:00240000
#01618:0024
#05018:00000014
#05014:0014
#05318:14
#04318:14
#04214:00140000
#04218:14
#06612:0000001400000000
#06614:14
#00318:14
#00314:00140000
#0031a:0014
#00312:00000014
#00212:00140014
#0021a:2414
#0041a:00000014
#00512:14
#00518:00140000
#00514:0014
#0051a:00000014
#00612:00000014
#00718:14
#00714:00140014
#0071a:0014
#00818:14000014
#00812:00140000
#01014:0014
#01018:00000014
#01012:14
#0101a:00140000
#01112:14
#0111a:00140000
#0091a:00000014
#00914:14
#00918:00140000
#00912:0024
#00910:0041
#01212:00140000
#0121a:0014
#01214:00000014
#01318:14
#01312:00140000
#0141a:00140000
#01414:0014
#01418:00000014
#01512:14
#01518:00140000
#01514:0014
#0151a:00000014
#0191a:00000014
#02014:14
#02018:00140000
#02012:0014
#0201a:00000014
#02114:14141400
#02118:00000014
#02218:14140000
#02212:0014
#0221a:00000014
#02312:14141400
#0231a:00000014
#0241a:14140000
#02414:0014
#02418:00000014
#02514:14
#02513:00140000
#02512:0014
#02518:00000014
#02619:14
#0261a:00140014
#02612:0014
#02714:0014
#02718:00140000
#02712:14
#0271a:00000014
#0291a:14
#02912:0014
#02914:14
#02918:0014
#02910:41
#03014:1414
#03018:00140000
#03112:14
#0311a:0014
#03118:14
#03114:0014
#03218:1414
#03214:00140000
#03514:14
#03512:0014
#03518:0014
#0361a:14
#03612:00140000
#03618:0014
#03614:00000014
#0371a:14
#03812:0014
#04018:14
#04014:00000014
#0411a:0014
#04112:00000014
#04110:0041
#04818:0014
#04814:00000014
#0481f:11
#05218:14
#05214:00140000
#0521a:0014
#05212:00000014
#05412:14
#05418:00140000
#05414:0014
#0541a:00000014
#05514:14
#05518:00140000
#05512:0014
#0561a:14
#05712:00000014
#0571a:0014
#05718:14
#0571f:21
#05714:00240000
#05818:14
#05814:00140000
#0581a:0014
#05810:00410000
#06014:0014
#06012:14
#0601a:00140000
#05914:0014
#05918:00000014
#06518:00000014
#06512:14
#06718:00140014
#06714:0014
#06818:00000014
#06814:0014
#06918:00140000
#06914:14
#06912:0014
#06916:00000014
#07218:14
#07114:14
#0711a:00140000
#07116:0014
#07112:00000014
#07314:14
#07318:00140000
#07312:0014
#07316:00000014
#0741a:14
#07416:00140000
#07412:0014
#0611a:0014
#06114:00000014
#06218:1414
#06212:00140000
#06214:00000014
#0631a:14002424
#06312:00002424
#07518:14
#07514:00140000
#07510:00000041
#07614:00140014
#07618:1414
#07914:0014
#07916:14
#0791a:00140000
#07818:0014
#07812:00000014
#08018:0014
#08014:00000014
#0811a:14
#08116:00140014
#08112:0014
#0821a:14002424
#08212:00002424
#0771a:14
#07716:00140000
#07714:00000014
#07712:0014
#07018:00140000
#0701a:14
#05114:14
#04918:00000014
#03314:00000014
#02814:14
#0841a:14
#08412:00140000
#08418:0014
#08414:00000014
#0851a:14
#08812:14
#08816:00140014
#0881a:0014
#01712:00000024
#01816:2424
#01812:00000024
#0181a:00240000
#01810:41
#0451a:24
#04512:24
#0441a:00000024
#04412:00000024
#08612:00002424
#0861a:00002424
#0165a:00000024
#01658:0054
#05358:54
#04358:54
#04254:00640000
#06652:0000002400000000
#06654:64
#00352:00000054
#0055a:00000064
#00852:00140000
#0115a:00640000
#01158:00000014
#01352:00540000
#0375a:14
#03852:0014
#04058:14
#04054:00000014
#0585a:0064
#06054:0064
#0155a:00000014
#05552:0014
#07258:54
#07452:0014
#0635a:14000064
#06352:00000054
#07954:0064
#0825a:14000064
#08252:00000054
#07058:00240000
#0705a:6414
#07754:00000024
#07752:0054
#07554:00640000
#06758:00000054
#06552:54
#04854:00000064
#05154:64
#05152:0014
#04958:00000054
#04952:00140000
#03354:00000064
#02854:64
#0855a:64
#08952:54
#01852:00000054
#0455a:64
#04552:54
#08652:00000054
#0865a:00000064
#00454:00140000
#01758:00140000
#05958:14
#06458:0014
#06454:0014
#07852:14
#08358:0014
#08354:0014
#08754:00140000
#08758:00140000
#003320:00000014
#004340:00240000
#0053a0:00000014
#006380:00342400
#0113a0:00140000
#011380:00000024
#013320:00140000
#013340:00000034
#014340:24
#016380:0014
#0163a0:00000054
#017380:34240000
#018320:00000014
#019340:0024
#028340:14
#028320:0024
#032320:00000014
#033320:24
#0333a0:00142400
#033340:00000014
#034320:00240000
#034380:0014
#0343a0:00000024
#042340:00140000
#042320:00000024
#043380:14
#0443a0:00240000
#0453a0:14
#047380:00240000
#045321:14
#047341:00240000
#048341:00000014
#049321:00240000
#049381:00000014
#0503a1:00240000
#051341:14
#051321:0024
#053381:14
#0533a1:00003424
#056321:00140000
#056341:00000024
#0583a1:0014
#059381:24
#060341:0014
#061321:34240000
#0633a1:00000014
#064381:00342400
#063320:00000014
#064340:00342400
#065320:14
#065340:0024
#066340:14000024
#066320:0000005400000000
#067380:00000014
#0683a0:00240000
#0703a0:1424
#070380:00540000
#072380:14
#0723a0:00003424
#075340:00140000
#075320:00000024
#077320:0014
#077340:00000054
#078320:24
#079340:0014
#080320:34240000
#0823a0:00000014
#083380:00342400
#082321:00000014
#083341:00342400
#0853a1:14
#085381:00000024
#086321:00000014
#087341:00240000
#0863a0:00000014
#087380:00240000
#089320:14
#089340:0000000000240000
#090340:0014000000000000
#091340:24
