This file was generated by Ched 2.7.0.0.
#TITLE ""
#ARTIST ""
#DESIGNER ""
#DIFFICULTY 0
#PLAYLEVEL
#SONGID ""
#WAVE ""
#WAVEOFFSET 0
#JACKET ""
#REQUEST "ticks_per_beat 480"
#00002: 4
#BPM01: 150
#00008: 01
#TIL00: ""
#VOLUME: ""
#HISPEED 00
#MEASUREHS 00
#00518:14
#00618:14
#00714:14
#01914:14
#02014:14
#03318:2616
#03310:41
#03412:1616
#03518:16
#03512:0016
#01012:14
#0111a:14
#01212:14
#0141a:14
#01512:14
#01612:14
#01718:14
#01818:14
#0211a:14
#02110:41
#02212:14
#02318:14
#02414:14
#0251a:14
#02612:14
#02718:14
#02814:14
#02918:14
#02912:14
#03014:14
#0301a:14
#03712:2616
#03818:1616
#03912:16
#03918:0016
#05718:2616
#0571f:21
#05918:16
#05912:0016
#06112:2616
#06312:16
#06318:0016
#06818:0016
#06812:16
#06718:0016
#06712:16
#06512:0016
#06518:26
#07112:0016
#07118:16
#06918:0016
#06912:26
#07314:14
#07310:41
#07418:14
#07512:14
#0761a:14
#07714:14
#07818:14
#07912:14
#0831a:14
#08412:14
#08512:14
#0091a:14
#00910:41
#0131a:14
#0491f:11
#08018:26
#08012:0026
#08118:26
#05810:41
#04510:41
#0013a0:14
#0023a0:24
#003320:14
#004320:24
#008340:1424
#031320:1434
#032320:3424
#036380:1626
#040320:1626
#0413a0:14
#042380:24
#043320:14
#044340:24
#045380:14
#0463a0:24
#047340:14
#048320:24
#049380:14
#050380:24
#051340:14
#052340:24
#0533a0:14
#0543a0:24
#055320:14
#056320:3424
#058320:1626
#060380:1626
#062380:1626
#064320:1626
#066380:1626
#070320:1626
#072380:1424
#081380:16
#082380:26
#086380:14
#088380:00240000
