This file was generated by Ched 2.7.0.0.
#TITLE ""
#ARTIST ""
#DESIGNER ""
#DIFFICULTY 0
#PLAYLEVEL
#SONGID ""
#WAVE ""
#WAVEOFFSET 0
#JACKET ""
#REQUEST "ticks_per_beat 480"
#00002: 4
#BPM01: 150
#00008: 01
#TIL00: ""
#VOLUME: ""
#HISPEED 00
#MEASUREHS 00
#0491f:11
#0491c:12
#04912:24
#0331b:00130013
#03316:1300000000000013
#03317:0000001300000000
#03312:0013000013000000
#0331a:24
#03310:41
#03717:1300000000000013
#03716:0000001300000000
#03712:24130013
#0371b:0013000013000000
#08112:16
#08118:2600000000000012
#08116:00000012
#04717:1313
#0471b:0000130000001313
#04712:1300001313000023
#04716:0013000000000000
#04212:0000000013000013
#04217:0013
#04219:00130000
#04216:13
#0421a:0013000000242400
#04213:0000001300000000
#04214:00130000
#04612:0013000013000013
#04619:00130000
#0461b:0000001300000000
#04614:00130000
#04617:0013
#04616:13
#0461a:0000000000242400
#06012:0013000013000013
#06015:1300001300000000
#0601b:0013001300000000
#06018:13130000
#0601a:0000000000242400
#06816:0000000000000014
#06815:13130000
#06812:0013001300000000
#0681b:13130000
#06818:0013001300000000
#0681a:0000000000242400
#03918:0000001300000000
#0391b:00000013000000001300000000000000
#03915:0013000000000000
#03919:0000000000130000
#03914:0000000000000013
#03917:00000013
#03912:00000013
#03916:0013
#03212:0024142414000000
#0321a:0014241424000000
#0451b:1300001313000000
#04517:0013000000001300
#04512:00130013
#04516:2313
#04510:41
#0711a:1400141400000014
#07114:00001414
#07118:00001414
#07112:1414140000140000
#07912:1400140014001424
#0791a:1400000000140014
#0791a:0000000000000014
#07916:0014000014000000
#07918:0000001400000000
#07216:0000001800000000
#07212:0018000000000000
#07219:00220000
#07215:22
#07217:0022
#03118:00001300130000000013000000000000
#03115:00000013000000001300130000000000
#0311a:2400002400001424
#03112:2400002400001424
#08019:00140000
#08012:14
#08018:00002415
#08014:0014
#08013:00240025
#0801a:24
#04819:00130014
#04812:13
#04814:00231400
#0481b:23
#04813:00000024
#04818:0024
#05318:00120012
#05312:00120012
#05316:1212
#0531c:0012
#05218:0012
#05216:12
#05418:00120012
#05416:1212
#05414:00120012
#0541a:1212
#05012:12
#05118:12
#02712:0000000000000013
#02718:00000013
#02715:0000000000130000
#0271b:13
#0231b:0000000000000013
#02315:00000013
#02318:0000000000130000
#02312:13
#02618:00001300000013001300361636000000
#02615:00131300
#02612:00000000000000000000361636000000
#02515:0000130000000013
#0251b:0013001300130000
#02512:2400001300000000
#02518:13
#02112:0013001300130000
#0211b:0000001300000000
#02115:13130000
#02118:00000013000000000000000000001300
#0211a:24
#02110:41
#02215:0013001313000000
#02218:00131300
#02212:00000000000000000000331333000000
#0221b:00000000000000000000331333000000
#01512:0000000000130000
#0151b:0000001300000013
#01518:00000013000000000000000000000000
#01515:0013000000000000
#07012:0000140000142400
#0701a:1400000024000014
#07018:0000001400000000
#07014:0014000000000000
#07016:24241414
#06918:0000000000000014
#06916:0014001400142400
#06912:1414
#0691a:24140000
#06514:0000000000000014
#06516:0014001400142400
#0651a:1414
#06512:24140000
#06612:1400000024242426
#0661a:0000140024242400
#06614:0000001400000000
#06618:0014000000000026
#06616:24240000
#04014:001a0000001a0000
#04012:0000001a00000000
#04016:00220022
#04018:2222
#00714:00140014
#00716:1424
#0071a:0014
#00718:00240024
#00712:24
#00614:00140014
#00616:1424
#0061a:0014
#00618:00240024
#00612:24
#00514:00140014
#0051a:0014
#00518:00240024
#00516:2424
#07812:1400000014242400
#07816:00140014
#07818:0000001400140014
#0781a:1414
#07814:0014000000000000
#07716:0014000014000014
#0771a:24141414
#07712:1400000000140000
#07714:0000001400000000
#07616:0014001400000000
#0761a:1400000000242400
#0751a:14141414
#07512:0014000014000000
#07516:1400000000140014
#07514:0000001400000000
#07416:0000000000000014
#07412:1400000000242400
#0731a:0014000014000000
#07316:1400000000140014
#07312:24141414
#07318:0000001400000000
#07310:41
#06714:00000014000000000000000000000000
#06718:0014240000000000
#06712:0000001400002414
#06716:00001414
#0671a:0000000024140000
#06415:13130013
#0641b:0013000013000000
#06412:0013001300000000
#06418:1300001300000013
#06318:0013000000000013
#0631b:13000013
#06316:13
#06315:00000013000000000000000000000000
#06217:00131300
#06218:0000000000130000
#06219:0013000000001300
#0621a:0000000000000013
#06216:13
#0621b:13
#06212:0000131300000000
#06112:1313
#0611b:00130013
#06117:0000001300000000
#06116:0013000000000013
#0611a:24
#05915:0013000000000013
#05912:13000013
#05917:13
#05918:00000013000000000000000000000000
#05816:00131300
#05815:0000000000130000
#05814:0013000000001300
#05813:0000000000000013
#05817:13
#05812:13
#0581b:0000131300000000
#05810:41
#0571b:1313
#05712:24130013
#05716:0000001300000000
#05717:0013000000000013
#0571f:21
#05519:0000000000001225
#05513:00120000
#05515:00000012
#05514:0012
#0551a:0012
#0551b:00120000
#0551c:12
#05512:1200000000000025
#0281b:13
#04312:13
#0431b:13131300
#04316:0000001313000000
#04319:00000013
#0411b:13
#04117:0000001313000000
#04114:00000013
#04112:23131300
#04416:0013
#04414:00130000
#04417:13
#04413:0013000000000000
#0441a:0000001300000000
#04419:00130000
#0441b:0013
#04412:0000000000242400
#03815:00130000
#0381b:1300131300003300
#03812:1313000000000000
#03819:0000000000330000
#03816:00000033
#03814:0000000000330000
#01618:0000130000242400
#01615:0000001300000000
#0161b:0013000000000000
#0201b:13130000
#02017:0000001300000000
#02012:13
#02016:0013000000000000
#02018:0000000000242400
#01012:00131313
#01016:0000000000000013
#0101b:1313
#01017:0000000000130000
#01019:0000001300000000
#0111b:0000001300001300
#01117:1313
#01114:0000000000000013
#01112:0013
#01116:00130013
#00912:0000001300001300
#00916:1313
#00919:0000000000000013
#0091b:0013
#00917:00130013
#0091a:24
#00910:41
#08417:0000000000001313
#08416:0013
#08412:13
#0841b:0000131313000000
#08317:0000000013000013
#0831b:13000013
#08316:1300000000130000
#08312:0000131313000000
#01812:00000000000013000000001c00000000
#01818:00130000
#01815:0013000000000000
#01817:0022
#03514:0000000000130000
#03519:0000000000000013
#03516:00000013
#0351b:00000013
#03512:00000013000000001300000000000000
#03517:0013
#03515:0000001300000000
#03518:0013000000000000
#03418:0000130000000023
#03412:1300131300000023
#0341b:1313000023000000
#03414:0000000000230000
#0341a:0000000000230000
#03413:00000023
#03419:00000023
#03415:0023
#01918:0013000000000013
#01915:0000001300001300
#01912:0000000000130000
#01714:00000013
#0171b:1300000000000013
#01717:0000000000130000
#01718:0013000000000000
#01715:00000013000000000000000000000000
#01712:2400001300230000
#01719:00000023
#01716:0000000000000023
#0131b:0000001300230000
#01318:00000013000000000000000000000000
#01315:0013000000000000
#01312:0000000000000013
#01314:00000013
#01316:0000000000130000
#01317:0000000000000023
#01319:00000023
#0131a:24
#00416:0012
#0041c:12
#03617:1300001300000000
#03619:00130000
#0361b:0013000000000000
#03612:1300001300000000
#03614:00130000
#03616:0013000000000000
#0361a:0000000000242400
#01212:13002424
#0121b:0000001300000000
#01218:0000000000240000
#01214:00240000
#0121a:0024000000000000
#01216:00000000000000000000000000343434
#08216:0000000000001313
#08217:0013
#0821b:13
#08212:2400131313000000
#05612:0014141414000000
#0561a:0024242424000000
#01418:00130000
#01415:0000001300000000
#0141b:0013000000000000
#01412:0024
#00312:12
#00218:12
#00116:12
#0011a:24
#0301a:2400000000242400
#03014:24
#02912:2400000000242400
#02918:24
#08618:26
#08612:26
#00812:24242400
#0081a:2424
#00816:0000002400000000
#08512:24002425
#08519:00000025
#0851a:0024000024000000
#08518:0000002400000000
#08514:00240000
#02418:0000000000242400
#04058:22002212
#04056:00220012
#04054:005a0000005a0000
#04052:0000006a00000000
#0285b:00000013
#02852:00000013
#00857:00000012
#00852:0054
#0085a:14
#07257:00000012
#07259:00220000
#07255:22
#07256:0000005800000000
#07252:0068000000000000
#04556:13
#0455b:6363
#04557:0023000000002300
#08158:66
#08152:16
#04952:14
#0495c:62
#02552:14
#06658:0000000000000016
#06652:0000000000000016
#0695a:14640000
#06956:0024002400240000
#06952:5454
#06552:14540000
#06556:0024002400240000
#0655a:6464
#08658:56
#08652:66
#0775a:1414
#07756:0024000054000000
#07752:6400000000240000
#0615a:14
#06152:5353
#0615b:00630000
#06157:0000002300000000
#06156:0023000000000000
#04152:13
#0415b:63
#04157:0053
#01857:0022
#01852:00000000000000000000005c00000000
#01752:14
#00556:14
#01252:00000064
#0135a:14
#05552:0000000000000015
#05559:0000000000000015
#08552:00001415
#08559:00000015
#0855a:0014
#08252:14
#08257:0053
#0825b:63
#07352:1414
#0735a:0024000054000000
#07356:6400000000240000
#05752:14530000
#0575b:6363
#05756:0000002300000000
#05757:0023000000000000
#03752:14530000
#03757:53
#03756:0000002300000000
#0375b:0023000063000000
#0335a:14
#0335b:00630000
#03356:63
#03357:0000002300000000
#03352:0023000053000000
#0305a:14
#02952:14
#0215a:14
#0095a:14
#00952:00000023
#00956:6363
#0015a:14
#00156:62
#0715a:14
#07154:00000014
#07158:0014
#07152:00140000
#07952:1414
#07956:0024000064000000
#0795a:5400000000240000
#08058:00000015
#08054:0014
#05258:0052
#05256:62
#04859:00000014
#04854:0014
#05052:52
#05158:52
#06855:63630000
#06852:0023002300000000
#0685b:63630000
#06858:0023002300000000
#0755a:1414
#07552:0024000064000000
#07556:5400000000240000
#06052:0023000000000000
#06055:63
#0605b:0000002300000000
#06058:00530000
#06455:00630000
#0645b:0023000000000000
#06452:0000002300000000
#06458:53
#02652:00000000000000000000002600000000
#02658:00000000000000005300002600000000
#02655:0063
#04752:5353
#04756:0023000000000000
#04352:53
#04356:0063
#02252:00000000000000000000002300000000
#02255:0063
#0225b:00000000000000000000002300000000
#02258:0053
#0205b:00630000
#02057:0000002300000000
#02052:53
#02056:0023000000000000
#01052:00000053
#01056:0000000000000023
#0105b:6363
#01057:0000000000230000
#0115b:00000023
#01157:5353
#08456:0063
#08452:53
#08357:0000000000000023
#0835b:63000063
#08356:0000000000230000
#08352:0053
#00456:0062
#0045c:62
#03657:5300002300000000
#03659:00530000
#0365b:0023000000000000
#03652:5300002300000000
#03654:00530000
#03656:0023000000000000
#00352:52
#00258:52
#001360:12
#002320:22
#002381:12
#0033c1:22
#003320:12
#004360:22
#0043c1:12
#004381:0022
#004360:0012
#005320:22
#008320:0014
#008370:00000022
#009360:13
#009320:00230000
#009360:0013
#009320:00000053
#010360:23
#0103b1:13
#010371:00230000
#0103b1:00001323
#010371:0000000000530000
#010320:00000013
#010360:0000000000000053
#011320:23
#011371:13
#0113b1:00230000
#011371:0013
#0113b1:00000053
#012371:23
#012321:00000014
#012361:00000000000000000000000000343434
#013361:24
#013321:0000132300000000
#014321:0014
#014351:0000000000340000
#014331:00000034
#014361:0000000000000024
#014360:0014
#014390:0000000000340000
#014370:00000034
#0143a0:0000000000000024
#0153b0:1323000000000000
#015320:0000132300000000
#015380:0000000000132300
#015351:0000000000001323
#016321:00001323
#0173b1:0000132300000000
#018371:0000000012000022
#018321:00000000000000000000005c00000000
#019321:1323000000000000
#0193b1:0000132300000000
#020321:13230000
#020361:0053000000000000
#0203b0:00132300
#020370:0000005300000000
#020321:00001323
#0213b1:0000000000130000
#021381:00000023
#021350:00000013
#021320:0000000000000023
#022350:0000000013000023
#022320:00000000000000000000335333000000
#022381:0000000013000023
#0223b1:00000000000000000000335333000000
#0233b1:1323000000000000
#023350:0013230000000000
#023381:0000132300000000
#023320:0000001300230000
#024350:0013003300000000
#024320:00333323
#0243b1:0013003300000000
#024381:00332300
#025320:0000000000130000
#025350:00000023
#025381:00000013
#0253b1:0000000000000023
#026351:0000000013000023
#026321:00000000000000000000365636000000
#026380:00000000000000001300365636002300
#027320:1323000000000000
#027381:0013230000000000
#027350:0000132300000000
#0273b1:0000001300230000
#028321:13
#028351:00230000
#028380:0000130000530000
#0283b0:00003323
#028321:00001323
#028351:0000000000530000
#033361:13230000
#033321:0053000000000000
#0333b0:00132300
#033370:0000005300000000
#033321:0013
#033361:00000023
#0353b1:0000132300000000
#036371:1300003300000000
#0363b1:0033000023000000
#036391:00330000
#036320:1300003300000000
#036360:0033000023000000
#036340:00330000
#037370:13230000
#0373b0:0053000000000000
#037321:00132300
#037361:0000005300000000
#0373b0:0013
#037370:00000023
#038320:0013
#038340:0000000000330000
#038360:0000000000003323
#038371:0013
#038391:0000000000330000
#0383b1:0000000000003323
#039321:0000132300000000
#040381:12220000
#040341:005a000000000000
#040360:00122200
#040320:0000005a00000000
#040381:00001222
#040341:00000000005a0000
#0413b1:13
#041371:00230000
#041371:0013
#0423b1:23
#043321:13
#043361:00230000
#043361:0013
#044321:23
#0453b1:13230000
#045371:0053000000000000
#0453b1:0013
#045371:00000053
#0463b1:23
#047321:13230000
#047361:0053000000000000
#047321:0013
#047361:00000023
#0493c1:12
#050381:22
#050320:12
#051360:22
#051381:12
#0523c1:22
#052360:12
#052320:0022
#052381:0012
#0533c1:22
#0573b1:13230000
#057371:0053000000000000
#057320:00132300
#057360:0000005300000000
#0573b1:0013
#057371:00000023
#0583b1:0013
#0583a1:0000000000330000
#058391:00000033
#058381:0000000000000023
#059321:0000132300000000
#059380:0000001323000000
#059351:0000000013230000
#0593b0:0000000000132300
#060350:13230000
#060320:0053000000000000
#060381:00132300
#0603b1:0000005300000000
#061321:13230000
#061361:0053000000000000
#0613b0:00132300
#061370:0000005300000000
#061321:0013
#061361:00000023
#062321:0013
#062331:0000000000330000
#062341:00000033
#062351:0000000000000023
#0633b1:0000132300000000
#063350:0000001323000000
#063381:0000000013230000
#063320:0000000000132300
#064380:13230000
#0643b0:0053000000000000
#064351:00132300
#064321:0000005300000000
#0653a1:14240000
#065361:0054000000000000
#065320:00142400
#065360:0000005400000000
#0653a1:00001424
#065361:0000000000540000
#068351:13332300
#068321:0033003300000000
#0683b0:13332300
#068380:0033003300000000
#069320:14240000
#069360:0054000000000000
#0693a1:00142400
#069361:0000005400000000
#069320:00001424
#069360:0000000000540000
#072350:12220000
#072320:0058000000000000
#072391:00122200
#072361:0000005800000000
#072370:00001222
#073360:14240000
#0733a0:0054000000000000
#0733a0:00001424
#073360:0000000000540000
#0743a0:14
#074390:0024000000000000
#074351:0014000000000000
#074341:00240000
#074380:00140000
#074370:0000002400000000
#074331:0000001400000000
#074321:0024
#074360:0014
#074390:0000000000340000
#074370:00000034
#0743a0:0000000000000024
#075360:14240000
#075320:0054000000000000
#075320:00001424
#075360:0000000000540000
#076320:14240000
#0763a1:00142400
#076320:0014
#076360:00000024
#077320:14240000
#077360:0054000000000000
#077360:00001424
#077320:0000000000540000
#0793a0:14240000
#079360:0054000000000000
#079360:00001424
#0793a0:0000000000540000
#081380:16000022
#0823b0:13
#082370:00230000
#082370:0013
#0823b0:00000023
#0833b0:13
#083370:00230000
#083320:00001323
#083360:0000000000530000
#0833b1:00000013
#083371:0000000000000053
#0843b1:23
#084320:13
#084360:00230000
#084360:0013
#084320:00000023
#086320:16
#088320:00220000
#086381:16
#0883c1:00220000
