This file was generated by Ched 2.7.0.0.
#TITLE ""
#ARTIST ""
#DESIGNER ""
#DIFFICULTY 0
#PLAYLEVEL
#SONGID ""
#WAVE ""
#WAVEOFFSET 0
#JACKET ""
#REQUEST "ticks_per_beat 480"
#00002: 4
#BPM01: 150
#00008: 01
#TIL00: ""
#VOLUME: ""
#HISPEED 00
#MEASUREHS 00
#00418:13
#00218:13
#00516:13130000
#00514:00001313
#0051b:23230000
#00519:00002323
#00716:1313
#00712:00130013
#0071b:2323
#00717:00230023
#02112:0013000000000013
#0211b:00130000
#02115:0000001300001300
#02118:2300000000130000
#02110:41
#02315:1300000000130000
#02318:0013000000001300
#02312:0000130000000013
#0231b:0000001300000000
#03115:0000130000130023
#03118:0000002300001300
#0311b:23
#03112:23
#03615:00130013
#03618:1300000000000013
#03612:13
#0361b:00130000
#03918:00000013000000000000000000001300
#03912:0013
#03915:0013130000000000
#0391b:0000001300000000
#04212:1313
#0421b:0000001300000000
#04218:0013000000000000
#04215:0000130000000013
#0421a:0000000000242400
#05712:00130000
#05718:0000130000000013
#05715:2313
#0571b:23
#0571f:21
#06015:1300000000000013
#06018:00000013
#0601b:0013000000000000
#06012:00130000
#06718:0014240000140000
#06714:00000014000000000000000000001400
#06712:0000001400000000
#0671a:0024
#06716:00000024
#07114:0014140000000000
#07118:00000014000000000000000000000000
#0711a:0000001400000000
#07112:0014
#07119:00000014
#07113:0000000000000014
#00918:0000001313000000
#0091b:00000013
#00912:13
#00910:41
#01015:00131300
#0101b:0000001300000000
#0141b:0013000000000013
#01418:0000001300001300
#01415:0000130000130000
#01412:0013
#01512:1300000000130000
#0151b:0013000000000000
#01515:0000130000000013
#01518:0000001300001300
#0161b:0013000000000000
#01618:0000001300000000
#01615:00130000
#01612:0013
#0161a:0000000000242400
#01115:0000001313000000
#01112:00000013
#0111b:13
#01315:0013000000003400
#01318:00130000
#01312:0000001300000000
#0131a:0000000000243400
#01812:0013000000000013
#01815:0000001300001300
#01818:0000130000130000
#0181b:0013
#0191b:1300000000130000
#01912:0013000000000000
#01918:0000130000000013
#01915:0000001300001300
#01718:0013000000000013
#01715:00130013
#0171b:0000001300000000
#01712:2400000000130000
#02012:13
#02015:00130000
#0201a:0000000000242400
#02218:0013000000000013
#0221b:0000001300001300
#02212:0000130000130000
#02215:0013
#02418:0013000000000000
#02415:00130000
#0241b:0000001300000000
#02412:0013
#0241a:0000000000242400
#0251b:0013000000000013
#02512:00130000
#02518:0000001300001300
#02515:2300000000130000
#02718:1300000000130000
#02715:0013000000001300
#0271b:0000130000000013
#02712:0000001300000000
#02615:0013000000000013
#02612:0000001300001300
#0261b:0000130000130000
#02618:0013
#02815:13
#02818:0013
#00612:13130000
#00614:00001313
#00617:23230000
#00619:00002323
#0441b:1313
#04412:0000001300242400
#04415:0013000000000000
#04418:00130000
#04615:1313
#04618:0000001300000000
#0461b:0013000000000000
#04612:0000130000000013
#0461a:0000000000242400
#04118:0013
#04112:0000001300000000
#0411b:13
#04812:00130013
#0481b:0013
#04815:2323
#04818:00230023
#05215:13
#05015:13
#04918:13
#0491f:11
#05118:13
#00315:13
#00115:13
#05318:13
#05319:00130000
#0531a:0013
#0531b:00000013
#05312:13
#05313:00130000
#05314:0013
#05315:00000013
#05415:13
#05414:00130000
#05413:0013
#05412:00000013
#0541b:13
#0541a:00130000
#05419:0013
#05418:00000013
#08219:0000001300000000
#0821a:0000000000000013
#0831b:0000001300000000
#08414:0000001300000000
#08413:0000000000000013
#0451b:0013
#04515:0000001300000000
#04518:13
#04510:41
#04315:0013
#0431b:0000001300000000
#04312:13
#04712:0013
#04718:0000001300000023
#04715:13
#03312:23130000
#03318:23130000
#0331b:0013
#03315:0000000000000013
#03310:41
#03418:00130023
#03415:0000001300230000
#0341b:0023
#03412:0000000000000023
#03518:0013130000001300
#03515:00000013000000000000000000001300
#03512:0000001300130000
#0351b:0013
#0371b:23130000
#03715:23130000
#03712:0013
#03718:0000000000000013
#03815:00130013
#03812:0013
#03818:0000001300130000
#0381b:0000000000000013
#0581b:0000000000000013
#05818:0000001300001300
#05815:0000130000130000
#05812:0013
#05810:41
#05912:0013130000001300
#05918:00000013000000001300000000001300
#0591b:0000001300000000
#05915:0000000000130000
#0611b:00130000
#06115:0000130000000013
#06118:2313
#06112:23
#06212:0000000000000013
#06215:0000001300001300
#06218:0000130000130000
#0621b:0013
#0631b:0013130000000000
#06315:00000013000000000000000000001300
#06312:0000001300000000
#06318:0013
#06418:1300000000000013
#06412:0013000000000000
#0641b:00130000
#06415:00000013
#06518:00140000
#06512:0000140000000014
#0651a:2414
#06514:24
#0661a:00140000
#06612:0000001400000026
#06618:00002426
#06614:0000000000240000
#06818:140000001400000000130000
#0681a:001400000000
#06819:00140000
#06812:141400
#06814:001400000000
#06813:00140000
#06815:0000000000000013
#06914:00140000
#0691a:0000140000000014
#06912:2414
#06918:24
#07012:00140024
#0701a:0000001400000000
#07018:0000000000140000
#07016:0000000000000014
#07014:0024
#07214:00180000
#07216:00000024
#07217:22
#07312:14
#0731a:0000001400000000
#07316:0014
#07310:41
#0781a:1414
#07816:0014001400000000
#07812:0000140000242400
#07512:0000001400000000
#07516:0014
#0751a:14
#07712:1414
#0771a:0000001400000000
#0741a:1414
#07412:0014001400242400
#07416:00140000
#07612:1414
#0761a:0014001400242400
#07616:00140000
#0791a:1414
#07912:0000001400000024
#05512:1300000000000026
#05515:00130000
#05518:0013
#0551b:00000013
#02912:2400000000242400
#0301a:2400000000242400
#04012:23
#0401b:23
#0401a:00230000
#04013:00230000
#04014:0023
#04019:0023
#04015:00000026
#00816:00000024
#0081a:24242400
#00812:24242400
#01218:0023000024000000
#01215:00230000
#01214:0000000000240000
#0121a:00000024
#0321a:0024002400000000
#03212:00242400
#0561a:0024002400000000
#05612:00242400
#0801a:24
#08014:00240000
#08018:0024
#08012:00000024
#0811a:24
#08618:26
#08518:24240000
#08514:0024002400000000
#0851a:0024
#08512:00000024
#02158:13
#00258:53
#00458:53
#0305a:14
#02952:14
#03952:0053
#0575b:13
#05755:1363
#05758:0000000000000053
#00856:00000014
#01055:0063
#0095b:00000023
#00958:0053
#00952:53
#01152:00000023
#01155:0063
#0115b:63
#0135a:14
#01752:14
#02052:53
#02055:00630000
#02555:13
#02855:63
#02858:0053
#03652:53
#03658:53
#0365b:00630000
#03655:00630000
#04158:0053
#0415b:63
#05255:63
#05055:63
#04958:53
#05158:53
#00355:63
#00155:63
#05552:0000000000000016
#04055:00000016
#0455b:0063
#04558:53
#04355:0063
#04352:53
#04752:0053
#04755:63
#03358:13
#03352:13
#0335b:0063
#03355:0000000000000063
#03752:0053
#03758:0000000000000053
#03755:13
#0375b:13
#06158:1353
#06155:0000000000000063
#06152:13
#06052:00530000
#06358:0053
#0645b:00630000
#0655a:1464
#06554:14
#06552:0000000000000054
#06652:0000000000000016
#06858:542400
#06859:00540000
#0685a:002400000000
#06852:542400
#06854:002400000000
#06853:00540000
#06952:1454
#0695a:0000000000000064
#06958:14
#07256:00000014
#07254:00680000
#07257:22
#07352:54
#07356:0064
#07556:0054
#0755a:64
#07752:5454
#0795a:6464
#0815a:64
#08658:56
#001350:13
#002320:23
#002381:13
#0033b1:23
#003350:13
#004320:23
#004381:13
#0043b1:0023
#009321:13
#009351:00230000
#009381:0013
#0093b1:00000053
#010381:23
#010351:0013
#010321:00000023
#0113b1:13
#011381:00230000
#011351:0013
#011321:00000053
#012351:23
#0123a1:00000000000000000000000014343434
#0133a1:24
#0133a1:0000000000143400
#013371:0000000000000024
#013350:0000000000143400
#013320:0000000000000024
#020320:1323
#020350:00330000
#028350:13
#028320:00230000
#028380:0013
#0283b0:00000023
#0333b0:0013
#033380:00000023
#033350:0000000000000013
#034320:0023000000000000
#036320:1323
#036350:00330000
#036381:1323
#0363b1:00330000
#037321:0013
#037351:00000023
#037381:0000000000000013
#0383b1:0023000000000000
#039321:0013
#039351:00000023
#0413b1:13
#041381:00230000
#041381:0013
#0413b1:00000023
#043321:13
#043351:00230000
#043351:0013
#043321:00000023
#045381:13
#0453b1:00230000
#0453b1:0013
#045381:00000023
#047351:13
#047321:00230000
#047321:0013
#047351:00000023
#049381:13
#0503b1:23
#050350:13
#051320:23
#051381:13
#0523b1:23
#052350:13
#052320:0023
#057350:0013
#057320:00000023
#057380:0000000000000013
#0583b0:0023000000000000
#060320:00130000
#060350:0023
#061380:0013
#0613b0:00000023
#061350:0000000000000013
#062320:0023000000000000
#063380:0013
#0633b0:00000023
#0643b0:00130000
#064380:0023
#0653a0:0014
#065360:00000024
#065320:0000000000000014
#066360:0024000000000000
#068320:145400
#068340:005400240000
#068330:00340000
#068381:145400
#0683a1:005400240000
#068391:00340000
#069321:0014
#069361:00000024
#0693a1:0000000000000014
#070361:0024000000000000
#072371:1222
#072341:00380000
#073321:14
#073361:00240000
#073361:0014
#073321:00000024
#0753a1:14
#075361:00240000
#075361:0014
#0753a1:00000024
#077321:14
#077361:00240000
#077321:0014
#077361:00000024
#0793a1:14
#079361:00240000
#0793a1:0014
#079361:00000024
#0813a1:14
#081361:00000024
#082321:14240000
#082331:00001424
#083341:14240000
#083351:00001424
#0843a1:14240000
#084391:00001424
#086381:16
#0883a1:00220000
