This file was generated by Ched 2.7.0.0.
#TITLE ""
#ARTIST ""
#DESIGNER ""
#DIFFICULTY 0
#PLAYLEVEL
#SONGID ""
#WAVE ""
#WAVEOFFSET 0
#JACKET ""
#REQUEST "ticks_per_beat 480"
#00002: 4
#BPM01: 150
#00008: 01
#TIL00: ""
#VOLUME: ""
#HISPEED 00
#MEASUREHS 00
#00417:14
#00217:14
#00512:00140014
#0051a:0014
#00618:1414
#00614:00140014
#0071a:14
#00712:00140000
#00718:0014
#00714:00000014
#0211a:00140014
#02112:2414
#02110:41
#02214:1414
#02218:00140014
#02312:1414
#0231a:00140014
#02414:1414
#02418:00140000
#03312:00140000
#03318:0014
#03314:00000014
#0331a:24
#03310:41
#0341a:14
#03414:00000014
#03412:00140000
#03418:0014
#03618:14
#03614:0014000000000000
#0421a:14
#04214:00140000
#04218:0014
#04212:00000014
#05318:00140000
#0531a:00000014
#05314:0014
#05412:0014
#05418:00000014
#05414:14
#0541a:00140000
#0551a:00140000
#05512:14
#05514:0014
#0571a:00140000
#05714:0014
#05718:00000014
#05712:24
#0571f:21
#05812:14
#05816:00140014
#0581a:0014
#05810:41
#06012:14
#0601a:0014000000000000
#08212:00140014
#0821a:1414
#08318:1414
#08314:00140014
#0081a:14000024
#00816:00140000
#00812:0014
#01218:00140000
#01214:0014
#0121a:00000014
#01212:14
#01318:00140014
#01312:2414
#01414:1414
#0141a:00140014
#01512:1414
#01518:00140014
#01614:1414
#01618:00140000
#01714:00140014
#0171a:2414
#01818:1414
#01812:00140014
#0191a:1414
#01914:00140014
#02512:00140014
#0251a:2414
#02618:1414
#02614:00140014
#0271a:1414
#02712:00140014
#02912:2400000000140000
#02918:24000014
#0301a:2400000000140000
#03014:24000014
#0311a:14
#03112:00140000
#03118:0014
#03114:00000014
#03214:00000014
#0371a:00140000
#03714:0014
#03718:00000014
#03712:24
#03812:14
#03818:00000014
#0381a:00140000
#03814:0014
#04412:14
#04418:00140000
#04414:0014
#0441a:00000014
#04618:14
#04612:00140000
#0461a:0014
#04614:00000014
#04814:14
#0481a:00140000
#04812:0024
#04818:00000024
#05215:14
#05015:14
#05112:14
#04912:14
#0491f:11
#0031a:14
#0011a:14
#06112:00140000
#06118:0014
#06114:00000014
#0611a:24
#0621a:14
#06216:00140014
#06212:0014
#0641a:14
#06412:0014000000000000
#06518:00140000
#06514:0014
#0651a:00000014
#06512:24
#06614:14
#06618:00140026
#06612:0026
#06812:14
#0681a:0014000000000000
#06914:00140000
#06918:0014
#06912:00000014
#0691a:24
#07018:14
#07014:00140000
#07012:00000014
#0701a:0014
#07418:14
#07414:00140000
#0741a:0014
#07412:00000014
#07614:14
#07618:00140000
#07612:0014
#0761a:00000014
#0781a:14
#07816:00140014
#07812:0014
#07714:0014
#07712:14
#07312:0014
#07314:14
#07310:41
#0751a:0014
#07518:14
#07918:0014
#0791a:14
#08012:14
#08016:00140024
#0801a:0024
#08115:0000001400000000
#08112:24
#08412:00140014
#0841a:1414
#08518:1414
#08514:00140014
#0101a:14
#01014:00140000
#01018:0014
#01012:00000014
#04014:24240000
#04018:0024000000002400
#07218:00000024
#00910:41
#04510:41
#0055a:14
#02952:14
#02958:14
#0305a:14
#03054:14
#00257:54
#00457:54
#0335a:14
#03658:0014
#05752:14
#06052:0014
#0085a:00000014
#03752:14
#04058:00000014
#05255:64
#05055:64
#05152:54
#04952:54
#0035a:64
#0015a:64
#0615a:14
#0645a:0014
#06552:14
#06854:0014
#0695a:14
#07258:00000014
#07754:0064
#07752:54
#07352:0054
#07354:64
#0755a:0064
#07558:54
#07958:0054
#0795a:64
#08152:54
#08155:0000002400000000
#01654:0014
#02454:0014
#0013a0:14
#002370:34
#0033a0:34
#004370:34
#0053a0:24
#009320:14
#009340:0000003434002400
#0113a0:14
#011380:0000003434002400
#0203a0:14000024
#020380:00343400
#028380:14000024
#0283a0:00343400
#032380:14
#0323a0:0024
#0353a0:14
#035380:00240000
#035340:0014
#035320:00000024
#036380:00142400
#039320:14
#039340:00240000
#039380:0014
#0393a0:00000024
#040340:00142400
#041320:14000024
#041340:0000003434000000
#0433a0:14000024
#043380:0000003434000000
#045340:14000024
#045320:0000003434000000
#047380:14000024
#0473a0:0000003434000000
#049320:14
#050350:34
#051320:34
#052350:34
#053320:24
#055380:0000000000001434
#056380:0034343424000000
#059320:14
#059340:00240000
#0593a0:0014
#059380:00000024
#060320:00142400
#0633a0:14
#063380:00240000
#063320:0014
#063340:00000024
#0643a0:00142400
#067340:14
#067320:00240000
#067380:0014
#0673a0:00000024
#068340:00142400
#071380:14
#0713a0:00240000
#071340:0014
#071320:00000024
#072380:14343424
#073340:14000024
#073320:0000003434000000
#075380:14000024
#0753a0:0000003434000000
#077320:14000024
#077340:0000003434000000
#0793a0:14000024
#079380:0000003434000000
#081320:14000024
#081350:0000005400000000
#0863a0:14
#0883a0:00240000
