This file was generated by Ched 2.7.0.0.
#TITLE ""
#ARTIST ""
#DESIGNER ""
#DIFFICULTY 0
#PLAYLEVEL
#SONGID ""
#WAVE ""
#WAVEOFFSET 0
#JACKET ""
#REQUEST "ticks_per_beat 480"
#00002: 4
#BPM01: 220
#00008: 01
#TIL00: ""
#VOLUME: ""
#HISPEED 00
#MEASUREHS 00
#0001a:14
#00418:14
#00512:14
#0061a:14
#00712:14
#00818:14
#00914:14
#00112:14
#00314:14
#0021a:14
#00210:41
#0101a:14
#01010:41
#0111a:14
#01212:14
#01312:14
#0181a:14
#01914:14
#02018:14
#02112:14
#0221a:14
#0231a:14
#02412:14
#02512:14
#03412:0016
#03418:26
#03410:41
#03518:16
#03512:0016
#03618:16
#03612:0016
#03718:16
#03712:0016
#04218:16
#04212:0016
#04318:1616
#04412:16
#04418:0016
#04512:1616
#04812:0016
#04918:16
#04912:0016
#06618:14
#06718:0016
#06712:26
#0671f:21
#06812:16
#06818:0016
#06912:1616
#06910:41
#07018:1616
#07512:1616
#07618:16
#07612:0016
#07718:1616
#07812:16
#07818:0016
#08118:0016
#08212:2616
#08318:1616
#08412:16
#08418:0016
#08512:16
#08518:0016
#09012:16
#09018:0016
#09010:41
#09112:1616
#09218:16
#09212:0016
#09318:1616
#09618:0014
#09714:14
#0501f:11
#05513:34
#05614:34
#05218:34
#05119:34
#02610:41
#014380:14
#015380:24
#016340:14
#017340:24
#0263a0:14
#0273a0:24
#028340:14
#029340:24
#030380:14
#031380:24
#032320:14
#033320:24
#038380:1636
#039380:26
#040320:1636
#041320:26
#046380:1600003600000000
#047380:3600003600000000
#048380:26
#0503a0:14
#051390:34
#052380:34
#053380:24
#054320:14
#055330:34
#056340:34
#057340:24
#058380:14
#059380:24
#060320:14
#061320:24
#0623a0:14
#0633a0:24
#064340:14
#065340:24
#071320:1636
#072320:26
#073380:1636
#074380:26
#079320:1600003600000000
#080320:3600003600000000
#081320:26
#086320:1636
#087320:3626
#088380:1636
#089380:3626
#094320:1600003600000000
#095320:3600003600000000
#096320:26
