This file was generated by Ched 2.7.0.0.
#TITLE ""
#ARTIST ""
#DESIGNER ""
#DIFFICULTY 0
#PLAYLEVEL
#SONGID ""
#WAVE ""
#WAVEOFFSET 0
#JACKET ""
#REQUEST "ticks_per_beat 480"
#00002: 4
#BPM01: 220
#00008: 01
#TIL00: ""
#VOLUME: ""
#HISPEED 00
#MEASUREHS 00
#00018:1313000000140014
#00014:00001414
#0001a:0000001400000000
#00012:00140000
#00015:00130000000000000000000000000000
#00217:0000131300000000
#00212:0013
#00216:0000000000001313
#0021b:23
#00210:41
#0031b:1300000000000013
#00317:0000131300000000
#00312:0013
#00316:00000013
#0051b:0000001300000000
#00512:0000000000131300
#01016:13131313
#0101b:23232323
#01010:41
#01112:00000013000000000000000013000000
#01117:00000013000000000000000000000000
#01116:2300000000140000
#0111b:23000013
#0071b:1313
#00715:0013000013000000
#00718:00130000
#00712:0000001300000000
#01217:13131313
#01212:13131313
#01315:00130013
#01312:1300001300130000
#0131b:13
#01518:00130000
#01515:00130000
#01512:23000013
#0151b:23000013
#01612:13130000
#01618:0000001300000000
#0161b:00001313
#01615:0000000000000013
#0181b:13131313
#01816:13131313
#01916:0000000000140000
#01912:00000013
#0191b:00000013
#01914:28
#0211b:00130000
#02116:00130000
#02114:0000001300000000
#02119:0000001300000000
#02117:0000000000131300
#02115:13
#02216:1414
#0221b:1300000000000013
#02212:0000001300000000
#02218:00130000
#02215:00000013
#02316:14
#02314:00140000
#02312:00001414
#0231b:0013000000000000
#02319:0000001300000000
#00115:1313000000000000
#00118:00130000000000000000000000000000
#0011a:00140000
#00112:0000001400000000
#01412:0000001300000000
#0141b:0000000000000013
#01418:13130000
#01415:00001313
#02415:14141414000000000000000000000000
#02414:0014000000140000000000001400000000000000000000000000000000000000
#02416:0000001400000014000000000000000000000014000000140000000000000000
#02417:00000000000000001414141400000000
#02418:0000000000000000000000000000000000140000001400000000000014000000
#0241a:14140000
#02412:00001414
#0251a:1414
#02515:1414
#02512:00140014
#02517:00140014
#02612:00000000330000133300000000000000
#02616:13
#02619:00130000
#0261b:00000013
#02614:0000000000000013
#02617:0013
#0261a:24
#02610:41
#0271b:00000000330000133300000000000000
#02717:13
#02714:00130000
#02712:13000013
#02719:0000000000000013
#02716:0013
#02812:00001212
#0281c:1212120000000000
#02814:0000001200000000
#02817:22
#02816:0024
#0291b:1300000000131300
#02917:00000013000000000000000000000000
#02912:00000015000000000000000000000000
#02915:26000013
#03012:1300001300130000
#03018:13
#03015:00131313
#0301b:00131313
#03112:13000000000013000000000000160000
#0311b:0000131300000000
#03116:0000000000120000
#03118:00000000000000000000120000160000
#0321b:00130000
#0321c:0012
#03215:0000000000120000
#03219:00000012
#03212:0000130000000012
#03316:00000012000000000000000000000000
#03312:003232000000
#03412:0014
#03419:00000014
#03417:0014
#03414:00000014
#03415:0000000000000014
#03418:0000000000140000
#03416:23
#0341b:23
#03410:41
#0351a:14
#03519:00140000
#03518:0014
#03517:00000014
#03516:14
#03515:00140000
#03514:0014
#03513:00000014
#03612:13001313
#03616:0013000000000000
#03617:13
#0361b:0013000013000013
#03615:0000000000130000
#03618:00000013
#0371b:00130000
#03719:0000001300000000
#03712:0013
#03717:0013
#03816:0000001400000014
#03818:1300000000130000
#0381b:0013000023002300
#03815:0013
#03812:2300230000130000
#04018:1300131300000000
#04012:13130013
#0401b:0000000013131300
#04015:0000000013000013
#04112:2300001313000000
#0411b:2300001313000000
#0421b:1313000000330000
#04212:1313
#04217:0000001300000013
#04214:00230023
#04312:1313
#04317:13
#0431b:0000131300000000
#04314:00230023
#0441b:1300000013000013
#04412:1300000013131300
#04414:0000001300000000
#04419:00230023
#0451b:13
#04512:0000231300000000
#04517:0000001300000000
#04515:13
#04612:14
#04615:00140000
#0471a:1400002400000000
#04716:0014140000000000
#0481a:14
#04815:00000000000000000014000000140000
#04816:1300000014141414
#04817:00000000000000000000001400000014
#04916:00141400
#0491c:00000022
#05012:1200000000000012
#05018:1212000000000012
#05016:0000001200000000
#05014:0000120000120000
#0501c:0000001200000000
#0501a:0000000000120000
#0501f:11
#05114:0012000000120000
#0511a:0012000000120000
#05116:0000001200000012
#0511c:0000001200000000
#05118:00000012
#05212:1200000000000012
#05218:12000000000000000000000000000000000000000000000000000000000000120000000000000000000000000000000000000000000000000000000000000000
#0521c:00120000
#05216:0000000000000000120000000000000000000012000000000000000000000000
#05214:00000000000000000000000000000000000000000000000000000000000000120000000000000000000000000000000000000000000000000000000000000000
#0521a:0000000000000000000000000000000000000012000000000000000000000000
#0531c:12
#05316:12
#05312:0012000000000000
#05318:0012000000000000
#0531a:00000000000000000000000000000000000000000000000000000000003200000000000000000000000000000000000000000000000000000000000000000000
#05315:00000000000000000000000000000000000000000000000000000000003200000000000000000000000000000000000000000000000000000000000000000000
#05417:1200001200000000
#0541c:12
#05415:0012000000000000
#05412:0000001200000000
#05414:0000000000120000
#05419:0000000000120000
#0541a:0012000000000000
#0541b:0000000000000012
#05513:0000000000000000000000000000000000000032000000000000000000000000000000000000000000000000000000000000000000000000000000000000000000000000000000000000000000000000000000000000000000000000000000001200000000000000000000000000000012000000000000000000000000000000
#0551b:0000000000000000000000000000000012000000000000000000000000000000000000000000000000000000000000000000000000000000000000000000000000000000000000000000000000000000000000000000000000000000000000000000000000000000000000000000000000000000003200000000000000000000
#05518:0000000000000000000000000000000000000000000000000000000000000000000000000000003200000000000000000000000000000000000000000000000000000000000000000000000000000000000000000000000000000000000000000000000000000000000000000000000000000000000000000000000000000000
#05616:0012000000000012
#05613:0000001200000000
#05612:0000000000120000
#05614:00000012
#0561a:0000000000000012
#05618:0000000000000000000000000032000000000000000000001200000000000000
#05718:0012000000000000
#05714:0012000000000000
#05716:0000001212000000
#0571a:0000001200000000
#05812:1313
#05816:0000130000001313
#05817:13
#0581b:00331333
#05915:13
#05917:00130013
#0591b:0013
#05912:00331333
#05919:0000000000000013
#06118:00000012000000000000000000000000
#06112:00000013
#0611b:00000013
#06115:0000000000130000
#06116:00000012000000000000000000000000
#06016:0013130000000000
#06019:0000001300000000
#06012:00000013
#0621b:1300130000130000
#06212:00130000
#06218:0000001300001300
#06215:0013
#06216:13
#0631b:1300001300000000
#06315:00130000
#06312:00000000000013000000000000120000
#0631c:00000000000000000000000000120000
#06316:0000000000220000
#06318:0000000000220000
#0641b:0000130000130000
#06416:00130000
#06412:0013
#06417:0013
#06415:00000013
#06418:0000000000000013
#0651b:13
#06517:000000003300000033000000130000000000330000330000
#06512:1312
#06612:13
#0661c:0012
#06616:003333000000
#06712:2314
#06717:0014
#06719:00000014
#06714:00000014
#06718:0000000000140000
#06715:0000000000000014
#0671b:23
#0671f:21
#06912:1400000000141400
#06916:14140000
#0691a:00141400
#06918:0000000000001414
#06910:41
#0701a:14
#07012:14000013
#0701b:00130000
#07019:0000001300000000
#07017:0013
#07014:0000000000000013
#07116:13
#07112:00131300
#07118:0000131313000000
#07115:0000000000001313
#0711b:0000000000130013
#07218:0013001300000000
#07212:00001300000000000013330000000000
#07215:0000001300000000
#0721b:00000000000000000013330000000000
#07316:00140014
#07318:0000001400000014
#0731a:1424
#07312:2414
#07314:0000000000140000
#0741a:14
#07418:00142626
#07414:0014
#07412:26260014
#07515:1400001414000000
#07517:0014000000141400
#0751a:1400000014000014
#07512:00240024
#0761a:1400241400002400
#07617:0000000000140000
#07615:1400141400000000
#07612:00000000000000000014000000000000
#07912:1300000000131300
#07917:13
#07916:0000132300000013
#07918:0000000000130000
#0791b:0000002300000013
#08017:0013000000000000
#08018:00000012
#08012:0013330000000000
#08016:0000001300000000
#0801b:0000332300000000
#08112:12000012
#08118:12000012
#08116:0000001212000000
#0811c:00120000
#0821a:2400001400001400
#08214:2414
#08218:0000000000140000
#08212:00140014
#08216:0000000000000014
#08217:00140000
#08417:130000131313000000000000140000000000000000000000
#08413:000000131313000000000000000000000000000000000000
#08414:000000000000001300000013000000000000000000000000000000000000000000000000140000000000000000000000
#08412:00000013000000001400000000000000
#0841b:13
#08418:000000000000001300000013000000000000000000000000000000000000000000000000000000000000130000000000
#08416:00000013000000000000130000000000
#08419:00000014
#08516:14140000
#0851b:1313
#08515:0000000000130000
#0851a:00000014
#08519:0000001300000000
#08512:00001313
#0861b:0000001300000000
#08617:13
#08612:13001314
#08615:0000000000130013
#08618:00001313
#0861a:0000000000000024
#08718:0013000000000000
#0871a:0000002400001400
#08717:0000000000140000
#08712:0024000000000000
#08716:0000002400000000
#0881b:13
#08817:0014000000000000
#08819:0000001400000000
#0881a:0014
#08812:1413
#08815:0000000000140000
#08813:0000000000000014
#08814:00240000
#08818:00000024
#09018:1300000000130000
#09015:0013000000001300
#09017:0000001300000000
#09012:1400130000000013
#09013:0014
#0901b:0013
#0901a:00240024
#09010:41
#09115:14
#09117:0000001400000000
#0911a:0000000000141400
#09112:00240024
#09319:0000000000000000000000000013001300130013000000000000000000000000
#09318:00000000000023131313000000000000
#0931b:23000023
#09312:00000023
#09418:00000013
#0941a:0000002400000014
#09412:0000002400000014
#09415:0000000000130000
#0951c:00000012
#09515:1313000000000000
#09518:00130000130000000000000000000000
#09512:0000002500000000
#09519:0000002500000000
#09618:1200001200001200
#09612:12
#0961c:0000000012000032
#03918:0013000000000000
#0391b:00130000
#03916:0000000000140000
#03912:0023002300002400
#0391a:00000024
#00615:1313
#0061b:1313
#00612:00330033
#00618:00330033
#00912:1313
#00918:0013000013000000
#00915:00130000
#0091b:0000001300000000
#00818:1313
#00812:1313
#00815:00330033
#0081b:00330033
#07717:1414
#0771a:0000240000142414
#07712:1400001414000000
#07715:00140014
#07817:14140000
#07812:14240024
#07814:0000001400140000
#0781b:0000001300000000
#07818:00000000000000000013000000000000
#09215:1300000000130000
#09218:0013000000001300
#09216:0000001300000000
#0921b:0000130000000013
#09219:0014
#0921a:14
#09212:00241324
#0201b:13131313
#02016:1313000000000000
#02012:0000001313130000
#02015:00000013
#02018:0000000000000013
#01712:23232323
#01717:23232200
#0681a:24
#06816:24
#06815:00240000
#06819:00240000
#06818:0024
#06814:0024
#06813:00000024
#06817:00000024
#0831a:2424
#08314:2424
#08312:00240024
#08318:00240024
#08912:2324
#08915:00230024
#08917:24
#0891a:00240000
#08918:0023
#0891b:00000023
#0055b:0000006300000000
#01152:00000023000000000000000000000000
#01157:00000023000000000000000000000000
#01156:5300001300000000
#0115b:5300004300000000
#01252:13131313
#01555:00630000
#01558:00630000
#0155b:5313
#01552:5313
#00152:00000014
#0015a:00000014
#01856:13131313
#0225b:13
#02256:1414
#02356:14
#02354:00140000
#02352:0014
#02455:64646464000000000000000000000000
#02456:0000002400000024000000000000000000000024000000240000000000000000
#02454:0024000000240000000000000000000000000000000000000000000000000000
#02457:00000000000000005454545400000000
#02458:0000000000000000000000000000000000240000002400000000000000000000
#0255a:4444
#02552:00340034
#0265a:44
#02656:53
#02652:00000000000000230000000000000000
#0275b:00000000000000230000000000000000
#02757:63
#0295b:6300004300000000
#02957:00000023000000000000000000000000
#02952:00000025000000000000000000000000
#02955:6600001600000000
#0305b:00000063
#03152:63000000000000000000000000260000
#03158:00000000000000000000620000260000
#03156:0000000000620000
#03352:0032
#03356:00000022000000000000000000000000
#03252:0000000000000062
#03256:12
#03258:12
#03456:53
#0345b:53
#03656:0023000000000000
#0365b:0023000000000000
#03652:53
#03657:53
#0375b:00000013
#03752:0063
#03757:0063
#03756:00000013
#0415b:0063
#04152:0063
#0435b:0000005300000000
#0455b:63000013
#04552:0000005300000000
#04557:0000005300000000
#04556:00000013
#03858:53
#0385b:0023000000000000
#03855:0063
#03852:0000000000230000
#04657:00000014
#04652:00000014
#04856:6300000054545454
#04857:00000000000000000000002400000024
#04855:00000000000000000024000000240000
#04852:0013
#0485a:64
#0495c:00000012
#04452:63
#05553:0012
#05558:0012
#0565a:0000000000000012
#05754:0012000000000000
#05756:0022
#05955:63
#05952:0023
#06158:00000022000000000000000000000000
#06156:00000022000000000000000000000000
#06153:0000001200000000
#0615b:0000001200000000
#0105b:13131313
#0635b:53
#0635c:00000000000000000000000000220000
#06352:00000000000000000000000000220000
#06356:0000000000520000
#06358:0000000000520000
#06652:53
#06656:0013
#0665c:0012
#06557:0023
#0655b:63
#06752:63
#0675b:63
#06856:14
#06859:00140000
#06854:0014
#06857:00000014
#06952:64
#06956:00240000
#07052:0013
#0715b:1300000000000013
#07252:00001300000000000023000000000000
#07255:0000005300000000
#07258:0000005300000000
#0725b:00000000000000000023000000000000
#07452:16160000
#07458:00001616
#07655:0000005400000000
#07652:00000000000000000024000000000000
#07957:63
#0795b:0000001300000063
#07956:0000001300000000
#08057:0063000000000000
#0805b:0000001300000000
#08052:0063000000000000
#08056:0000006300000000
#08158:52000022
#08156:0052
#0815c:00220000
#08152:00000022
#08254:44
#0825a:44
#08457:530000535353000000000000000000000000000000000000
#08453:000000535353000000000000000000000000000000000000
#08454:000000000000002300000023000000000000000000000000000000000000000000000000000000000000000000000000
#08452:00000023000000000000000000000000
#0845b:53
#08458:000000000000002300000023000000000000000000000000000000000000000000000000000000000000000000000000
#08456:00000023000000000000000000000000
#08556:54
#0855a:00000014
#08657:63
#08652:23
#0865a:0000000000000014
#08957:14
#0895a:00140000
#08952:0014
#08955:00000014
#09359:0000000000000000000000000023002300230023000000000000000000000000
#09358:00000000000023232323000000000000
#09452:0000001400000000
#0945a:0000001400000000
#09552:0000001500000000
#09559:0000001500000000
#09652:52
#09658:00000022
#0965c:0062
#03958:0053000000000000
#0395b:00230000
#00655:6363
#0065b:6363
#0075b:0063
#00755:0063
#00858:5353
#00852:5353
#00952:0053
#00958:0053
#06056:00630000
#0785b:0000006300001300
#07858:00000000000000000023000000000000
#07852:00000014
#01954:0000001800000000
#0355a:14
#03555:00140000
#03558:0014
#03553:00000014
#0205b:00000053
#02058:0000000000000023
#0975c:42
#08352:00340034
#0835a:4444
#08752:0014000000000000
#0875a:0000001400000000
#08756:0000005400000000
#05857:53
#0585b:0023
#0013a0:00001424
#001321:00001424
#002361:13
#002321:00230000
#002371:0013
#0023b1:00000023
#003361:13
#003341:0033000000000000
#003321:00230000
#003371:0013
#003391:0000000000330000
#0033b1:00000023
#004321:1323000000000000
#004370:0013230000000000
#004341:0000132300000000
#004390:0000001323000000
#004361:0000000013230000
#0043b0:0000000000132300
#004321:0000000000001323
#004370:0000000000000013
#005370:23
#005341:1323000000000000
#005390:0013230000000000
#005361:0000132300000000
#0053b0:0000001300000000
#005370:0000000000332300
#0063b0:13
#006380:0000332300000000
#006351:13
#006321:0000332300000000
#0063b1:0013
#006381:0000000000003323
#006350:0013
#006320:0000000000003323
#0073b0:0013
#007380:00000023
#007351:0013
#007321:00000023
#008321:13
#008351:0000332300000000
#008380:13
#0083b0:0000332300000000
#008320:0013
#008350:0000000000003323
#008381:0013
#0083b1:0000000000003323
#009321:0013
#009351:00000023
#009380:0013
#0093b0:00000023
#011360:1300002300000000
#011320:00000053000000000000000000000000
#0113b1:1300002300000000
#011371:00000053000000000000000000000000
#0133b1:00130023
#013381:0000003300330000
#014321:13230000
#0143b1:00001323
#015321:1300003323000000
#015351:0033330000000000
#0153b0:1300003323000000
#015380:0033330000000000
#016380:13230000
#016350:00001323
#017370:0012
#0173a0:00000000000000000052000000000000
#0173b0:00000022
#019340:1800002800000000
#0203b0:00000013
#020380:0000000000000053
#0213b0:23
#021320:0000000000132300
#023370:00001323
#024350:14545454240000000000000000000000
#024340:0054000000540000000000000000000000000000000000000000000000000000
#024360:0000005400000054000000000000000000000000000000000000000000000000
#024370:00000000000000001454545424000000
#024380:0000000000000000000000000000000000540000005400000000000000000000
#024360:0000000000000000000000000000000000000054000000540000000000000000
#026360:13000023
#026320:00000000330000533300000000000000
#027370:13000023
#0273b0:00000000330000533300000000000000
#028370:12220000
#028360:00001424
#0293b0:1300002300000000
#029370:00000053000000000000000000000000
#029351:1600002600000000
#029321:00000055000000000000000000000000
#0303b1:00000013
#031371:23
#031320:13
#031360:00230000
#031360:0000000000120000
#031320:00000000000000000000000000560000
#032360:22
#031381:00000000000000000000120000560000
#032381:22
#032321:0000000000000012
#033321:003232220000
#033361:00000052000000000000000000000000
#034361:13
#034321:00230000
#0343b0:13
#034370:00230000
#036320:13230000
#036360:0053000000000000
#036371:13230000
#0363b1:0053000000000000
#037361:13000023
#037321:00333300
#037370:0013
#0373b0:00000023
#038380:13230000
#0383b0:0053000000000000
#038350:00001323
#038320:0000000000530000
#039380:0013002300000000
#0393b0:00530000
#0413b0:13230000
#041380:0053000000000000
#041321:13230000
#041351:0053000000000000
#041321:0013
#041351:00000023
#0413b0:0013
#041380:00000023
#042370:0013
#0423b0:0000000000332300
#0433b0:0000001300000000
#043370:00005323
#044320:13
#044360:00230000
#0453b0:13000023
#045370:0000333300000000
#045321:0000001300000000
#045361:00000023
#046371:1400003400342400
#0463a1:0054340000000000
#046320:0000001400342400
#047360:1400003400002400
#047320:0034340000000000
#0473a1:0000001400003400
#0483a1:34
#048361:0000003434545454
#048351:00000000000000000054000000540000
#048371:00000000000000000000005400000054
#049361:24
#048360:13
#048320:0000003323000000
#049320:13333323
#053370:0000001200000000
#0533a0:00000000000000000000000000000000000000000000000000000000003200003200000000000000000000000000000000000000000000000000000000000000
#0533b0:00000022
#053321:0000001200000000
#053351:00000000000000000000000000000000000000000000000000000000003200003200000000000000000000000000000000000000000000000000000000000000
#053361:00000022
#054361:0000000000000012
#055361:0032000000000000
#055331:0000000000000000000000000000000000000032000000000000000052000000000000000000000000000000000000000000000000000000000000000000000022000000000000000000000000000000000000000000000000000000000000000000000000000000000000000000000000000000000000000000000000000000
#0553b0:00120000
#055380:0000000000000000000000000000000000000000000000000000000000000000000000000000003200000000520000000000000000000000000000000000000022000000000000000000000000000000000000000000000000000000000000000000000000000000000000000000000000000000000000000000000000000000
#055380:0000000000001232
#0553b0:0000000000000000000000000000000000000000000000000000000000000000000000000000000000000000000000000000000000000000000000000000000000000000000000000000000000000000000000000000000000000000000000000000000000000000000000000000000000000000003200000000000052000000
#0563b0:0000000032000000000000000000005200000000220000000000000000000000
#056380:0000000000000052000000003232000000000000000000000000000000000000
#0573c0:00001222
#057361:0012
#057321:00000022
#058371:13
#0583b1:00335333
#059381:23
#059350:13
#059320:00335333
#060360:23
#0603b1:13230000
#060360:00130000
#060320:0023
#060371:00001323
#061361:12000052000000000000000000000000
#061331:0000002200000000
#061380:12000052000000000000000000000000
#0613b0:0000002200000000
#062320:00000013
#063350:23
#0633b1:13
#063381:00230000
#063361:0000000000120000
#063321:00000000000000000000000000520000
#064361:22
#063380:0000000000120000
#0633c0:00000000000000000000000000520000
#064380:22
#0653b0:13
#065370:000000003300000033000000330000000000330000330000
#0663b0:23
#066321:13
#066361:003333230000
#067321:13
#067361:00220000
#0673b0:13
#067380:00220000
#069320:1424
#069360:00340000
#070360:00130000
#070320:0023
#070370:00000013
#0713b0:23
#072350:0000001300002300
#072320:00000000000000000053330000000000
#072381:0000001300002300
#0723b1:00000000000000000053330000000000
#073321:145454000000240000000000000000000000000000000000
#073331:005400540000000000000000000000000000000000000000000000000000000000000000000000000000000000000000
#0733a1:000000000000000000000000145454000000240000000000
#073391:000000000000000000000000000000000000000000000000005400540000000000000000000000000000000000000000
#076351:0000001400002400
#076321:00000000000000000054000000000000
#0783b1:0000001300002300
#078381:00000000000000000053000000000000
#079371:13
#0793b1:0000332300000000
#0793b1:0000000000000013
#080371:0033000000000000
#0803b1:0000332300000000
#080320:0013330000002300
#080360:0000003300000000
#081380:1222
#0813c0:00520000
#081361:0012
#081321:00000032
#082341:24
#081380:00000012
#0823a0:24
#084370:13
#084330:000000535353000000000000000000000000000000000000
#084340:000000000000005300000053000000000000000000000000000000000000000000000000000000000000000000000000
#084320:00000053240000000000000000000000
#0843b1:13
#084371:000000535353000000000000000000000000000000000000
#084381:000000000000005300000053000000000000000000000000000000000000000000000000000000000000000000000000
#084361:00000053240000000000000000000000
#085361:14
#085321:00240000
#086321:13
#086361:00230000
#086370:13
#0863b0:00230000
#087360:0000001400000000
#087320:00000024
#0913b0:13
#091370:00230000
#091320:0000001300000000
#091360:0000000000230000
#0933b0:13
#093380:00230000
#093341:14240000
#093341:0000001400240000
#093380:00000000000013535353230000000000
#093390:0000000000000000000000000053005300530053000000000000000000000000
#094380:13230000
#094351:13230000
#096321:12
#096361:0000002200000000
#0963c1:0000000012000032
#096381:00000032
#0973c1:22
