This file was generated by Ched 2.7.0.0.
#TITLE ""
#ARTIST ""
#DESIGNER ""
#DIFFICULTY 0
#PLAYLEVEL
#SONGID ""
#WAVE ""
#WAVEOFFSET 0
#JACKET ""
#REQUEST "ticks_per_beat 480"
#00002: 4
#BPM01: 220
#00008: 01
#TIL00: ""
#VOLUME: ""
#HISPEED 00
#MEASUREHS 00
#00015:0013001300000000
#00018:13130000
#0001b:00001313
#00012:0000000000130013
#00218:00130000
#00215:0000001300000000
#00212:23
#00210:41
#01015:1313
#01012:00130013
#0101b:2323
#01018:00230023
#01010:41
#01218:1313
#0121b:00130013
#01212:1313
#01215:00130013
#02018:13
#02012:0013000000000000
#0201b:0000001300130000
#02015:00001313
#0011b:00130000
#00112:0000001300000000
#00118:13
#00115:0013000000000000
#0351b:00130000
#03515:13
#03518:00000013
#03512:0013
#03612:1300000000000013
#03615:0000000000130000
#03618:00000013
#0361b:0013
#05012:1300000000130000
#05018:0013000000130000
#0501b:0000001300000013
#05015:0000130000000013
#0501f:11
#05315:13000000000000000000000000000000000000000000000000000000003300000000000000000000000000000000000000000000000000000000000000000000
#0531b:0013000000000000
#05415:0013000000000000
#05418:0000001300000000
#05413:0000000000130000
#0541a:0000000000000013
#05412:0000001300000000
#05419:0000000000130000
#05414:0000000000000013
#0541b:13
#0881a:14
#08818:0000001300130013
#08815:00231323
#00615:0013
#00612:13
#0131b:00130000
#01315:0000001300000000
#01318:0000000000130000
#01312:0000000000130000
#01512:1313
#01518:0013000000000000
#01515:00130000
#0151b:0000001300000000
#01715:0013000000000000
#01712:0000001300000000
#0171b:2323
#01718:00230000
#01812:1313
#01815:00130013
#01818:1313
#0181b:00130013
#02118:0000001300000000
#02112:00130000
#02115:0000000000130000
#0211b:0000000000130000
#02212:0000001300000000
#02218:0013
#02215:0000000000000013
#0221b:13
#0231b:1313
#02315:0013000000000000
#02318:00130000
#02312:0000001300000000
#02412:00140000001400000000000000000000
#02413:1414141400000000
#02414:00000014000000140000000000000000
#0241a:00000000000000000014000000140000
#02419:0000000014141414
#02418:00000000000000000000001400000014
#02512:0013001300000000
#02518:00130000
#03412:0013
#03418:0000000000130000
#03415:23000013
#0341b:2300000000000013
#03410:41
#03718:13
#03715:0013
#03815:1313
#03818:0000000000130000
#03812:00000013
#0381a:0000000000000014
#0381b:1300001300000000
#03916:0014000000000000
#04815:1300003300000000
#04812:00130000
#04818:0000000000140000
#04819:00002414
#0481a:0000000000000014
#04915:1313
#04918:00130000
#0491b:00000023
#05112:0013000000130000
#0511b:0000001300001300
#05115:0000001300000013
#05118:0013000000000000
#05218:1300000000130000
#0521b:0000130000000013
#05212:1313
#05215:00130000
#0551b:0013000000000013
#05515:00130013
#05518:0013
#05512:0013
#05618:0013000000001300
#05612:0013000000130013
#0561b:0000001300000000
#05615:0000001300000000
#05715:0000001300000000
#05718:0013000000000000
#05812:13
#05916:13
#06018:13131300
#06015:0013001300001300
#06218:0000001300130000
#06215:00131313
#0641b:00130000
#06415:00001313
#06418:0000000000130013
#06318:0000001300000000
#0631b:13
#06315:00130000
#0661b:13
#06617:003333000000
#06512:13
#06515:0000000013003333
#06516:003333000000
#06718:2313
#06712:2300000000130000
#0671b:00000013
#06715:0000000000000013
#0671f:21
#0691b:1300000000000013
#06918:0000000000130000
#06915:00000013
#06912:0013
#06910:41
#07015:13
#07018:0013
#07118:1313
#0711b:00000013
#07112:1300001300000014
#07115:0000000000130000
#08118:1300003300000000
#0811b:00130000
#08115:0013
#08112:00000013
#08112:00000033
#0821b:0000001300000000
#08216:0013
#08219:0000000000130000
#08214:00000013
#08217:0000000000000013
#08215:23
#08412:13
#0841b:0013
#08415:0000000000130013
#08418:00000013
#0851b:13
#08515:00130000
#08518:0000001300000000
#08618:0000000000130000
#08612:00000013
#08615:1313
#0861b:1300001300000000
#0861a:0000000000000024
#0901b:1313
#09015:0013000000130000
#09012:0000001300000013
#09018:00230023
#09010:41
#09212:1313
#09218:0013000000130000
#0921b:0000001300000013
#09215:00230023
#0941b:1300000000130000
#09415:13000013
#09418:0000130000000013
#09412:0000002400000000
#0421b:13
#04212:0013000000000000
#04218:0000001300130000
#04215:00001313
#04312:13
#04315:0000001300000000
#0431b:13
#04318:00130000
#0441b:13
#04412:13
#04418:00131313
#04415:0000001300130000
#04512:13
#04515:00130000
#04518:0000001300000000
#0451b:13
#0751b:0013000000000000
#07515:0000001300130000
#07518:00001313
#07512:13
#0761b:13000000000000000013000000000000
#07615:00130000
#07618:0000001300000000
#07612:13
#07712:13
#0771b:13
#07715:00131313
#07718:0000001300130000
#08715:00000000000000000014000000000000
#08716:0024000000000000
#08712:0000002400000000
#09312:1300001300000000
#09318:00230000
#0411b:0000001300000000
#07216:0014000000000000
#07318:00130000
#07319:0013
#0731a:00000013
#07312:23
#04012:00130000
#04013:0013
#04014:00000013
#04612:13000013
#04618:1300000000130013
#0461b:00130000
#04615:0000001300000000
#07415:0000001300000000
#0741b:23
#07912:13000013
#07918:1300000000130013
#0791b:00130000
#07915:0000002300000000
#0801b:0013000000000000
#08015:00000013
#08018:0000002300000000
#09514:00000012
#09512:13
#09518:0013000000000000
#09515:00130000
#0951a:0000002400000000
#0961b:12
#09616:0012
#09618:0000003200000000
#09613:0000000000003232
#00718:0013000000000000
#00712:00130000
#0071b:0000001300000000
#0911b:1300001300000000
#09115:00230000
#00818:0013
#0081b:13
#00915:0013000000000000
#0091b:00130000
#00912:0000001300000000
#0261b:1300000000000033
#02617:00331333
#02610:41
#02712:1300000000000033
#02716:00331333
#06112:0000001300000000
#03018:0000001300130000
#03015:00131313
#0321b:0000000000000013
#03218:0000130000130000
#03212:0013
#03215:00000013
#03118:0000001300000000
#0311b:13
#03115:00130000
#03318:00000013000000000000000000000000
#0331b:003333000000
#07812:13000000000000000013000000000000
#07818:00130000
#0781b:13
#07815:0000001300000000
#01912:23
#0111b:23
#04718:0000002300000000
#08312:23
#0831b:00230000
#08315:0023
#08318:00000023
#0681b:23
#06815:00230000
#06818:0023
#06812:00000023
#0281a:24
#08912:23
#00313:0033000000000000
#0031a:0000000000330000
#00158:00000013
#03652:53
#0495b:00000013
#01952:0000001300000000
#01958:0000001300000000
#0355b:00130000
#03555:13
#03558:00000013
#03552:0013
#00655:0053
#00652:53
#02258:0013
#0225b:13
#0235b:0053
#02453:5454545400000000
#02454:00000024000000240000000000000000
#02452:00240000002400000000000000000000
#0245a:00000000000000000024000000240000
#02459:0000000064646464
#02458:00000000000000000000002400000024
#03455:53
#0345b:53
#03758:53
#03755:0063
#04855:63
#04852:00230000
#0485a:0000000000000024
#04858:0000000000240000
#04859:00006464
#05852:63
#05956:63
#0665b:63
#06658:0013
#06552:53
#06555:0023
#06758:63
#06752:63
#0695b:63
#07055:63
#07058:0053
#08158:53
#08155:0063
#08152:00000023
#0815b:00230000
#08255:13
#08352:13
#0835b:00130000
#08355:0013
#08358:00000013
#08452:63
#04355:0000005300000000
#04558:0000006300000000
#0765b:00000000000000000023000000000000
#07658:0000006300000000
#08755:00000000000000000024000000000000
#08752:0000005400000000
#0175b:0053
#07958:0000000000000063
#0805b:0063000000000000
#08058:0000001300000000
#09452:0000001400000000
#0955a:0000001400000000
#0965b:52
#09656:0052
#06852:00000013
#06858:0013
#06855:00130000
#0685b:13
#08552:00000013
#0115b:0000001300000000
#01155:0000001300000000
#01552:0053
#00858:0063
#0085b:63
#0265b:53
#02657:0023
#02752:63
#02756:0023
#08955:0013
#08952:53
#0325b:0000000000000053
#03358:00000023000000000000000000000000
#0335b:0013
#09352:0000005300000000
#0915b:0000005300000000
#09753:12
#02956:0000001800000000
#07855:0000005300000000
#07852:00000000000000000023000000000000
#001380:00001323
#002380:0013
#0023b0:00000023
#003320:13
#003330:0033000000000000
#003350:00230000
#0033b0:0013
#0033a0:0000000000330000
#003380:00000023
#004320:1300000000000033
#004330:0033000000003300
#004340:0000330000330000
#004350:0000003333000000
#005320:23
#005381:13
#005391:0033000000000000
#0053a1:00330000
#0053b1:0000003300002300
#006321:1300000000000033
#006351:0000003333000000
#007321:23
#007351:00001323
#0083b1:1300000000000033
#008381:0000003333000000
#0093b1:23
#009381:00001323
#0113b1:1300002300000000
#011350:1300002300000000
#014320:1300002300000000
#014381:1300002300000000
#014351:0000000013000023
#0143b0:0000000013000023
#015320:0013
#015350:00000023
#016350:1300002300000000
#0163b1:1300002300000000
#016321:0000000013000023
#016380:0000000013000023
#0173b0:0013
#017380:00000023
#019320:1300002300000000
#019381:1300002300000000
#0233b1:0013
#023381:00000023
#024331:1454543424000000
#024321:00540000005400000000000000000000
#024341:00000054000000540000000000000000
#024390:0000000014545434
#0243a0:00000000000000000054000000540000
#024380:00000000000000000000005400000054
#025390:24
#025380:00001323
#025351:00000013
#026351:23
#0263b0:1300000000000033
#026370:00335333
#0273b0:23
#027321:1300000000000033
#027361:00335333
#028321:23
#0283a0:1400005400000000
#028380:0000000036000056
#029360:3800002800000000
#031320:0000000000130000
#032320:23
#0323b0:0000000000000013
#0333b0:003333230000
#033380:00000053000000000000000000000000
#034350:13
#034320:00230000
#0343b1:13
#034381:00230000
#036321:13
#036361:00230000
#037381:13
#0373b1:00230000
#037351:0013
#037321:00000023
#039321:0000001400000000
#040321:24
#0403a0:1400343434343434
#0413a0:24
#041351:1300003333002300
#0413b0:00001323
#043350:0000001300000000
#043320:00000023
#045380:0000001300000000
#0453b0:00000023
#047350:1333333300002300
#047381:0000001300002300
#048351:1300003323000000
#048321:00530000
#048390:00001434
#048380:0000000000540000
#0483a0:0000000000000034
#049390:24
#053320:0000001300000000
#053350:00000000000000000000000000000000000000000000000000000000003300003300000000000000000000000000000023000000000000000000000000000000
#0573b0:00001323
#058320:13
#058360:0000000000000033
#059360:33
#059320:0000000000000023
#061380:1300002300000000
#063320:0000000000130000
#064320:23
#065320:13
#065360:003333000000
#065350:0000000033003333
#066320:23
#0663b1:13
#066371:003333000000
#066381:0023
#067381:13
#0673b1:00230000
#067320:13
#067350:00230000
#0693b0:13
#069370:00230000
#070350:13
#070320:00230000
#070380:0013
#0703b0:00000023
#0723a0:0000001400003400
#0733a0:24
#073321:13545354330033003354335433003300
#074321:23
#0743b0:13000023
#074351:00001323
#076381:0000001300002300
#0763b1:00000000000000000053000000000000
#078351:0000001300002300
#078321:00000000000000000053000000000000
#079381:0000000000000013
#0803b1:0033000000000000
#080381:0000002300000000
#081381:1300003323000000
#0813b1:00530000
#081350:0013
#081320:00000033
#082350:23
#084320:13
#084350:00230000
#085350:0013
#085320:00000023
#087320:0000001400002400
#087350:00000000000000000054000000000000
#089320:13
#089350:0000003323000000
#0913b0:0000001300000000
#091380:00000023
#093320:0000001300000000
#093350:00000023
#0963b0:12
#096380:0000003222000000
#096361:0012
#096331:0000000000003232
#097331:22
