This file was generated by Ched 2.7.0.0.
#TITLE ""
#ARTIST ""
#DESIGNER ""
#DIFFICULTY 0
#PLAYLEVEL
#SONGID ""
#WAVE ""
#WAVEOFFSET 0
#JACKET ""
#REQUEST "ticks_per_beat 480"
#00002: 4
#BPM01: 220
#00008: 01
#TIL00: ""
#VOLUME: ""
#HISPEED 00
#MEASUREHS 00
#00218:00120000
#0021c:0000001200000000
#00212:2400000000000012
#0021a:14
#00213:00240000
#00214:0024
#00215:00000024
#00210:41
#0031c:1200000000120000
#0031a:0012000000000000
#00312:00121200
#00314:0000001200000012
#00319:00000014
#00316:24000012
#00317:00240000
#00318:0024
#00519:00000014
#0051a:0012000000000000
#0051c:00120000
#00516:2400001200000000
#00512:12
#00517:00240000
#00518:0024
#00719:00000014
#00712:12
#0071a:0012000000000000
#0071c:0000001200000000
#00714:00120000
#00716:2412
#00717:00240000
#00718:0024
#0041a:0012000000120000
#00418:00120000
#00412:2400001200000000
#0041c:12001212
#00414:0000000024000012
#00413:00240000
#00415:00000024
#00818:1212
#0081c:00000012000000000000001200000000
#00812:2400001200000000
#00814:0000000024000012
#00813:00240000
#00815:00000024
#00618:1212
#00612:2400001200000000
#00614:0000000024000012
#00613:00240000
#00615:00000024
#00912:12
#00914:0012000000000000
#0091c:00120000
#0091a:0000001200000000
#00916:24000000000000000012000000120000
#00918:0000000024120012
#00915:00000000000000000000001200000012
#00919:00000012
#00917:00240000
#00018:1212120000000000
#00016:00120012000000000000000000000000
#00014:0000001313130000
#00019:0000001313131414
#00013:0000000000001414
#00119:15150000
#00112:00150000001500002c00000000000000
#00118:0015001500000000
#00113:00000015000000150000000000000000
#00117:00000012
#07315:2300000000120012
#07317:00120012
#0731b:13000023
#07319:0012001200000000
#07312:00231300
#07318:0023
#01612:1300230000000013
#0161b:0000001313002300
#01618:1300000000130000
#01615:0013000013000000
#02212:1300001300000000
#02216:0014
#0221b:0000000000000013
#0221c:0012
#02218:00230000
#02215:00000023
#02316:14141400
#02314:0012000000000000
#0231a:0000001200002400
#02312:1213
#02317:0000000000130000
#0231c:00220000
#01419:0000001313002313
#01414:13230000
#01417:13
#0141b:0013000000000000
#01416:0013
#01412:0000000000130000
#02416:14001400000000140000000000000000240000000000000000000000000000001400140000000014000000000000000024000000000000000000000000000000
#02415:00140000140014000000001400000000000000000000000000000000000000000000001400000000000000000000000000000000000000000000000000000000
#02417:00000014000000000000000000000000000000000000000000000000000000000014000014001400000000140000000000000000000000000000000000000000
#02414:00000000001400001400140000000014000000000000000000000000000000000000000000000000000000000000000000000000000000000000000000000000
#0241a:14000000000000000000000000000000000000000000000014000000000000000000000000000000000000000014000000000000000000000000000000000000
#02412:00000000000000000000000000140000000000000000000000000000000000001400000000000000000000000000000000000000000000001400000000000000
#02413:00000000000000000014000014001400000000000000000000000000000000000000000000000000000000000000000000000000000000000000000000000000
#02418:00000000000000000000000000000000000000000000000000000000000000000000000000140000140014000000001400000000000000000000000000000000
#02419:00000000000000000000000000000000000000000000000000000000000000000000000000000000001400001400140000000000000000000000000000000000
#0251a:1400001214000000
#02515:1414
#02512:00140014
#02517:00140014
#02514:0012000000120000
#02612:00000000320000120000000000000000
#02616:12
#0261b:00130013
#02617:0000000012000012
#02619:0000001200000000
#0261a:24
#02610:41
#02712:14130013
#02717:0000000012000012
#0271c:00000000320000120000000000000000
#02718:12
#02715:0000001200000000
#02812:00001212
#0281c:12120000
#0281a:0012001200000000
#02817:22
#02815:0026
#02914:00000018000000000000000000000000
#0291b:0000000000130000
#02917:00000013
#02912:2c000013
#0301c:00120000
#0301a:0000001200000000
#03017:00000013
#03016:120012000000000000000000000000120000000000000000
#03018:001200000000000000000000120000000000000000000000
#03014:00000012
#03012:0000000013000012
#03015:00130000
#03112:13
#0311c:00120000
#03118:00000000000012001200120000140000
#03116:00000000000000120000120000000000
#03114:00000000000000000000000000140000
#0321b:00130000
#0321c:0012
#03218:00000012
#03212:00120012
#03214:0000001200000000
#03216:0012
#0321a:0000000000120000
#03415:0000000015000015
#03419:00000013
#03412:0012
#03417:0000000000140000
#03414:00000014
#03413:0000000000130000
#0341b:0000000000000012
#03416:24
#0341a:24
#03410:41
#0351c:1212
#03515:00150014
#03516:15
#03512:00120012
#03517:0014
#03612:0000000013000014
#03614:0000000000130000
#03616:15001413
#0361c:12
#0361a:00000014
#03618:0000000000000013
#0371a:14
#03714:0000001300000000
#03716:1313
#03717:00000013
#04018:1300001400000014
#04012:1313
#0401b:00130013
#04017:0013
#04016:00130013
#04014:0000000000140000
#04219:0013000000000000
#04212:1500001300130000
#04217:0000001313000013
#0421b:0000000000131300
#04215:00240024
#04312:1300001300130000
#04317:13000000000000000013000000000000
#0431b:0000131300000000
#04315:00240024
#0441b:1300001300130000
#04414:0000000013000013
#04412:0000001300001300
#04416:1300000000130000
#04417:00240024
#0451b:1300000000131300
#04512:0000231300000000
#04516:1400001400000000
#04517:00000013
#03816:1800231300000000
#03812:2318
#03819:0000000000130000
#0381b:0023
#03817:0000000000002323
#04919:0012
#04915:00000000000000000012000000000000
#04918:0000000000120000
#04916:00000000000000000000001200000000
#0491c:00120022
#05012:12
#05018:0000000000000000000000000000000000000012000000000000000000000000000000000000000000000000000000000012000000000000000000000000000000000000000000000000000000000000000000000000000000000000000000000000000000000000000000000000000012000000000000000000000000000000
#05016:1200000000000000000000000000000000000000000000000000000000000000001200000000000000000000000000000000000000000000000000000000000000000000000000000000000000000000000012000000000000000000000000000000000000000000000000000000000000000000000000000000000000000000
#0501c:00000000000000000000000000000000000000000000000000120000000000000000000000000000000000000000000000000000000000000000000000000000
#0501a:0000000000000000000000000000000000000000000000000000000000000000001200000000000000000000000000000000000000000000000000000000000000000000000000000000000000000000120000000000000000000000000000000000000000000000000000000000000000000000000000000000000000000000
#05014:0000000000000012
#0501f:11
#05112:0012000000000000
#05116:00000000000000000012000000000000000000000000000000000000000000000000000000000000000000000000000000000000000000120000000000000000
#05118:00000000000000000000000000000000000000000000000012000000000000000000000000000000000000000000001200000000000000000000000000000000
#0511c:0000001200000000
#0511a:0000000000120000
#05114:0000000000120000
#05212:1200000000000012
#05218:120000000000000000000000000000000000000000000012000000000000000000000000000000000000000000000000
#0521c:0000000000000000000000000000000000000000000000000000000000000012000000000000000000000000000000000000000000000000000000000000000000000000000000000000000000000000000000000000000000000000000000000000000000000000000000000000000000000000000000000000000000000000
#05216:0000000000000000000000000000000000000000000000000000000000120000000000000000000000000000000000000000000000000000000000000000000000000000000000000000000012000000000000000000000000000000000000000000000000000000000000000000000000000000000000000000000000000000
#05214:000000000000000000000000000000000000000000000012000000000000000000000000000000000000000000000000
#0521a:0000000000000000000000000000000000000012000000000000000000000000
#0531c:12000000000000000000000000000000000000000000000000000000000000000000000000000000000000000000000000000000000000000000000000000012
#05316:12
#05312:0012000000000000
#05318:0012000000000000
#05315:000000000000000000000000000000000000000000000000000000000000000000000012000000000000000000000000000000000000000000000000000000000000000000000000000000000000000000000000000000000000000000000000
#05317:00000000000000000000000000000000000000000000000000000000001200000000000000000000000000000000000000000000000000000000000000000000
#05417:0000120000000000000000000000000000000000000000000000000000000000000000000000000000000000000000000000120000000000000000000000000000000000000000000000000000000000000000000000000000000000000000000000000000000000000000000000000000120000000000000000000000000000
#05415:0000000000000000000000000000000000000012000000000000000000000000000000000000000000000000000000000000000000000000000000000000000000000000000000000000000000000000000000000000000000000000000000000000000000000000000000000000000000000000000000000000000000000000
#05412:0000001200000000
#05414:0000000000120000
#05419:00000000000000000000000000000000000000000000000000000000000000000000000000000000001200000000000000000000000000000000000000000000
#0541a:0000000000000000000000000000001200000000000000000000000000000000000000000000000000000000000000000000000000000000000000000000000000000000000000000000000000000000000000000000000000000000000000000000000000000000000000000000000000000000000000000000000000000000
#0541c:0000000000000000000000000000000000000000000000000000000000000000000000000000000000000000000000000000000000000000000000000000000000000000000000000000000000000000000000000000000000000000000000000000000000000000000000000000000000120000000000000000000000000000
#05517:0000000000000000000000000000000000000000000000000000000000000000001200000000000000000000000000000000000000000000000000000000000000000000000000000000000000000000000000000000000000000000000000000000000000000000000000000000001200000000000000000000000000000000
#05513:00000012
#0551a:0000000000000000000000000000001200000000000000000000000000000000000000000000000000000000000000000000000000000000000000000000000000000000000000000000000000000000000000000000000000000000000000000000000000000000000000000000000000000000000000000000000000000000
#05515:0000000000000000000000000000000000000012000000000000000000000000000000000000000000000000000000000000000000000000000000000000000000000000000000000000000000000000000000000000000000000000000000000000000000000000000000000000000000000000000000000000000000000000
#05512:0000000000000000000000000000000000000000000000000000000000000000000000000000001200000000000000000000000000000000000000000000000000000000000000000000000000000000000000000000000000000000000000000000000000000000000000000000000000000000000000000000000000000000
#0551b:0012
#05516:0012
#0551c:0000000000000000000000000000000000000000000000000000000000000000000000000000000000000000000000000000000000000000000000000000000000000000000000000000000000000000000000000000000000000000000000000000000000000000000000000000000000000012000000000000000000000000
#05617:0012001200000000
#05612:0000000000120000
#05615:00000012
#05618:00000000000000000000000000000000000000000000000000000000000000000000000000000000000000000000000000000000000000120000000000000000
#0561c:000000000000000000000000000000000000000000000000000000000000000000000000000000000000000000000000120000000000000000000000000000000000000000000000000000000000000000000000000000000000000000000000000000000000000000000000000000000000000000000000000000000000000000000000000000000000000000000000000000000012000000000000000000000000000000000000000000000000000000000000000000000000000000000000000000000000000000000000000000000000000000000000000000000000000000000000000000000000000000000000000000000000000000000000000000000000000000000000000000000000000000000000000000000000000000000000000000000000000000000000000000000000000000000000000000000000000000000000000000000000120000000000000000000000000000000000000000000000000000000000000000000000000000000000000000000000000000000000
#05619:00000012
#05616:0000000000120000
#05716:0012000000000000
#05712:0012000014000000
#05715:00000000000000000000000000000000000000000000000000120000000000000000000000000000000000000000000000000000000000000000000000000000
#0571a:0014
#05713:00000015
#05719:00000000000000000000000000000000000000000000000000120000000000000000000000000000000000000000000000000000000000000000000000000000
#06112:00000014000000000000000014000000
#0611a:24000014
#06116:1400000000140000
#06114:000000000000000000000000000000000000000000000000000000000000000000000000000000000000000000000000000000000000000000000000000000000000000000000000000000000000000000000000000000000000000000000000000000000000000000000000000000000000000000000000000000000000000000000000000000000000000000000000000000000000000000000000000000000000000000000000000000000000000000000000000000000000000000000000000000000000000000000000000000000000000000000000000000000000000000000000000000000000000000000000000000000000000000000000000000000000000000000000000000000000000000000000000000000000000000000000000000000000000000000000000000000000000000000000000000000000000000000000000000000000000000000000000000000000000000000000000000000000000000000000001400000000000000000000000000000000000000000000000000000000000000000000000000000000000000000000000000000000000000000000000000000000000000000000000000000000000000000000000000000000000000000000000000000000000000000000000000000000000000000000000000000000000000000000000000000000000000000000000000000000000000000000000000000000000000000000000000000000000000000000000000000000000000000000000000000000000000000000000000000000000000000000000000000000000000000000000000000000000000000000000000000000000000000000000000000000000000000000000000000000000000000000000000000000000000000000000000000000000000000000000000000000000000000000000000000000000000000000000000000000000000000000000000000000000000000000000000000000000000000000000000000000000000000000000000000000000000000000000000000000000000000000000000000000000000000000000000000000000000000000000000000000000000000000000000000000000000000000000000000000000000000000000000000000000000000000000000000000000000000000000000000000000000000000000000000000000000000000000000000000000000000000000000000000000000000000000000000000000000000000000000000000000000000000000000000000000000000000000000000000000000000000000000000000000000000000000000000000000000000000000000000000000000000000000000000000000000000000000000000000000000000000000000000000000000000000000000000000000000000000000000000000000000000000000000000000000000000000000000000000000000000000000000000000000000000000000000000000000000000000000000000000000000000000000000000000000000000000000000000000000000000000000000000000000000000000000000000000000000000000000000000000000000000000000000000000000000000000000000000000000000000000000000000000000000000000000000000000000000000000000000000000000000000000000000000000000000000000000000000000000000000000000000000000000000000000000000000000000000000000000000000000000000000000000000000000000000000000000000000000000000000000000000000000000000000000000000000000000000000000000000000000000000000000000000000000000000000000000000000000000000000000000000000000000000000000000000000000000000000000000000000000000000000000000000000000000000000000000000000000000000000000000000000000000000000000000000000000000000000000000000000000000000000000000000000000000000000000000000000000000000000000000000000000000000000000000000000000000000000000000000000000000000000000000000000000000000000000000000000000000000000000000000000000000000000000000000000000000000000000000000000000000000000000000000000000000000000000000000000000000000000000000000000000000000000000000000000000000000000000000000000000000000000000000000000000000000000000000000000000000000000000000000000000000000000000000000000000000000000000000000000000000000000000000000000000000000000000000000000000000000000000000000000000000000000000000000000000000000000000000000000000000000000000000000000000000000000000000000000000000000000000000000000000000000000000000000000000000000000000000000000000000000000000000000000000000000000000000000000000000000000000000000000000000000000000000000000000000000000000000000000000000000000000000000000000000000000000000000000000000000000000000000000000000000000000000000000000000000000000
#06612:0012
#06616:001200000000
#06614:001200
#0661c:0032323200000000
#06712:2600000012141719
#06715:000000121200000000000000190000000000000000000000
#06717:000000000000000000000000000000000000000000000000000000000000000000000000000000000000000000000000000000000000000000000000000000000000000000000000000000000000000000000000000000000000000000000000000000000000000000000000000000000000000000000000000000000000000000000000000000000000000000000000000000000000000000000000000000000000000000000000000000000000000000000000000000000000000000000000000000000000000012120000000000000000000000000000000000000000000000000000000000000000000000000000000000000000000000000000000000000000000000000000000000000000000000000000000000001212000000000000000000000000000000000000000000000000000000000000000000000000000000000000000000000000000000000000000000000000000000000000000000000000000000000000121200000000000000000000000000000000000000000000000000000000000000000000000000000000000000000000000000000000000000000000000000000000000000000000000000000000000012120000000000000000000000000000000000000000000000000000000000000000000000000000000000000000000000000000000000000000000000000000000000000000000000000000000000000000000000000000000000000000000000000000000000000000000000000000000000000000000000000000000000000000000000000000000000000000000000000000000000000000000000000000000000000000000000000000000000000000000000000000000000000000000000000000000000000000000000000000000000000000000000000000000000000000000000000000000000000000000000000000000000000000000000000000000000000000000000000000000000000000000000000000000000000000000000000000000000000000000000000000000000000000000000000000000000000000000000000000000000000000000000000000000000000000000000000000000000000000000000000000000000000000000000000000000000000000000000000000000000000000000000000000000000000000000000000000000000000000000000000000000000000000000000000000000000000000000000000000000000000000000000000000000000000000000000000000000000000000000000000000000000000000000000000000000000000000000000000000000000000000000000000000000000000000000000000000000000000000000000000000000000000000000000000000000000000000000000000000000000000000000000000000000000000000000000000000000000000000000000000000000000000000000000000000000000000000000000000000000000000000000000000000000000000000000000000000000000000000000000000000000000000000000000000000000000000000000000000000000000000000000000000000000000000000000000000000000000000000000000000000000000000000000000000000000000000000000000000000000000000000000000000000170000000000000000000000000000000000000000000000000000000000000000000000000000000000000000000000000000000000000000000000000000000000000000000000000000000000000000000000000000000000000000000000000000000000000000000000000000000000000000000000000000000000000000000000000000000000000000000000000000000000000000000000000000000000000000000000000000000000000000000000000000000000000000000000000000000000000000000000000000000000000000000000000000000000000000000000000000000000000000000000000000000000000000000000000000000000000000000000000000000000000000000000000000000000000000000000000000000000000000000000000000000000000000000000000000000000000000000000000000000000000000000000000000000000000000000000000000000000000000000000000000000000000000000000000000000000000000000000000000000000000000000000000000000000000000000000000000000000000000000000000000000000000000000000000000000000000000000000000000000000000000000000000000000000000000000000000000000000000000000000000000000000000000000000000000000000000000000000000000000000000000000000000000000000000000000000000000000000000000000000000000000000000000000000000000000000000000000000000000000000000000000000000000000000000000000000000000000000000000000000000000000000000000000000000000000000000000000000000000000000000000000000000000000000000000000000000000000000000000000000000000000000000000000000000000000000000000000000000000000000000000000000000000000000000000000000000000000000000000000000
#0671a:00000014
#0671c:0000000000000012
#06716:000000000000000000000000000000000000000000000000000000000000000000000000000000001414000000000000000000000000000000000000000000000000000000000000000000000000000000000000000000000000000000000000000000000000000000000000000000000000000000000000141400000000000000000000000000000000000000000000000000000000000000000000000000000000000000000000000000000000000000000000000000000000000000000000000000000000000000000000000000000000000000000000000000000000000000000000000000000000000000000000000000000000000000000000000000000000000000000000000000000000000000000000000000000000000000000000000000000000000000000000000000000000000000000000000000000000000000000000000000000000000000000000000000000000000000000000000000000000000000000000000000000000000000000000000000000000000000000000000000000000000000000000000000001200000000000000000000000000000000000000000000000000000000000000000000000000000000000000000000000000000000000000000000000000000000000000000000000000000000000000000000000000000000000000000000000000000000000000000000000000000000000000000000000000000000000000000000000000000000000000000000000000000000000000000000000000000000000000000000000000000000000000000000000000000000000000000000000000000000000000000000000000000000000000000000000000000000000000000000000000000000000000000000000000000000000000000000000000000000000000000000000000000000000000000000000000000000000000000000000000000000000000000000000000000000000000000000000000000000000000000000000000000000000000000000000000000000000000000000000000000000000000000000000000000000000000000000000000000000000000000000000000000000000000000000000000000000000000000000000000000000000000000000000000000000000000000000000000000000000000000000000000000000000000000000000000000000000000000000000000000000000000000000000000000000000000000000000000000000000000000000000000000000000000000000000000000000000000000000000000000000000000000000000000000000000000000000000000000000000000000000000000000000000000000000000000000000000000000000000000000000000000000000000000000000000000000000000000000000000000000000000000000000000000000000000000000000000000000000000000000000000000000000000000000000000000000000000000000000000000000000000000000000000000000000000000000000000000000000000000000000000000000000000000000000000000000000000000000000000000000000000000000000000000000000000000000000000000000000000000000000000000000000000000000000000000000000000000000000000000000000000000000000000000000000000000000000000000000000000000000000000000000000000000000000000000000000000000000000000000000000000000000000000000000000000000000000000000000000000000000000000000000000000000000000000000000000000000000000000000000000000000000000000000000000000000000000000000000000000000000000000000000000000000000000000000000000000000000000000000000000000000000000000000000000000000000000000000000000000000000000000000000000000000000000000000000000000000000000000000000000000000000000000000000000000000000000000000000000000000000000000000000000000000000000000000000000000000000000000000000000000000000000000000000000000000000000000000000000000000000000000000000000000000000000000000000000000000000000000000000000000000000000000000000000000000000000000000000000000000000000000000000000000000000000000000000000000000000000000000000000000000000000000000000000000000000000000000000000000000000000000000000000000000000000000000000000000000000000000000000000000000000000000000000000000000000000000000000000000000000000000000000000000000000000000000000000000000000000000000000000000000000000000000000000000000000000000000000000000000000000000000000000000000000000000000000000000000000000000000000000000000000000000000000000000000000000000000000000000000000000000000000000000000000000000000000000000000000000000000000000000000000000000000000000000000000000000000000000000000000000000000000000000000000000000000000000000000000000000000
#06719:001413121200000000000000000000000000000000000000
#06713:001400000000000000000000000000000000000000000000
#06714:001300000000000000000000
#06718:260000000012000000000000000000000000000000000000
#0671f:21
#06912:14000012
#06917:00140000
#0691b:00131300
#06914:0000000000140000
#06918:0000000000000014
#06916:18000014
#06910:41
#0701a:14
#07016:1200000000000013
#0701b:00131300
#07017:0000001300000000
#07012:00000013
#07112:1300001300000000
#07115:0000130013001313
#0711b:0000130013001313
#07118:0000000000130000
#07218:0013001200000000
#07212:00001300000000000012320000000000
#07216:0000001200000000
#0721c:00000000000000000012320000000000
#07918:0000000000130000
#07915:00000013
#07912:0000002300130000
#0791b:13000013
#07914:15
#07916:00130000
#0791a:0000002400000000
#0811c:12
#08112:0000001200001200
#08116:00120012
#08118:0012
#08218:00000012000012000000000000120012
#0821a:2400000014140000
#08212:0000140000140000
#08216:24001200000000120000000012001200
#0881a:1414
#08815:0014000000000000
#08816:0000001400000014
#08812:1414
#08817:0000000000140000
#0881b:00000012000000000000000000000000
#08814:00000000240000000000001200000000
#08818:00000024
#09016:0012000012000000
#09012:0000001300001200
#09018:1600000000140014
#0901a:00120000
#0901c:0000001200000000
#09015:00240024
#09010:41
#09116:1400001400001400
#0911a:0000000000140000
#09112:00240024
#09315:0000000000000000000000000013001300130013000000000000000000000000
#09316:00000000000023131313000023000000
#0931a:24
#09312:00000023
#09418:00000013
#0941a:0000000000000014
#09412:0000002500000014
#09415:0000000000130000
#09417:13130000
#09419:0000002500000000
#09517:00000012
#09516:16000016000000000000000000000000
#09514:0016000000000000
#09512:0000162600000000
#09518:00160000000026000000000000000000
#0961c:1200000012000032
#09618:000000000000000000120000000000000000000012000000
#09612:12
#09616:000012
#09617:00000012
#01512:1300001300002300
#01514:0013000000000000
#0151b:1300001300002300
#01519:0013000000000000
#01515:0013
#01518:0013
#01516:00240000
#01712:0012230000000000
#01718:00000000000000000012000000120000
#01716:2300000000120012
#01719:00000000000000000000001200000012
#0171c:0000001200000000
#0171b:23
#01717:00230000
#01715:00002222
#01916:0000000000140000
#01912:2c000025
#01919:00000025
#0201b:1300000013000013
#02016:12001213
#02012:0012001200002300
#02014:0000000000120000
#02017:00230000
#02112:1300001300002300
#02116:0000120000120000
#02118:0000001200000000
#0211a:0000000000140000
#0211b:00230000
#0331a:001200000000
#0331b:001200
#0331c:0012
#03319:12
#03312:320000320000320000320000320000003200000000000000
#03912:0000001700002400
#03917:00000000000000000013000000000000
#0391b:0013000000000000
#0391a:00000024
#03919:0000002500000000
#03916:0023000000000000
#04116:00000000230000000012000000120000
#04114:0000000000120012
#04117:23000000000000000000001200000012
#04112:23002323
#0411b:00230000
#0471a:1212120000000000
#04718:00120012000000000000000000000000
#04712:0000001400000000
#04717:0000002300000000
#05818:16
#05812:16141312
#05816:0000000000000014
#05912:16
#05918:16
#0591a:00140000
#0591b:0013
#0591c:00000012
#05916:0000000000000014
#06212:00120000
#06214:0000001200000000
#06216:001200000000000000000000120000000000130000000000
#06218:120012000000130000000000000000120000000000000000
#0621a:00000012
#0621c:0000000000000012
#0621b:0013
#0631b:13
#06312:00120000
#06316:0000001212220000
#06318:00000000000000120000220000000000
#0631a:00000000000000000000000000120000
#06314:00000000000000000000000000120000
#06412:00131200
#06416:00000012
#0641c:00120012
#0641a:0000001200000012
#06418:0012
#06414:0000000000120000
#06518:120012000000000000120000
#0651a:001200
#0651c:0000000012000012
#06512:000000320000320000320000000000003200000000320000
#06517:0032
#07512:0013001513001300
#0751b:00130000
#07518:0000001300000013
#07519:1500000000150000
#07516:00240024
#07619:1500001500000000
#07612:1300130000150000
#07615:0000001300000000
#07616:00241424
#07717:16
#07712:1300001300000000
#07718:0000001300140000
#0771b:00130013
#07714:0000000014000013
#07716:00240024
#0481b:13
#04818:00000000000000000012000000120000
#04817:1400000012121212
#04816:00000000000000000000001200000012
#04814:0022
#04813:00000022
#0461c:1200121200000000
#04616:1400001400000000
#04612:0014000000000000
#08019:15
#08015:00150000000000000000000000000000
#08017:0015000000000000
#08013:00000015000000000000000000000000
#08016:00150000
#08014:0000001500000000
#08012:00000012
#0801b:0000002300000000
#0841a:1414
#08415:0012000000000000
#08418:0000001200000000
#08419:00000000000000000000001200000000
#08417:00000012000000000000120000001200
#08416:00000000000000120000000000000000
#08412:14240024
#0851a:14240024
#08512:1414
#08517:00000012000000000000120000001200
#08519:0012000000000000
#08516:0000001200000000
#08518:00000000000000120000000000000000
#08515:00000000000000000000001200000000
#08612:18001313
#0861a:14
#08614:00000014000000000000000000000000
#08616:0000001300130023
#08618:00001212
#0861c:0000000000120012
#08716:00000000000000000013000000000000
#08712:0012002500002400
#08714:0000000000120000
#0871a:00000024
#08717:0023002700000000
#08918:00000000000000000012000000001200
#0891a:0000000000120000
#08917:00000000000000000000001200000000
#08916:00000000000000000000000000120000
#08915:00000000270000000000000000000012
#0891b:2323
#08919:00000023
#08914:27
#08912:00230000
#09218:0012000012000000
#0921c:00000012
#09214:0000120000140014
#0921a:14
#09212:1300001200000000
#0921b:0000001300000000
#09217:00240024
#01816:00131813
#01812:1313
#0181b:00230023
#01012:00231723
#0101b:2323
#01016:00230023
#01010:41
#0131a:0000001400140000
#0131b:13
#01312:13
#01315:00240024
#01116:00000013000000000000000000000000
#01112:00000013000000000000000025000000
#01117:2300000000120000
#0111b:23
#01119:00000025
#01217:17131713
#01212:1313
#0121b:00230023
#06012:0014140000001400
#0601a:1400001414000000
#07418:00000000000000000012000000120000
#0741a:0000000000120012
#07417:00000000000000000000001200000012
#0741b:13132323
#07412:26260000
#07816:1400001400140000
#07812:1300001300002500
#07815:00130000
#0781b:0013
#07819:00250000
#08312:2c220024
#08315:00250000
#0831c:0022
#08316:0025
#08318:00000026
#06812:29222724
#0681c:22
#06815:00290000
#0681a:0024
#06817:00000027
#00556:0000006200000000
#00756:0062
#00858:6262
#0085c:00000022000000000000002200000000
#00658:6262
#00157:00000012
#02252:13
#02256:1414
#02356:14141400
#02352:0053
#02357:0000000000230000
#02456:64006400000000240000000000000000000000000000000000000000000000005400540000000024000000000000000000000000000000000000000000000000
#02455:00240000640064000000002400000000000000000000000000000000000000000000002400000000000000000000000000000000000000000000000000000000
#02457:00000024000000000000000000000000000000000000000000000000000000000024000054005400000000240000000000000000000000000000000000000000
#02454:00000000002400006400640000000024000000000000000000000000000000000000000000000000000000000000000000000000000000000000000000000000
#02453:00000000000000000024000064006400000000000000000000000000000000000000000000000000000000000000000000000000000000000000000000000000
#02452:00000000000000000000000000240000000000000000000000000000000000000000000000000000000000000000000000000000000000000000000000000000
#02458:00000000000000000000000000000000000000000000000000000000000000000000000000240000540054000000002400000000000000000000000000000000
#02459:00000000000000000000000000000000000000000000000000000000000000000000000000000000002400005400540000000000000000000000000000000000
#0245a:00000000000000000000000000000000000000000000000000000000000000000000000000000000000000000024000000000000000000000000000000000000
#0255a:4444
#02552:00340034
#02652:00000000000000220000000000000000
#02656:52
#0265a:44
#02954:00000028000000000000000000000000
#02952:6c00001c00000000
#03057:00000063
#03152:63
#03156:0000000000620000
#03158:00000000000000000000620000240000
#03154:00000000000000000000000000240000
#03555:00150014
#03556:15
#03557:0014
#03756:6363
#03752:00000013
#0435b:0000005300000000
#04357:00000000000000000023000000000000
#03856:58
#03852:0068
#03857:0000000000000043
#04456:63
#0565c:00000000000000000000000000000000000000000000000000000000000000000000000000000000000000000000000000000000000000120000000000000000
#05752:0012000034000000
#05753:00000025
#0575a:0054
#06652:0012
#0665c:0012
#06952:64
#06957:00240000
#06956:18
#0715b:0000000000000013
#07157:13
#07252:00001300000000000022000000000000
#07258:0000005200000000
#07256:0000005200000000
#0725c:00000000000000000022000000000000
#0815c:52
#08156:00220022
#08158:0052
#08152:00000022
#09355:0000000000000000000000000023002300230023000000000000000000000000
#09356:00000000000023232323000000000000
#03456:54
#0345a:54
#0495c:00000012
#04957:12
#08352:3c320034
#0835c:0042
#08355:00450000
#08358:00000046
#08356:0035
#09452:0000001500000000
#09459:0000001500000000
#09552:0000001600000000
#09558:0000001600000000
#07056:0013
#0705a:14
#08256:44
#0825a:4414
#08252:00140000
#01555:0033
#01558:0043
#01658:5300000000230000
#01655:0023000063000000
#01652:13
#0165b:0013
#02056:00000053
#0205b:0000000000000023
#01952:0000001c00000000
#0215a:0000000000640000
#0275c:00000000000000220000000000000000
#02758:62
#02752:34
#02857:00120000
#02855:00000016
#0335c:0042
#0365c:62
#03656:65
#03655:00150000
#03959:0000004500000000
#03952:0000005700003400
#03957:00000000000000000023000000000000
#0395a:00000044
#03956:0033000000000000
#04252:15
#04556:1400001400000000
#04552:0000002300000000
#0455b:23000013
#04557:00000013
#05858:56
#05952:66
#06256:00000053
#0635b:53
#06356:0000000000620000
#06358:0000000000620000
#06354:00000000000000000000000000220000
#0635a:00000000000000000000000000220000
#0685c:12
#06852:00120014
#0685a:0014
#06758:260000000022000000000000000000000000000000000000
#06752:26
#06756:000000000000000000000000000000000000000000000000000000000000000000000000000000006464000000000000000000000000000000000000000000000000000000000000000000000000000000000000000000000000000000000000000000000000000000000000000000000000000000000000545400000000000000000000000000000000000000000000000000000000000000000000000000000000000000000000000000000000000000000000000000000000000000000000000000000000000000000000000000000000000000000000000000000000000000000000000000000000000000000000000000000000000000000000000000000000000000000000000000000000000000000000000000000000000000000000000000000000000000000000000000000000000000000000000000000000000000000000000000000000000000000000000000000000000000000000000000000000000000000000000000000000000000000000000000000000000000000000000000000000000000000000000000002200000000000000000000000000000000000000000000000000000000000000000000000000000000000000000000000000000000000000000000000000000000000000000000000000000000000000000000000000000000000000000000000000000000000000000000000000000000000000000000000000000000000000000000000000000000000000000000000000000000000000000000000000000000000000000000000000000000000000000000000000000000000000000000000000000000000000000000000000000000000000000000000000000000000000000000000000000000000000000000000000000000000000000000000000000000000000000000000000000000000000000000000000000000000000000000000000000000000000000000000000000000000000000000000000000000000000000000000000000000000000000000000000000000000000000000000000000000000000000000000000000000000000000000000000000000000000000000000000000000000000000000000000000000000000000000000000000000000000000000000000000000000000000000000000000000000000000000000000000000000000000000000000000000000000000000000000000000000000000000000000000000000000000000000000000000000000000000000000000000000000000000000000000000000000000000000000000000000000000000000000000000000000000000000000000000000000000000000000000000000000000000000000000000000000000000000000000000000000000000000000000000000000000000000000000000000000000000000000000000000000000000000000000000000000000000000000000000000000000000000000000000000000000000000000000000000000000000000000000000000000000000000000000000000000000000000000000000000000000000000000000000000000000000000000000000000000000000000000000000000000000000000000000000000000000000000000000000000000000000000000000000000000000000000000000000000000000000000000000000000000000000000000000000000000000000000000000000000000000000000000000000000000000000000000000000000000000000000000000000000000000000000000000000000000000000000000000000000000000000000000000000000000000000000000000000000000000000000000000000000000000000000000000000000000000000000000000000000000000000000000000000000000000000000000000000000000000000000000000000000000000000000000000000000000000000000000000000000000000000000000000000000000000000000000000000000000000000000000000000000000000000000000000000000000000000000000000000000000000000000000000000000000000000000000000000000000000000000000000000000000000000000000000000000000000000000000000000000000000000000000000000000000000000000000000000000000000000000000000000000000000000000000000000000000000000000000000000000000000000000000000000000000000000000000000000000000000000000000000000000000000000000000000000000000000000000000000000000000000000000000000000000000000000000000000000000000000000000000000000000000000000000000000000000000000000000000000000000000000000000000000000000000000000000000000000000000000000000000000000000000000000000000000000000000000000000000000000000000000000000000000000000000000000000000000000000000000000000000000000000000000000000000000000000000000000000000000000000000000000000000000000000000000000000000000000000000000000000000000000000000000000000000000000000000000000000000000000000000000000000000000000000000000000000000000000000000
#06757:000000000000000000000000000000000000000000000000000000000000000000000000000000000000000000000000000000000000000000000000000000000000000000000000000000000000000000000000000000000000000000000000000000000000000000000000000000000000000000000000000000000000000000000000000000000000000000000000000000000000000000000000000000000000000000000000000000000000000000000000000000000000000000000000000000000000000062620000000000000000000000000000000000000000000000000000000000000000000000000000000000000000000000000000000000000000000000000000000000000000000000000000000000006262000000000000000000000000000000000000000000000000000000000000000000000000000000000000000000000000000000000000000000000000000000000000000000000000000000000000626200000000000000000000000000000000000000000000000000000000000000000000000000000000000000000000000000000000000000000000000000000000000000000000000000000000000062620000000000000000000000000000000000000000000000000000000000000000000000000000000000000000000000000000000000000000000000000000000000000000000000000000000000000000000000000000000000000000000000000000000000000000000000000000000000000000000000000000000000000000000000000000000000000000000000000000000000000000000000000000000000000000000000000000000000000000000000000000000000000000000000000000000000000000000000000000000000000000000000000000000000000000000000000000000000000000000000000000000000000000000000000000000000000000000000000000000000000000000000000000000000000000000000000000000000000000000000000000000000000000000000000000000000000000000000000000000000000000000000000000000000000000000000000000000000000000000000000000000000000000000000000000000000000000000000000000000000000000000000000000000000000000000000000000000000000000000000000000000000000000000000000000000000000000000000000000000000000000000000000000000000000000000000000000000000000000000000000000000000000000000000000000000000000000000000000000000000000000000000000000000000000000000000000000000000000000000000000000000000000000000000000000000000000000000000000000000000000000000000000000000000000000000000000000000000000000000000000000000000000000000000000000000000000000000000000000000000000000000000000000000000000000000000000000000000000000000000000000000000000000000000000000000000000000000000000000000000000000000000000000000000000000000000000000000000000000000000000000000000000000000000000000000000000000000000000000000000000000000000000000000000000000000000000000000000000000000000000000000000000000000000000000000000000000000000000000000000000000000000000000000000000000000000000000000000000000000000000000000000000000000000000000000000000000000000000000000000000000000000000000000000000000000000000000000000000000000000000000000000000000000000000000000000000000000000000000000000000000000000000000000000000000000000000000000000000000000000000000000000000000000000000000000000000000000000000000000000000000000000000000000000000000000000000000000000000000000000000000000000000000000000000000000000000000000000000000000000000000000000000000000000000000000000000000000000000000000000000000000000000000000000000000000000000000000000000000000000000000000000000000000000000000000000000000000000000000000000000000000000000000000000000000000000000000000000000000000000000000000000000000000000000000000000000000000000000000000000000000000000000000000000000000000000000000000000000000000000000000000000000000000000000000000000000000000000000000000000000000000000000000000000000000000000000000000000000000000000000000000000000000000000000000000000000000000000000000000000000000000000000000000000000000000000000000000000000000000000000000000000000000000000000000000000000000000000000000000000000000000000000000000000000000000000000000000000000000000000000000000000000000000000000000000000000000000000000000000000000000000000000000000000000000000000000000000000000000000000000000000000000000
#06759:002423222200000000000000000000000000000000000000
#06755:000000222200000000000000000000000000000000000000
#06754:002300000000000000000000
#06753:002400000000000000000000000000000000000000000000
#07659:0000006500000000
#07656:0024
#0765b:00000013
#07552:00000013
#07559:15
#0775b:00000013
#0485b:53
#04858:00000000000000000022000000220000
#04857:5400000062626262
#04856:00000000000000000000002200000022
#04752:0000006400000000
#04757:0000006300001400
#0465c:0000006200000000
#04656:6400006400000000
#04652:0024000000001400
#04658:00000012
#08054:0000006500000000
#0805b:0000006300000000
#08052:00000052
#0865a:64
#08654:00000024000000000000000000000000
#08656:0000000000000033
#03256:32
#03258:42
#08756:00000000000000000023000000000000
#0875a:00000044
#08752:0000003500003400
#08757:0043005700000000
#09156:3400004400000000
#09152:00000014
#09652:62
#0965c:0062
#09657:00000062
#09658:000000000022
#09656:000022
#09752:32
#01856:00130013
#01852:1313
#0105b:1313
#01056:00130013
#01454:13
#01457:63
#0145b:0023000000000000
#01459:0013
#01456:0053
#01452:0000000000230000
#01156:00000023000000000000000000000000
#01152:00000023000000000000000000000000
#01157:5300001300000000
#0115b:5300004300000000
#01252:1313
#01257:00130013
#06152:00000024000000000000000000000000
#06154:000000000000000000000000000000000000000000000000000000000000000000000000000000000000000000000000000000000000000000000000000000000000000000000000000000000000000000000000000000000000000000000000000000000000000000000000000000000000000000000000000000000000000000000000000000000000000000000000000000000000000000000000000000000000000000000000000000000000000000000000000000000000000000000000000000000000000000000000000000000000000000000000000000000000000000000000000000000000000000000000000000000000000000000000000000000000000000000000000000000000000000000000000000000000000000000000000000000000000000000000000000000000000000000000000000000000000000000000000000000000000000000000000000000000000000000000000000000000000000000000002400000000000000000000000000000000000000000000000000000000000000000000000000000000000000000000000000000000000000000000000000000000000000000000000000000000000000000000000000000000000000000000000000000000000000000000000000000000000000000000000000000000000000000000000000000000000000000000000000000000000000000000000000000000000000000000000000000000000000000000000000000000000000000000000000000000000000000000000000000000000000000000000000000000000000000000000000000000000000000000000000000000000000000000000000000000000000000000000000000000000000000000000000000000000000000000000000000000000000000000000000000000000000000000000000000000000000000000000000000000000000000000000000000000000000000000000000000000000000000000000000000000000000000000000000000000000000000000000000000000000000000000000000000000000000000000000000000000000000000000000000000000000000000000000000000000000000000000000000000000000000000000000000000000000000000000000000000000000000000000000000000000000000000000000000000000000000000000000000000000000000000000000000000000000000000000000000000000000000000000000000000000000000000000000000000000000000000000000000000000000000000000000000000000000000000000000000000000000000000000000000000000000000000000000000000000000000000000000000000000000000000000000000000000000000000000000000000000000000000000000000000000000000000000000000000000000000000000000000000000000000000000000000000000000000000000000000000000000000000000000000000000000000000000000000000000000000000000000000000000000000000000000000000000000000000000000000000000000000000000000000000000000000000000000000000000000000000000000000000000000000000000000000000000000000000000000000000000000000000000000000000000000000000000000000000000000000000000000000000000000000000000000000000000000000000000000000000000000000000000000000000000000000000000000000000000000000000000000000000000000000000000000000000000000000000000000000000000000000000000000000000000000000000000000000000000000000000000000000000000000000000000000000000000000000000000000000000000000000000000000000000000000000000000000000000000000000000000000000000000000000000000000000000000000000000000000000000000000000000000000000000000000000000000000000000000000000000000000000000000000000000000000000000000000000000000000000000000000000000000000000000000000000000000000000000000000000000000000000000000000000000000000000000000000000000000000000000000000000000000000000000000000000000000000000000000000000000000000000000000000000000000000000000000000000000000000000000000000000000000000000000000000000000000000000000000000000000000000000000000000000000000000000000000000000000000000000000000000000000000000000000000000000000000000000000000000000000000000000000000000000000000000000000000000000000000000000000000000000000000000000000000000000000000000000000000000000000000000000000000000000000000000000000000000000000000000000000000000000000000000000000000000000000000000000000000000000000000000000000000000000000000000000000000000000000000000000000000000000000000000000000000000000000000000000000000000000000000000000000000000000000000000000000000000000000000000000000000000000000000
#06156:5400004400000000
#0615a:6400004400000000
#0605a:6464
#06052:00640064
#06056:00000044
#08954:17
#0895b:43
#08955:00170000
#08952:00330000
#07452:16160000
#07954:55
#0795a:0000001400000000
#07952:0000001300000000
#07856:0000005400000000
#0785b:0023
#07858:00000013
#0023a0:00001222
#005360:0000001200000000
#005320:00000022
#006380:12
#0063c0:0000002200000000
#006380:0012
#0063c0:0000000000000022
#007360:0012
#007320:00000022
#008380:1200002200000000
#0083c0:00000052000000000000000000000000
#008380:0000000012000022
#0083c0:00000000000000000000005200000000
#011370:1300002300000000
#011360:00000053000000000000000000000000
#0113b1:1300002300000000
#011321:00000053000000000000000000000000
#013321:00130023
#013371:0000005300530000
#014371:13230000
#0143b1:0053000000000000
#014361:00001323
#014321:0000000000530000
#016381:13230000
#016351:0053000000000000
#016351:00001323
#016381:0000000000530000
#019321:1c00002c00000000
#020361:00000013
#0203b1:0000000000000053
#021361:23
#0213a1:0000000000140000
#021361:00000054
#022361:24
#023321:00001323
#023371:0000000000530000
#024361:14005400000000540000000000000000000000000000000000000000000000000000000000000000000000000000000000000000000000000000000000000000
#024351:00540000540054000000005400000000000000000000000000000000000000000000000000000000000000000000000000000000000000000000000000000000
#024371:00000054000000000000000000000000000000000000000000000000000000000000000000000000000000000000000000000000000000000000000000000000
#024341:00000000005400005400540000000054000000000000000000000000000000000000000000000000000000000000000000000000000000000000000000000000
#024331:00000000000000000054000054005400000000000000000000000000000000000000000000000000000000000000000000000000000000000000000000000000
#024321:00000000000000000000000000540000240000000000000000000000000000000000000000000000000000000000000000000000000000000000000000000000
#024361:00000000000000000000000000000000000000000000000000000000000000001400540000000054000000000000000000000000000000000000000000000000
#024371:00000000000000000000000000000000000000000000000000000000000000000054000054005400000000540000000000000000000000000000000000000000
#024351:00000000000000000000000000000000000000000000000000000000000000000000005400000000000000000000000000000000000000000000000000000000
#024381:00000000000000000000000000000000000000000000000000000000000000000000000000540000540054000000005400000000000000000000000000000000
#024391:00000000000000000000000000000000000000000000000000000000000000000000000000000000005400005400540000000000000000000000000000000000
#0243a1:00000000000000000000000000000000000000000000000000000000000000000000000000000000000000000054000024000000000000000000000000000000
#026361:12000022
#026321:00000000320000520000000000000000
#027381:12000022
#0273c1:00000000320000520000000000000000
#028371:12220000
#028351:00001626
#029321:1c00002c00000000
#029341:00000058000000000000000000000000
#030371:00000013
#0313b1:23
#031320:13
#031360:00230000
#031360:0000000000120000
#031380:00000000000000000000000000540000
#032360:22
#031381:0000000000120000
#031341:00000000000000000000000000540000
#032381:22
#032321:0000000000000012
#033321:320000320000320000320000320000003200000000000000
#033381:0000000000000022
#034361:14
#034321:00220000
#0343a0:14
#034360:00220000
#0363c0:12
#036350:00250000
#036361:15
#036321:00220000
#037361:13
#037321:00230000
#037370:00130000
#0373b0:0023
#037361:0013
#037321:00000023
#038361:18
#0383b1:0000002300000000
#038321:0000000018000023
#039321:0000001700002400
#039371:00000000000000000053000000000000
#041371:13
#041321:0023000000000000
#041320:13
#041370:0023000000000000
#041360:00130000
#0413b0:0000002300000000
#0413b1:00130000
#041361:0000002300000000
#0433b1:0000001300002300
#043371:00000000000000000053000000000000
#044361:13
#044321:00230000
#0453b1:13
#045361:00230000
#045321:0000001300000000
#045371:0000000000230000
#046361:1400543400000000
#046321:0054000054002400
#0463c0:0000001200000000
#046380:00005222
#047370:0000001300000000
#0473b0:00005333
#0483b0:33
#048370:0000003232523232
#048380:00000000000000000052000000520000
#048360:00000000000000000000005200000052
#049370:22
#047321:0000001400000000
#047371:00005424
#048371:14
#048351:0000002200000000
#049321:1222
#053391:00001222
#0573a1:0014
#057331:00000055
#058381:36
#058351:00000024
#059321:16
#059371:00000024
#0603a1:14
#060361:00240000
#060320:000000000000000000000000000000000000000000000000000000000000000000000000000000000000000000000000000000000000000000000000000000000000000000000000000000000000000000000000000000000000000000000000000000000000000000000000000000000000000000000000000000000000000000000000000000000000000000000000000000000000000000000000000000000000000000000000000000000000000000000000000000000000000000000000000000000000000000000000000000000000000000000000000000000000000000000000000000000000000000000000000000000000000000000000000000000000000000000000000000000000000000000000000000000000000000000000000000000000000000000000000000000000000000000000000000000000000000000000000000000000000000000000000000000000000000000000000000000000000000000000000000000000000000000000000000000000000000000000000000000000000000000000000000000000000000000000000000000000000000000000000000000000000000000000000000000000000000000000000000000000000000000000000000000000000000000000000000000000000000000000145500000000000000000000000000000000000000000000000000000000000000000000000000000000000000000000000000000000000000000000000000000000000000000000000000000000000000000000000000000000000000000000000000000000000000000000000000000000000000000000000000000000000000000000000000000000000000000000000000000000000000000000000000000000000000000000000000000000000000000000000000000000000000000000000000000000000000000000000000000000000000000000000000000000000000000000000000000000000000000000000000000000000000000000000000000000000000000000000000000000000000000000000000000000000000000000000000000000000000000000000000000000000000000000000000000000000000000000000000000000000000000000000000000000000000000000000000000000000000000000000000000000000000000000000000000000000000000000000000000000000000000000000000000000000000000000000000000000000000000000000000000000000000000000000000000000000000000000000000000000000000000000000000000000000000000000000000000000000000000000000000000000000000000000000000000000000000000000000000000000000000000000000000000000000000000000000000000000000000000000000000000000000000000000000000000000000000000000000000000000000000000000000000000000000000000000000000000000000000000000000000000000000000000000000000000000000000000000000000000000000000000000000000000000000000000000000000000000000000000000000000000000000000000000000000000000000000000000000000000000000000000000000000000000000000000000000000000000000000000000000000000000000000000000000000000000000000000000000000000000000000000000000000000000000000000000000000000000000000000000000000000000000000000000000000000000000000000000000000000000000000000000000000000000000000000000000000000000000000000000000000000000000000000000000000000000000000000000000000000000000000000000000000000000000000000000000000000000000000000000000000000000000000000000000000000000000000000000000000000000000000000000000000000000000000000000000000000000000000000000000000000000000000000000000000000000000000000000000000000000000000000000000000000000000000000000000000000000000000000000000000000000000000000000000000000000000000000000000000000000000000000000000000000000000000000000000000000000000000000000000000000000000000000000000000000000000000000000000000000000000000000000000000000000000000000000000000000000000000000000000000000000000000000000000000000000000000000000000000000000000000000000000000000000000000000000000000000000000000000000000000000000000000000000000000000000000000000000000000000000000000000000000000000000000000000000000000000000000000000000000000000000000000000000000000000000000000000000000000000000000000000000000000000000000000000000000000000000000000000000000000000000000000000000000000000000000000000000000000000000000000000000000000000000000000000000000000000000000000000000000000000000000000000000000000000000000000000000000000000000000000000000000000000000000000000000000000000000000000000000
#060360:0024
#0603a1:0014
#060381:000000000000000000000000000000000000000000000000000000000000000000000000000000000000000000000000000000000000000000000000000000000000000000000000000000000000000000000000000000000000000000000000000000000000000000000000000000000000000000000000000000000000000000000000000000000000000000000000000000000000000000000000000000000000000000000000000000000000000000000000000000000000000000000000000000000000000000000000000000000000000000000000000000000000000000000000000000000000000000000000000000000000000000000000000000000000000000000000000000000000000000000000000000000000000000000000000000000000000000000000000000000000000000000000000000000000000000000000000000000000000000000000000000000000000000000000000000000000000000000000000000000000000000000000000000000000000000000000000000000000000000000000000000000000000000000000000000000000000000000000000000000000000000000000000000000000000000000000000000000000000000000000000000000000000000000000000000000000000000000000000000000000000000000000000000000000000000000000000000000000000000000000000000000000000000000000000000000000000000000000000000000000000000000000000000000000000000000000000000000000000000000000000000000000000000000000000000000000000000000000000000000000000000000000000000000000000000000000000000000000000000000000000000000000000000000000000000000000000000000000000000000000000000000000000000000000000000000000000000000000000000000000000000000000000000000000000000000000000000000000000000000000000000000000000000000000000000000000000000000000000000000000000000000000000000000000000000000000000000000000000000000000000000000000000000000000000000000000000000000000000000000000000000000000000000000000000000000000000000000000000000000000000000000000000000000000000000000000000000000000000000000000000000000000000000000000000000000000000000000000000000000000000000000000000000000000000000000000000000000000000000000000000000000000000000000000000000000000000000000000005600000000000000000000000000000000000000000000000000000000000000000000000000000000000000000000000000000000000000000000000000000000000000000000000000000000000000000000000000000000000000000000000000000000000000000000000000000000000000000000000000000000000000000000000000000000000000000000000000000000000000000000000000000000000000000000000000000000000000000000000000000000000000000000000000000000000000000000000000000000000000000000000000000000000000000000000000000000000000000000000000000000000000000000000000000000000000000000000000000000000000000000000000000000000000000000000000000000000000000000000000000000000000000000000000000000000000000000000000000000000000000000000000000000000000000000000000000000000000000000000000000000000000000000000000000000000000000000000000000000000000000000000000000000000000000000000000000000000000000000000000000000000000000000000000000000000000000000000000000000000000000000000000000000000000000000000000000000000000000000000000000000000000000000000000000000000000000000000000000000000000000000000000000000000000000000000000000000000000000000000000000000000000000000000000000000000000000000000000000000000000000000000000000000000000000000000000000000000000000000000000000000000000000000000000000000000000000000000000000000000000000000000000000000000000000000000000000000000000000000000000000000000000000000000000000000000000000000000000000000000000000000000000000000000000000000000000000000000000000000000000000000000000000000000000000000000000000000000000000000000000000000000000000000000000000000000000000000000000000000000000000000000000000000000000000000000000000000000000000000000000000000000000000000000000000000000000000000000000000000000000000000000000000000000000000000000000000000000000000000000000000000000000000000000000000000000000000000000000000000000000000000000000000000000000000000000000000000000000000000000000000000000000000000000000000000000000000000000000000000
#060361:00000024
#060320:000000000000000000000000000000000000000000000000000000000000000000000000000000000000000000000000000000000000000000000000000000000000000000000000000000000000000000000000000000000000000000000000000000000000000000000000000000000000000000000000000000000000000000000000000000000000000000000000000000000000000000000000000000000000000000000000000000000000000000000000000000000000000000000000000000000000000000000000000000000000000000000000000000000000000000000000000000000000000000000000000000000000000000000000000000000000000000000000000000000000000000000000000000000000000000000000000000000000000000000000000000000000000000000000000000000000000000000000000000000000000000000000000000000000000000000000000000000000000000000000000000000000000000000000000000000000000000000000000000000000000000000000000000000000000000000000000000000000000000000000000000000000000000000000000000000000000000000000000000000000000000000000000000000000000000000000000000000000000000000000000000000000000000000000000000000000000000000000000000000000000000000000000000000000000000000000000000000000000000000000000000000000000000000000000000000000000000000000000000000000000000000000000000000000000000000000000000000000000000000000000000000000000000000000000000000000000000000000000000000000000000000000000000000000000000000000000000000000000000000000000000000000000000000000000000000000000000000000000000000000000000000000000000000000000000000000000000000000000000000000000000000000000000000000000000000000000000000000000000000000000000000000000000000000000000000000000000000000000000000000000000000000000000000000000000000000000000000000000000000000000000000000000000000000000000000000000000000000000000000000000000000000000000000000000000000000000000000000000000000000000000000000000000000000000000000000000000000000000000000000000000000000000000000000000000000000000000000000000000000000000000000000000000000000000000000000000000000000000000000000000000000000000000000000000000000000000000000000000000000000000000000000000000000000000000000000000000000000000000000000000000000000000000000000000000000000000000000000000000000000000000000000000000000000000000000000000000000000000000000000000000000000000000000000000000000000000000000000000000000000000000000000000000000000000000000000000000000000000000000000000000000000000000000000000000000000000000000000000000000000000000000000000000000000000000000000000000000000000000000000000000000000000000000000000000000000000000000000000000000000000000000000000000000000000000000000000000000000000000000000000000000000000000000000000000000000000000000000000000000000000000000000000000000000000000000000000000000000000000000000000000000000000000000000000000000000000000000000000000000000000000000000000000000000000000000000000000000000000000000000000000000000000000000000000000000000000000000000000000000000000000000000000000000000000000000000000000000000000000000000145700000000000000000000000000000000000000000000000000000000000000000000000000000000000000000000000000000000000000000000000000000000000000000000000000000000000000000000000000000000000000000000000000000000000000000000000000000000000000000000000000000000000000000000000000000000000000000000000000000000000000000000000000000000000000000000000000000000000000000000000000000000000000000000000000000000000000000000000000000000000000000000000000000000000000000000000000000000000000000000000000000000000000000000000000000000000000000000000000000000000000000000000000000000000000000000000000000000000000000000000000000000000000000000000000000000000000000000000000000000000000000000000000000000000000000000000000000000000000000000000000000000000000000000000000000000000000000000000000000000000000000000000000000000000000000000000000000000000000000000000000000000000000000000000000000000000000000000000000000000000000000000000000000000000000000000000000000000000000000000
#061360:3400002400000000
#061340:000000000000000000000000000000000000000000000000000000000000000000000000000000000000000000000000000000000000000000000000000000000000000000000000000000000000000000000000000000000000000000000000000000000000000000000000000000000000000000000000000000000000000000000000000000000000000000000000000000000000000000000000000000000000000000000000000000000000000000000000000000000000000000000000000000000000000000000000000000000000000000000000000000000000000000000000000000000000000000000000000000000000000000000000000000000000000000000000000000000000000000000000000000000000000000000000000000000000000000000000000000000000000000000000000000000000000000000000000000000000000000000000000000000000000000000000000000000000000000000000005400000000000000000000000000000000000000000000000000000000000000000000000000000000000000000000000000000000000000000000000000000000000000000000000000000000000000000000000000000000000000000000000000000000000000000000000000000000000000000000000000000000000000000000000000000000000000000000000000000000000000000000000000000000000000000000000000000000000000000000000000000000000000000000000000000000000000000000000000000000000000000000000000000000000000000000000000000000000000000000000000000000000000000000000000000000000000000000000000000000000000000000000000000000000000000000000000000000000000000000000000000000000000000000000000000000000000000000000000000000000000000000000000000000000000000000000000000000000000000000000000000000000000000000000000000000000000000000000000000000000000000000000000000000000000000000000000000000000000000000000000000000000000000000000000000000000000000000000000000000000000000000000000000000000000000000000000000000000000000000000000000000000000000000000000000000000000000000000000000000000000000000000000000000000000000000000000000000000000000000000000000000000000000000000000000000000000000000000000000000000000000000000000000000000000000000000000000000000000000000000000000000000000000000000000000000000000000000000000000000000000000000000000000000000000000000000000000000000000000000000000000000000000000000000000000000000000000000000000000000000000000000000000000000000000000000000000000000000000000000000000000000000000000000000000000000000000000000000000000000000000000000000000000000000000000000000000000000000000000000000000000000000000000000000000000000000000000000000000000000000000000000000000000000000000000000000000000000000000000000000000000000000000000000000000000000000000000000000000000000000000000000000000000000000000000000000000000000000000000000000000000000000000000000000000000000000000000000000000000000000000000000000000000000000000000000000000000000000000000000000000000000000000000000000000000000000000000000000000000000000000000000000000000000000000000000000000000000000000000000000000000000000000000000000000000000000000000000000000000000000000000000000000000000000000000000000000000000000000000000000000000000000000000000000000000000000000000000000000000000000000000000000000000000000000000000000000000000000000000000000000000000000000000000000000000000000000000000000000000000000000000000000000000000000000000000000000000000000000000000000000000000000000000000000000000000000000000000000000000000000000000000000000000000000000000000000000000000000000000000000000000000000000000000000000000000000000000000000000000000000000000000000000000000000000000000000000000000000000000000000000000000000000000000000000000000000000000000000000000000000000000000000000000000000000000000000000000000000000000000000000000000000000000000000000000000000000000000000000000000000000000000000000000000000000000000000000000000000000000000000000000000000000000000000000000000000000000000000000000000000000000000000000000000000000000000000000000000000000000000000000000000000000000000000000000000000000000000000000000000000000000000000000000000000000000000000000000000000000000000
#0613a1:140000000000000000000000000000000000000000000000000000000000000000000000000000000000000000000000000000000000000000000000000000000000000000000000000000000000000000000000000000000000000000000000000000000000000000000000000000000000000000000000000000000000000000000000000000000000000000000000000000000000000000000000000000000000000000000000000000000000000000000000000000000000000000000000000000000000000000000000000000000000000000000000000000000000000000000000000000000000000000000000000000000000000000000000000000000000000000000000000000000000000000000000000000000000000000000000000000000000000000000000000000000000000000000000000000000000000000000000000000000000000000000000000000000000000000000000000000000000000000000000000000000000000000000000000000000000000000000000000000000000000000000000000000000000000000000000000000000000000000000000000000000000000000000000000000000000000000000000000000000000000000000000000000000000000000000000000000000000000000000000000000000000000000000000000000000000000000000000000000000000000000000000000000000000000000000000000000000000000000000000000000000000000000000000000000000000000000000000000000000000000000000000000000000000000000000000000000000000000000000000000000000000000000000000000000000000000000000000000000000000000000000000000000000000000000000000000000000000000000000000000000000000000000000000000000000000000000000000000000000000000000000000000000000000000000000000000000000000000000000054240000000000000000000000000000000000000000000000000000000000000000000000000000000000000000000000000000000000000000000000000000000000000000000000000000000000000000000000000000000000000000000000000000000000000000000000000000000000000000000000000000000000000000000000000000000000000000000000000000000000000000000000000000000000000000000000000000000000000000000000000000000000000000000000000000000000000000000000000000000000000000000000000000000000000000000000000000000000000000000000000000000000000000000000000000000000000000000000000000000000000000000000000000000000000000000000000000000000000000000000000000000000000000000000000000000000000000000000000000000000000000000000000000000000000000000000000000000000000000000000000000000000000000000000000000000000000000000000000000000000000000000000000000000000000000000000000000000000000000000000000000000000000000000000000000000000000000000000000000000000000000000000000000000000000000000000000000000000000000000000000000000000000000000000000000000000000000000000000000000000000000000000000000000000000000000000000000000000000000000000000000000000000000000000000000000000000000000000000000000000000000000000000000000000000000000000000000000000000000000000000000000000000000000000000000000000000000000000000000000000000000000000000000000000000000000000000000000000000000000000000000000000000000000000000000000000000000000000000000000000000000000000000000000000000000000000000000000000000000000000000000000000000000000000000000000000000000000000000000000000000000000000000000000000000000000000000000000000000000000000000000000000000000000000000000000000000000000000000000000000000000000000000000000000000000000000000000000000000000000000000000000000000000000000000000000000000000000000000000000000000000000000000000000000000000000000000000000000000000000000000000000000000000000000000000000000000000000000000000000000000000000000000000000000000000000000000000000000000000000000000000000000000000000000000000000000000000000000000000000000000000000000000000000000000000000000000000000000000000000000000000000000000000000000000000000000000000000000000000000000000000000000000000000000000000000000000000000000000000000000000000000000000000000000000000000000000000000000000000000000000000000000000000000000000000000000000000000000000000000000000000000000000000000000000000000000000000000000000000000000000000000000000000000000000000000000000000000000000000000000
#061321:00000054000000000000000000000000
#062361:00000013
#063321:23
#0633b0:13
#063370:00230000
#063360:0000000000120000
#0633a0:00000000000000000000000000520000
#064360:22
#063381:0000000000120000
#063341:00000000000000000000000000520000
#064381:22
#065321:120000320000320000320000000000003200000000320000
#065371:0032
#066361:22
#066380:12
#0663c0:0032323222000000
#067320:16
#067360:005400540000000000000000220000000000000000000000000000000000000000000000000000000000000000000000
#067390:005400520000000000000000000000000000000000000000
#067340:005300000000000000000000
#067370:000000000052005200520052000000000000000000000000000000000000000000000000000000000000000000000000
#067350:005200000000
#067380:000000000052000000000000000000000000000000000000
#067381:16220000
#067361:000000000000000000000000000000000000000000000000000000000000000000000000000000000054000000000000000000000000000000000000000000000000000000000000000000000000000000000000000000000000000000000000000000000000000000000000000000000000000000000000005400000000000000000000000000000000000000000000000000000000000000000000000000000000000000000000000000000000000000000000000000000000000000000000000000000000000000000000000000000000000000000000000000000000000000000000000000000000000000000000000000000000000000000000000000000000000000000000000000000000000000000000000000000000000000000000000000000000000000000000000000000000000000000000000000000000000000000000000000000000000000000000000000000000000000000000000000000000000000000000000000000000000000000000000000000000000000000000000000000000000000000000000000005200000000000000000000000000000000000000000000000000000000000000000000000000000000000000000000000000000000000000000000000000000000000000000000000000000000000000000000000000000000000000000000000000000000000000000000000000000000000000000000000000000000000000000000000000000000000000000000000000000000000000000000000000000000000000000000000000000000000000000000000000000000000000000000000000000000000000000000000000000000000000000000000000000000000000000000000000000000000000000000000000000000000000000000000000000000000000000000000000000000000000000000000000000000000000000000000000000000000000000000000000000000000000000000000000000000000000000000000000000000000000000000000000000000000000000000000000000000000000000000000000000000000000000000000000000000000000000000000000000000000000000000000000000000000000000000000000000000000000000000000000000000000000000000000000000000000000000000000000000000000000000000000000000000000000000000000000000000000000000000000000000000000000000000000000000000000000000000000000000000000000000000000000000000000000000000000000000000000000000000000000000000000000000000000000000000000000000000000000000000000000000000000000000000000000000000000000000000000000000000000000000000000000000000000000000000000000000000000000000000000000000000000000000000000000000000000000000000000000000000000000000000000000000000000000000000000000000000000000000000000000000000000000000000000000000000000000000000000000000000000000000000000000000000000000000000000000000000000000000000000000000000000000000000000000000000000000000000000000000000000000000000000000000000000000000000000000000000000000000000000000000000000000000000000000000000000000000000000000000000000000000000000000000000000000000000000000000000000000000000000000000000000000000000000000000000000000000000000000000000000000000000000000000000000000000000000000000000000000000000000000000000000000000000000000000000000000000000000000000000000000000000000000000000000000000000000000000000000000000000000000000000000000000000000000000000000000000000000000000000000000000000000000000000000000000000000000000000000000000000000000000000000000000000000000000000000000000000000000000000000000000000000000000000000000000000000000000000000000000000000000000000000000000000000000000000000000000000000000000000000000000000000000000000000000000000000000000000000000000000000000000000000000000000000000000000000000000000000000000000000000000000000000000000000000000000000000000000000000000000000000000000000000000000000000000000000000000000000000000000000000000000000000000000000000000000000000000000000000000000000000000000000000000000000000000000000000000000000000000000000000000000000000000000000000000000000000000000000000000000000000000000000000000000000000000000000000000000000000000000000000000000000000000000000000000000000000000000000000000000000000000000000000000000000000000000000000000000000000000000000000000000000000000000000000000000000000000000000000000000000000000000000000000000000000000000000000000000000000000000000000000000000000000000000000000000000000
#067331:005400000000000000000000000000000000000000000000
#067391:005352000000000000000000
#067371:000000000000000000000000000000000000000000000000000000000000000000000000000000000000000000000000000000000000000000000000000000000000000000000000000000000000000000000000000000000000000000000000000000000000000000000000000000000000000000000000000000000000000000000000000000000000000000000000000000000000000000000000000000000000000000000000000000000000000000000000000000000000000000000000000000000000000000520000000000000000000000000000000000000000000000000000000000000000000000000000000000000000000000000000000000000000000000000000000000000000000000000000000000000052000000000000000000000000000000000000000000000000000000000000000000000000000000000000000000000000000000000000000000000000000000000000000000000000000000000000005200000000000000000000000000000000000000000000000000000000000000000000000000000000000000000000000000000000000000000000000000000000000000000000000000000000000000520000000000000000000000000000000000000000000000000000000000000000000000000000000000000000000000000000000000000000000000000000000000000000000000000000000000000000000000000000000000000000000000000000000000000000000000000000000000000000000000000000000000000000000000000000000000000000000000000000000000000000000000000000000000000000000000000000000000000000000000000000000000000000000000000000000000000000000000000000000000000000000000000000000000000000000000000000000000000000000000000000000000000000000000000000000000000000000000000000000000000000000000000000000000000000000000000000000000000000000000000000000000000000000000000000000000000000000000000000000000000000000000000000000000000000000000000000000000000000000000000000000000000000000000000000000000000000000000000000000000000000000000000000000000000000000000000000000000000000000000000000000000000000000000000000000000000000000000000000000000000000000000000000000000000000000000000000000000000000000000000000000000000000000000000000000000000000000000000000000000000000000000000000000000000000000000000000000000000000000000000000000000000000000000000000000000000000000000000000000000000000000000000000000000000000000000000000000000000000000000000000000000000000000000000000000000000000000000000000000000000000000000000000000000000000000000000000000000000000000000000000000000000000000000000000000000000000000000000000000000000000000000000000000000000000000000000000000000000000000000000000000000000000000000000000000000000000000000000000000000000000000000000000000000000000000000000000000000000000000000000000000000000000000000000000000000000000000000000000000000000000000000000000000000000000000000000000000000000000000000000000000000000000000000000000000000000000000000000000000000000000000000000000000000000000000000000000000000000000000000000000000000000000000000000000000000000000000000000000000000000000000000000000000000000000000000000000000000000000000000000000000000000000000000000000000000000000000000000000000000000000000000000000000000000000000000000000000000000000000000000000000000000000000000000000000000000000000000000000000000000000000000000000000000000000000000000000000000000000000000000000000000000000000000000000000000000000000000000000000000000000000000000000000000000000000000000000000000000000000000000000000000000000000000000000000000000000000000000000000000000000000000000000000000000000000000000000000000000000000000000000000000000000000000000000000000000000000000000000000000000000000000000000000000000000000000000000000000000000000000000000000000000000000000000000000000000000000000000000000000000000000000000000000000000000000000000000000000000000000000000000000000000000000000000000000000000000000000000000000000000000000000000000000000000000000000000000000000000000000000000000000000000000000000000000000000000000000000000000000000000000000000000000000000000000000000000000000000000000000000000000000000000000000000000000000000000000000000000000000000000000000000000000
#067351:0052000000000000
#069321:1424
#069371:00340000
#070361:00132300
#070321:0000005300000000
#070371:00000013
#0703b1:0000000000000053
#071371:23
#072361:0000001200002200
#072321:00000000000000000052320000000000
#072380:0000001200002200
#0723c0:00000000000000000052320000000000
#073350:1300005300530053005300530053005323000000000000000000000000000000000000000000000000000000000000000000000000000000000000000000000000000000000000000000000000000000000000000000000000000000000000000000000000000000000000000000000000000000000000000000000000000000
#073360:00005254000000530000000000000000000000000000000000000000000000000000000000000000000000000000000000000000000000000000000000000000
#073340:00000000005300000000000000000000000000000000000000000000000000000000000000000000000000000000000000000000000000000000000000000000
#073320:00000000000000000000000000000000130053535353535323000000000000000000000000000000000000000000000000000000000000000000000000000000
#073330:0000000000000000000000000000000000000000000000000000000000000000000000000053005500530000005300000000000000000000000000000000000000000000000000000000000000000000000000000000000000000000000000000000000000000000000000000000000000000000000000000000000000000000
#073380:0000000000000000000000000000000000000000000000000000000000000000000000000000000000000000000000000000000000000000000000000000000013005300540053005300545200530000230000000000000000000000000000000000000000000000000000000000000000000000000000000000000000000000
#073350:0000000000000000000000000000000000000000000000000000000000000000000000000000000000000000000000000000000000000000000000000000000000000055000000000000000000000000000000000000000000000000000000000000000000000000000000000000000000000000000000000000000000000000
#073370:0000000000000000000000000000000000000000000000000000000000000000000000000000000000000000000000000000000000000000000000000000000000000000005300000053000000000000000000000000000000000000000000000000000000000000000000000000000000000000000000000000000000000000
#073360:0000000000000000000000000000000000000056000000000000000000000000
#0733b0:0000000000000000000000000000000000000000000000000000000000000000000000000000000000000000000000000000000000000000000000000000000000000000000000000000000000000000000000000000000000000000000000001300530053000000000053525300530023000000000000000000000000000000
#0733a0:0000000000000000000000000000000000000000000000000000000000000000000000000000000000000000000000000000000000000000000000000000000000000000000000000000000000000000000000000000000000000000000000000053000000530000540000000000000000000000000000000000000000000000
#0733c0:0000000000000000000000000000000000000000000000000000000000000000000000000000000000000000000000000000000000000000000000000000000000000000000000000000000000000000000000000000000000000000000000000000000000005200005200000000000000000000000000000000000000000000
#073380:0000000000000000000000000000000000000000000000000000000000000000000000000000000000000000000000000000000000000000000000000000000000000000000000000000000000000000000000000000000000000000000000000000000000000000000000000055000000000000000000000000000000000000
#076390:0000001500000000
#076360:0054
#0763b0:00000023
#078360:0000001400000000
#0783b0:0053
#078380:00000023
#079340:15
#079320:0000532300000000
#079320:0000000000000013
#080360:23
#080340:0000001500000000
#080320:00000032
#081370:22
#0803b1:0000001300000000
#080361:00000023
#0813c1:1222
#081361:00520000
#081380:0012
#081320:00000032
#082360:24
#081361:00000012
#0823a1:24
#0863a1:1400002400000000
#086341:00000054000000000000000000000000
#087371:0000001700000000
#087361:00000000000000000053000000000000
#0873a1:00000024
#0913b1:13
#091371:00230000
#091321:0000001300000000
#091361:0000000000230000
#0933a1:14
#093351:000000000000000000000000000000000000000000000000000000000000000000000000000000000000000000000000000000000000000000000000000000000000000000000000000000000000000000000000000000000000000000000000000000000000000000000000000000000000000000000000000000000000000000000000000000000000000000000000000000000000000000000000000000000000000000000000000000000000000000000000000000000000000000000000000000000000000000000000000000000000000000000000000000000000000000000000000000000000000000000000540000000000000000000000000000000000000000000000000000000000000000000000000000000000000000000000000000000000000000000000000000000000000000000000000000000000000000000000000000000000000000000000000000000000000000000000000000000000000000000000000000000000000000000000000000000000000000000000000000000000000000000000000000000000000000000000000000000000000000000000000000000000000000000000000000000000000000000000000000000000000000000000000000000000000000000000000000000000000000000054000000000000000000000000000000000000000000000000000000000000000000000000000000000000000000000000000000000000000000000000000000000000000000000000000000000000000000000000000000000000000000000000000000000000000000000000000000000000000000000000000000000000000000000000000000000000000000000000000000000000000000000000000000000000000000000000000000000000000000000000000000000000000000000000000000000000000000000000000000000000000000000000000000000000000000000000000000000000000000000000000000000000000000000000000000000000000000000000000000000000000000000000000000000000000000000000000000000000000000000000000000000000000000000000000000000000000000000000000000000000000000000000000000000000000000000000000000000000000000000000000000000000000000000000000000000000000000000000000000000000000000000000000000000000000000000000000000000000000000000000000000000000000000000000000000000000000000000000000000000000000000000000000000000000000000000000000000000000000000000000000000000000000000000000000000000000000000000000000000000000000000000000000000000000000000000000000000000000000000000000000000000000000000000000000000000000000000000000000000000000000000000000000000000000000000000000000000000000000000000000000000000000000000000000000000000000000000000000000000000000000000000000000000000000000000000000000000000000000000000000000000000000000000000000000000000000000000000000000000000000000000000000000000000000000000000000000000000000000000000000000000000000000000000000000000000000000000000000000000000000000000000000000000000000000000000000000000000000000000000000000000000000000000000000000000000000000000000000000000000000000000000000000000000000000000000000000000000000000000000000000000000000000000000000000000000000000000000000000000000000000000000000000000000000000000000000000000000000000000000000000000000000000000000000000000000000000000000000000000000000000000000000000000000000000000000000000000000000000000000000000000000000000000000000000000000000000000000000000000000000000000000000000000000000000000000000000000000000000000000000000000000000000000000000000000000000000000000000000000000000000000000000000000000000000000000000000000000000000000000000000000000000000000000000000000000000000000000000000000000000000000000000000000000000000000000000000000000000000000000000000000000000000000000000000000000000000000000000000000000000000000000000000000000000000000000000000000000000000000000000000000000000000000000000000000000000000000000000000000000000000000000000000000000000000000000000000000000000000000000000000000000000000000000000000000000000000000000000000000000000000000000000000000000000000000000000000000000000000000000000000000000000000000000000000000000000000000000000000000000000000000000000000000000000000000000000000000000000000000000000000000000000000000000000000000000000000000000000000000000000000000000000000000000000000000000000000000000000000000000000
#093361:00230000
#093320:14240000
#093320:0000001400240000
#093361:00000000000013535353230000000000
#093351:0000000000000000000000000053005300530053000000000000000000000000
#0943b1:13230000
#096321:12
#096361:0000002200000000
#0963c1:0000000012000032
#096361:000052
#096371:00000032
#096381:000000000052
#097321:22
