This file was generated by Ched 2.7.0.0.
#TITLE ""
#ARTIST ""
#DESIGNER ""
#DIFFICULTY 0
#PLAYLEVEL
#SONGID ""
#WAVE ""
#WAVEOFFSET 0
#JACKET ""
#REQUEST "ticks_per_beat 480"
#00002: 4
#BPM01: 220
#00008: 01
#TIL00: ""
#VOLUME: ""
#HISPEED 00
#MEASUREHS 00
#0001a:14
#00012:0014
#00118:14
#00114:0014
#0021a:14
#00214:0014
#00210:41
#0031a:14
#00314:0014
#00418:14
#00412:0014
#00518:14
#00512:0014
#0061a:14
#00612:0014
#00718:1414
#00714:00140000
#01018:14
#01014:0014
#01010:41
#01212:14
#01218:0014
#01314:14
#0131a:0014
#01412:14
#01418:0014
#01814:14
#01818:0014
#0201a:14
#02014:0014
#02118:14
#02112:0014
#03418:0014
#0341a:24
#03412:24
#03410:41
#03514:1414
#03518:00140014
#03612:14000014
#0361a:0014
#03812:0014
#0381a:14
#0391a:1414
#03914:00140000
#04012:14
#0401a:0014
#0421a:14
#04214:00140000
#04218:0014
#04212:00000014
#04816:0014
#06012:14
#0601a:0014
#06218:14
#06214:0014
#06414:14
#0641a:0014
#06718:0014
#06714:00000014
#0671a:24
#06712:24
#0671f:21
#0681a:1414
#06812:00140014
#0691a:14
#06914:00001414
#06910:41
#0701a:14140000
#07012:00001414
#0711a:14
#07112:0014
#07118:00000014
#07214:1414
#0721a:00140000
#08218:0014
#08214:00000014
#0821a:24
#08212:24
#0831a:1414
#08312:00140014
#0841a:14
#08414:0014
#08418:00000014
#08514:0014
#08518:00000014
#08512:14
#0851a:00140000
#08612:14
#08618:0014
#08614:00000014
#0901a:14
#09014:00140000
#09018:0014
#09012:00000014
#09010:41
#09616:0014
#09712:14
#05012:14
#0501f:11
#05013:00340000
#05014:00000034
#05114:00340014
#0541a:14
#05419:00340000
#05418:00000034
#05518:00340014
#00812:14
#0081a:0014
#00914:1414
#00918:00140000
#01512:1414
#01518:00140000
#0161a:14
#01614:0014
#0171a:1414
#01714:00140000
#0221a:14
#02214:0014
#02318:14
#0231a:0014
#02314:00140000
#02412:14
#02418:0014
#02514:14
#02518:00140000
#03718:1414
#03714:00140014
#04112:1414
#04118:00140000
#06512:14
#0661a:14
#03218:14
#0321a:0034
#03014:14
#03012:0034
#04412:14
#04418:00140000
#04414:0014
#0441a:00000014
#0871a:1414
#08712:00140000
#08812:14
#08818:00140000
#08814:0014
#0881a:00000014
#09212:14
#09218:00140000
#09214:0014
#0921a:00000014
#0751a:1414
#07514:00140014
#07712:1414
#07718:00140014
#08112:0014
#09518:0000001400000000
#0941a:0000001400000000
#05214:00340034
#05618:00340000
#02610:41
#03652:14
#0695a:14
#0715a:14
#08252:14
#0825a:14
#0845a:14
#08652:14
#0545a:54
#05052:54
#05154:00000024
#05558:00000024
#0115a:0000001400000000
#01952:0000001400000000
#0385a:14
#06552:54
#0665a:64
#03258:64
#03054:64
#0335a:14
#04052:14
#0435a:0000001400000000
#04552:0000001400000000
#08952:0014
#09158:0000001400000000
#09354:0000001400000000
#07658:0000001400000000
#07854:0000001400000000
#09558:0000005400000000
#0945a:0000005400000000
#06154:0000001400000000
#0113a0:1400002400000000
#019320:1400002400000000
#025320:00001434
#026320:34
#027340:24
#0283a0:14
#028390:0034
#029380:24
#030340:14
#030320:0034
#031320:24
#032380:14
#0323a0:0034
#0333a0:24
#0433a0:1400002400000000
#045320:1400002400000000
#0463a0:14
#046380:0000003400000000
#047380:34
#0473a0:0000003400000000
#0483a0:24
#049320:14343434
#050320:34
#050330:00340000
#050340:00000034
#051340:00340034
#052340:00340034
#053320:34342400
#0543a0:14
#054390:00340000
#054380:00000034
#055380:00340034
#056380:00340000
#0563a0:00000034
#0573a0:34342400
#058320:14
#058340:0024
#0593a0:14
#059380:0024
#061340:1400002400000000
#063380:1424
#065320:14
#065340:0024
#0663a0:14
#066380:0024
#0733a0:14342400
#074320:14342400
#076380:1400002400000000
#078340:1400002400000000
#0793a0:14
#079380:0000003400000000
#080380:34
#0803a0:0000003400000000
#0813a0:24
#089320:14342400
#091380:1400002400000000
#093340:1400002400000000
#0943a0:1400003400000000
#095380:3400003400000000
#0963a0:24
