This file was generated by Ched 2.7.0.0.
#TITLE ""
#ARTIST ""
#DESIGNER ""
#DIFFICULTY 0
#PLAYLEVEL
#SONGID ""
#WAVE ""
#WAVEOFFSET 0
#JACKET ""
#REQUEST "ticks_per_beat 480"
#00002: 4
#BPM01: 128
#00008: 01
#TIL00: ""
#VOLUME: ""
#HISPEED 00
#MEASUREHS 00
#0371f:11
#0011a:14
#00214:14
#00318:14
#00412:14
#00518:1616
#00612:1616
#0091a:14
#00919:0034
#01112:14
#01113:0034
#01412:14
#01518:14
#01614:14
#01812:14
#01918:14
#02014:14
#02918:2616
#02910:41
#03012:1616
#03118:1616
#03212:1616
#03318:16
#03312:0016
#03418:1616
#03512:16
#03518:0016
#03612:16
#04512:0016
#0451f:21
#04518:26
#04818:16
#04812:0016
#04918:1616
#05012:1616
#05118:16
#05112:0016
#05318:0016
#05312:26
#05310:41
#05612:16
#05618:0016
#05712:1616
#05818:1616
#05912:16
#05918:0016
#0611a:14
#06110:41
#06214:14
#06318:14
#06412:14
#0131a:24
#01310:41
#0171a:24
#01019:34
#01213:34
#02110:41
#04610:41
#0095a:54
#01152:64
#007380:1626
#008320:1626
#0093a0:14
#009390:0034
#010390:34
#010380:0024
#011320:14
#011330:0034
#012330:34
#012340:0024
#0213a0:14
#0223a0:24
#023320:14
#024320:24
#025380:14
#026380:24
#027340:14
#028340:24
#0373a0:14
#0383a0:24
#039340:14
#040340:24
#041380:1400003400003400
#042380:0034000024000000
#043320:1434343434343434
#044320:3434343424000000
#046380:1626
#047320:1626
#052380:1626
#054320:1626
#055380:1626
#060320:1626
#065380:14
#066380:24
#067340:14
#068340:24
#0693a0:14
#0713a0:24
