This file was generated by Ched 2.7.0.0.
#TITLE ""
#ARTIST ""
#DESIGNER ""
#DIFFICULTY 0
#PLAYLEVEL
#SONGID ""
#WAVE ""
#WAVEOFFSET 0
#JACKET ""
#REQUEST "ticks_per_beat 480"
#00002: 4
#BPM01: 128
#00008: 01
#TIL00: ""
#VOLUME: ""
#HISPEED 00
#MEASUREHS 00
#0371f:11
#03712:12000012000012000000000000000000
#03714:0000000000120000
#03716:00000012
#03718:0000000000000012
#04617:1300001300000000
#04612:13000000000013000000001300000000
#04616:0013
#0461b:0013
#04618:0000000000000013
#04610:41
#04815:13132300
#04812:0013001300002300
#04818:00231300
#0481b:2300000000130000
#04916:13
#0491b:1300001300000000
#04917:00000013000000001300000000000000
#04912:00000013000000001300000000001300
#04918:00000000000000000000000000130000
#04915:00000023
#05112:00000013000000000000000013000000
#0511b:1300001300001300
#05116:1300000000000014
#05115:0013
#05212:13000023
#0521b:1300000000230000
#05218:0000000000000013
#05912:1300000013000013
#0591b:1300001300130000
#05916:0000001300000000
#05917:0013
#05915:00000000000000000000001300000000
#05918:00000000000000000000000000130000
#06218:1300000013000013
#0621b:00130013
#06212:13000000000013000000000000130000
#06215:00000013000000000013000000000013
#0631b:1300001300000000
#06312:00130013
#06315:0013
#06318:00000013000000000000000013001300
#06415:13
#0641b:1313
#06417:00130000
#06416:0013
#06412:00130000
#0651c:12000012000000000000000000000000
#06514:00000000000012000012000000000000
#06518:0000000000001212
#06516:00000000000000000000000000120000
#06912:1c1c0000
#06913:00001a1a
#07014:18180000
#07015:0016
#07016:00000014
#0011b:1300000000000013
#00116:13
#00114:00000013000000000000000000000000
#00112:0000001313000000
#00117:0013
#00119:00000000000000000000001300000000
#00012:0000000000000013
#0021b:1313
#00212:1300001300000013
#00217:0000001300000013
#00219:00000000000000000000001300000000
#00216:0013
#00214:00000000000000000000001300000000
#0041b:1313
#00412:13130013
#0051b:13000013
#00516:13
#00519:00000013000000000000000000000000
#00517:0000001313000000
#00515:00000000000000000000000000130000
#00518:0000000000000013
#0061b:00000013
#00612:13000013
#00617:13
#00614:00000013000000000000000000000000
#00616:0000001313000000
#00715:0000001300130000
#00712:00000000000000001300000000130000
#00718:0000000013000013
#0071b:00000000000013000000001300000000
#00812:13
#0081b:13130000
#00816:00130013
#00817:0013
#01217:1313
#01216:00130000
#01212:000000000000000000003333000000000000130000000000
#01218:003300000000000000000000003300000000000000000000
#01219:003300000000003300000000
#0121a:000000330000000000000000000000333300000000000000
#0121b:000000003333000000000000000000000033000000000000
#01215:000000000000003300000000000000000000000000000000
#01214:003300
#01213:0000003300000000
#01312:00000000130000000000001300000000
#01315:2300001300000000
#01318:0000000013000013
#0131b:2300000000130000
#01310:41
#01612:1300001300001300
#01615:00000013000000001300000000003300
#01618:1300001300000000
#0161b:00000013000000000000000000000000
#01617:00000013
#01613:000000000000000000000000000000000000003300000000
#01614:000000000033
#01616:000000000000000000000000000000000000000000003333
#01712:00130013
#01718:00000000000013000000001300000000
#0171b:2300000013000013
#01715:0000000000130000
#02018:0013000000000000
#02012:00000013000000001300000013000000
#0201b:00131300
#02015:1300001300000000
#0211b:1313
#02117:00130000
#02112:00130000
#02116:0013
#02110:41
#02918:0000130000130000
#02912:00000000001300000000000000000000
#0291b:23000000000000130000000013000000
#02915:00130000000000000013001300000000
#02917:000000000000000000000000000000000000000033133300
#02919:000000000000000000000000000000000000003300000033
#02910:41
#03012:13000000000000130000000013000000
#03018:00130000000000000013001300000000
#03015:0000130000130000
#0301b:00000000001300000000000000001300
#03115:13000000000000130000000000000000
#03112:0000130000130000
#0311b:00000000001300000000000013000000
#03118:00130000000000000013000000000000
#03117:000000000000000000000000000000000000000033133300
#03119:000000000000000000000000000000000000003300000033
#03212:1300001300001300
#0321b:00000013000000000000000000130013
#03218:0013
#03215:0000000000000013
#03415:00130000000000000013000000000000
#03418:0000130000130000
#03412:00000000001300000000000013000000
#0341b:13000000000000130000000000001300
#03515:13000000000000130000000000001300
#03512:00130013
#03518:00000000001300000000330000000013
#0351b:00130000000000001300000000130000
#0351a:000000000000000000000000003300000000000000000000
#03519:000000000000003300000000
#03517:000000000000000000000000000000003333000000000000
#03612:1313
#0361b:00130013
#03814:0000120000120000
#0381a:12
#03818:0000001200000000
#03816:0000000000000012
#0381c:0000000000000012
#0421b:0013000023000013
#04218:00130013
#04215:0000001300130000
#04212:0023000013000023
#04114:00130000
#04119:0000000000130000
#04116:13000013
#04117:0000001300000000
#04113:0000000000000013
#0411b:23000023
#04112:0000002300000000
#04418:003300000000000000000000003300000000000000130000
#04417:1313
#04416:00130000
#04415:000000000000003300000000000000000000130000000000
#04419:003300000000003300000000
#0441a:000000330000000000000000000000333300000000000000
#0441b:000000003333000000000000000000000033000000000000
#04414:003300
#04413:0000003300000000
#04412:000000000000000000003333000000000000000000000000
#04516:00000013000000001300000000000000
#04512:23000000000013000000001300000000
#0451b:00000013000000001300000000001300
#04517:13000000000000000000001300000000
#0451f:21
#0471b:1300001300000000
#04712:1300001313000000
#04717:0000000013000013
#04716:00000000000000000000001300000000
#0501b:13000023
#05016:1300001300000000
#05012:00000013000000001300000000001300
#05017:00000013000000001300000000001300
#05416:1300001300000000
#0541b:13000000000013000000001300000000
#05417:0013
#05412:0013
#05415:0000000000000013
#05618:13132300
#0561b:0013001300002300
#05615:00231300
#05612:2300000000130000
#05717:13
#05712:1300001300000000
#05716:00000013000000001300000000000000
#0571b:00000013000000001300000000001300
#05715:00000000000000000000000000130000
#05718:00000023
#05317:00000013000000001300000000000000
#0531b:23000000000013000000001300000000
#05312:00000013000000001300000000001300
#05316:13000000000000000000001300000000
#05310:41
#05512:1300001300000000
#0551b:1300001313000000
#05516:0000000013000013
#05517:00000000000000000000001300000000
#05812:13000023
#05817:1300001300000000
#0581b:00000013000000001300000000001300
#05816:00000013000000001300000000001300
#06016:1300001300001300
#0601b:1313
#06012:00130000
#06017:0000130000130000
#06112:1300000000000000000000000000000000130000000000000000000000000000
#06117:1300000000000000000000000000000000130000000000000000000000000000
#06116:00000013000000000000000000000000
#0611b:00000013000000000000000000000000
#06110:41
#06612:12000012000000000000000000000000
#0661a:00000000000012000012000000000000
#06616:0000000000001212
#06618:00000000000000000000000000120000
#0671a:12000012000000000000000000000000
#06712:00000000000012000012000000000000
#06718:0000000000001212
#06716:00000000000000000000000000120000
#06814:12000012000000000000000000000000
#0681c:00000000000012000012000000000000
#06816:00000012
#00312:1313
#0031b:1300001300000013
#00316:0000001300000013
#00314:00000000000000000000001300000000
#00317:0013
#00319:00000000000000000000001300000000
#00917:1300000000000000000000000000000000130000000000000000000000000000
#00916:00000013000000000000000000000000
#00912:0000000000000000000000000000000000130000000000000000000000000000
#0091b:00000013000000000000000000000000
#0101c:12
#01019:0012000000000000
#01016:00120000
#01013:0000001200000000
#0101b:0012
#01018:0000000000120000
#01015:00000012
#01012:0000000000000012
#01118:1212121200000000
#0111a:0000000012121212
#01116:00120012001200120000000000000000
#01114:00000000000000000012001200120012
#0141b:00000000130000000000001300000000
#01418:2300001300000000
#01415:0000000013000013
#01412:2300000000130000
#01512:00000000130000000000001300000000
#01515:2300001300000000
#01518:0000000013000013
#0151b:2300000000130000
#0181b:00130013
#01815:23000000000013000000001300000000
#01812:0000000013000013
#01818:0000000000130000
#01912:00130013
#01918:23000000000013000000001300000000
#0191b:0000000013000013
#01915:0000000000130000
#02216:00000000130000000000001300000000
#02212:0013
#0221b:00000000130000000000001300000000
#02217:0013
#0231b:00130000
#02318:0000001300000000
#02315:0000000013000013
#02312:00000013
#02418:13
#02417:00000000130000000000001300000000
#0241b:0013
#02412:00000000130000000000001300000000
#02416:0013
#02517:00130000
#0251b:0013
#02512:00130000
#02516:0013
#02616:00130000
#02612:0000000013000013
#0261b:00000000130000000000001300000000
#02617:0013
#02715:1300001300000000
#02712:00001313000000001300000000000000
#0271b:13000000000000000000131300000000
#02718:0000000013000013
#02812:1300001300000000
#0281b:1313
#02815:0013000000001300
#02818:00000013000000000000000023000000
#03312:13000000000000130000000013000000
#03315:0000130000130000
#0331b:00000000001300000000000000000000
#03318:00130000000000000013001300000000
#03316:000000000000000000000000000000000000000033133300
#03314:000000000000000000000000000000000000003300000033
#03918:00000012
#04016:12
#0401a:00120000
#04014:0012
#0401c:00000012
#04318:1212121200000000
#0431a:0000000012121212
#04316:00120012001200120000000000000000
#04314:00000000000000000012001200120012
#04657:63
#04652:63000000000000000000005300000000
#0465b:0053
#04855:63631300
#04852:0023002300000000
#0485b:1300000000230000
#04858:0053
#04957:0053
#04952:00000053000000000000000000000000
#04956:53
#0525b:5300000000430000
#05252:53000033
#05952:53
#0595b:53
#05955:00130000
#05958:00130000
#0625b:00130013
#06352:00130013
#06457:00530013
#06452:00530013
#06456:0053
#0645b:0053
#0015b:53
#00152:0063
#0025b:63
#00252:53
#0045b:5353
#00452:00630000
#00552:0013
#00556:53
#00557:0013
#00758:13
#00755:13
#0065b:00001363
#00652:00000053
#00657:63
#00656:0013
#01257:5353
#01256:00630000
#0125b:00000013
#01252:00000013
#01352:00000000000000000000005300000000
#0165b:00000053000000001300000000000000
#01658:5300005300000000
#01652:00000053
#01752:00130013
#0205b:00135300
#02052:00000063
#02858:00000053000000000000000013000000
#0285b:0053
#02855:00000013
#0295b:00000053
#02957:0000000000000023
#03152:0000000000130000
#0315b:00000053
#03157:0000000000000023
#03252:5300005300000000
#0325b:00000063000000000000000000000000
#03458:0000000000130000
#03652:5353
#0365b:00630063
#0415b:43000043
#04152:0000003300000000
#04252:0033000000000033
#0425b:0043
#04557:53
#0455b:00000053000000000000000000000000
#04552:00000000000000000000006300000000
#04556:0063
#0475b:63
#04757:0053
#04752:63
#04756:00000000000000000000005300000000
#0505b:53
#05052:0053
#05057:00000053000000000000000000000000
#0515b:5300005300000000
#05152:00000053000000000000000000000000
#05158:0013
#05155:0013
#05456:53
#05452:0063
#0545b:53000000000000000000006300000000
#05658:53531300
#0565b:0023002300000000
#05655:0063
#05652:1300000000230000
#05757:63
#05756:0063
#0575b:00000063000000000000000000000000
#05352:00000063000000000000000000000000
#05356:63
#0535b:00000000000000000000005300000000
#05357:0053
#05552:53
#05556:0063
#0555b:53
#05557:00000000000000000000006300000000
#05852:63
#0585b:0063
#05856:00000063000000000000000000000000
#06052:00530000
#06056:0000002300000000
#0605b:0063
#06057:0000000000230000
#06152:0000000000000000000000000000000000230000000000000000000000000000
#06156:00000053000000000000000000000000
#0615b:00000053000000000000000000000000
#06157:0000000000000000000000000000000000230000000000000000000000000000
#00352:53
#0035b:63
#00856:00530053
#00857:0063
#00956:00000053000000000000000000000000
#00952:0000000000000000000000000000000000230000000000000000000000000000
#0095b:00000053000000000000000000000000
#00957:0000000000000000000000000000000000230000000000000000000000000000
#0145b:00000000000000000000006300000000
#01552:00000000000000000000005300000000
#0185b:00130013
#01952:00130013
#02157:00530000
#0215b:0053
#02152:00530000
#02156:0053
#02256:00000000630000000000005300000000
#02252:0063
#0225b:00000000630000000000005300000000
#02257:0063
#02457:00000000530000000000006300000000
#0245b:0053
#02452:00000000530000000000006300000000
#02456:0053
#02557:00530000
#0255b:0053
#02552:00530000
#02556:0053
#02656:00630000
#02652:0063
#0265b:00000000630000000000005300000000
#02657:0063
#0275b:53
#02752:0063
#03352:00000063
#03356:0000000000000023
#0355b:0053
#03858:0000005200000000
#0385a:52
#03856:0000000000000052
#0385c:0000000000000052
#03958:00000052
#04056:52
#0405a:00520000
#04054:0062
#04457:5353
#04456:00630000
#06952:6c6c0000
#06953:00006a6a
#07054:68680000
#07055:0066
#07056:00000064
#0013b0:13
#001370:0000002300000000
#001320:0013
#001360:0000000000000023
#0023b0:13
#002380:00230000
#002321:13
#002351:00230000
#003321:13
#003351:00230000
#0033b0:13
#003380:00230000
#0043b0:13
#004370:00230000
#004321:00130000
#004361:0023
#0043b0:0013
#004370:00000023
#005360:13
#005320:0023
#006370:13
#0063b0:0023
#0063b0:00000013
#007380:23
#006321:00000013
#007351:23
#008361:00130000
#008321:0023
#008370:0013
#0083b0:00000023
#008361:00000013
#009321:23
#009361:00000013000000000000000000002300
#009321:0000000000000000000000000000000000530000000000000000000000000000
#0093b0:00000013000000000000000000002300
#009370:0000000000000000000000000000000000530000000000000000000000000000
#012370:13
#012380:003300000000000000000000000000000000000000000000
#012390:003300000000000000000000
#0123a0:0033000000000000
#0123b0:000000003333230000000000000000000000000000000000
#012361:00130000
#012351:000000000000003300000000000000000000000000000000
#012341:003300
#012331:0000003300000000
#012321:000000000000000000003333230000000000000000000000
#012370:0013
#012380:000000000000000000000000003300000000000000000000
#012390:000000000000003300000000
#0123a0:000000000000000000000000000000333300000000000000
#0123b0:000000000000000000000000000000000033230000000000
#013320:00000000000000000000001300000000
#013350:0000000000000023
#0143b0:00000000000000000000001300000000
#014380:0000000000000023
#015320:00000000000000000000001300000000
#015350:0000000000000023
#016380:1300003300000000
#0163b0:00000033000000002300000000000000
#016320:00000013
#016330:000000000000000000000000000000000000003300000000
#016340:000000000033
#016350:0000000000000033
#016360:000000000000000000000000000000000000000000003333
#017360:23
#0203b0:0013
#020370:00000023
#020321:00000013
#021361:23
#021371:00130000
#0213b1:0033
#022371:23
#021320:00130000
#021360:0033
#022320:23
#022360:00000000130000000000003300000000
#022320:0033
#023320:23
#0223b1:00000000130000000000003300000000
#022371:0033
#023371:23
#024371:00000000130000000000003300000000
#0243b1:0033
#0253b1:23
#024320:00000000130000000000003300000000
#024360:0033
#025360:23
#025370:00130000
#0253b0:0033
#026370:23
#025321:00130000
#025361:0033
#026321:23
#026361:00000000130000000000002300000000
#026321:0033
#0263b0:00000000130000000000003300000000
#026370:0000000033000023
#0273b0:13
#027380:0000002300000000
#027320:0013
#027350:0000000000000023
#028380:00000013000000000000000000000000
#0283b0:0000002300000000
#0283b0:0013
#028380:00000023
#0293b0:00000013
#029390:000000000000000000000000000000000000003300000033
#029370:000000000000000000000000000000000000000033333300
#0303b0:23
#0313b0:00000013
#031390:000000000000000000000000000000000000003300000033
#031370:000000000000000000000000000000000000000033333300
#0323b0:23
#032321:13
#032361:00000023000000000000000000000000
#0323b0:00000013000000000000000000000000
#032370:0000002300000000
#032321:0000001300000000
#032351:0023
#033321:00000013
#033341:000000000000000000000000000000000000003300000033
#033361:000000000000000000000000000000000000000033333300
#034321:23
#0353b1:0013
#0353a1:000000000000000000000000003300000000000000000000
#035391:000000000000003300000000
#035381:0000000000330000
#035371:000000000000000000000000000000003333230000000000
#036321:13
#036361:00230000
#0363b0:00130000
#036370:0023
#036321:0013
#036361:00000023
#0363b0:00000013
#037370:23
#0383a0:12
#038380:00220000
#038380:0000001200000000
#0383a0:0000000000220000
#038360:0000000000000012
#039320:0022
#0383c1:0000000000000012
#039381:0022
#039381:00000012
#0403a1:22
#040360:12
#040340:00220000
#0403a1:00120000
#0403c1:0022
#040340:0012
#040320:00000022
#044370:13
#044380:003300000000000000000000000000000000000000000000
#044390:003300000000000000000000
#0443a0:0033000000000000
#0443b0:000000003333230000000000000000000000000000000000
#044361:00130000
#044351:000000000000003300000000000000000000000000000000
#044341:003300
#044331:0000003300000000
#044321:000000000000000000003333230000000000000000000000
#044370:0013
#044380:000000000000000000000000003300000000000000000000
#044390:000000000000003300000000
#0443a0:000000000000000000000000000000333300000000000000
#0443b0:000000000000000000000000000000000033230000000000
#045370:1300002300000000
#0453b0:00000053000000000000000000000000
#045360:0000000013000023
#045320:00000000000000000000005300000000
#046370:13
#0463b0:00230000
#046321:13
#046361:00230000
#0463b1:0013
#046381:00000000000000000000002300000000
#046320:00000000000000000000001300000000
#046350:0000000000000023
#0473b0:13
#047380:00230000
#047321:13
#047351:00230000
#047371:0013
#0473b1:00000000000000000000002300000000
#047360:00000000000000000000001300000000
#047320:0000000000000023
#048350:13532300
#048320:0053005300000000
#048381:00001323
#0483b1:0000000000530000
#049361:1300002300000000
#049321:00000053000000000000000000000000
#049371:0013
#0493b1:00000023
#0503b1:1300002300000000
#050371:00000053000000000000000000000000
#050321:0013
#050361:00000023
#0513b1:13
#051381:00000023000000000000000000000000
#051320:00000013000000000000000000000000
#051350:0000002300000000
#0513b1:0000001300000000
#051381:0023
#052321:13
#052351:0023
#0523b0:13
#052380:0023
#053360:1300002300000000
#053320:00000053000000000000000000000000
#053370:0000000013000023
#0533b0:00000000000000000000005300000000
#054360:13
#054320:00230000
#0543b1:13
#054371:00230000
#054321:0013
#054351:00000000000000000000002300000000
#0543b0:00000000000000000000001300000000
#054380:0000000000000023
#055320:13
#055350:00230000
#0553b1:13
#055381:00230000
#055361:0013
#055321:00000000000000000000002300000000
#055370:00000000000000000000001300000000
#0553b0:0000000000000023
#056380:13532300
#0563b0:0053005300000000
#056351:00001323
#056321:0000000000530000
#057371:1300002300000000
#0573b1:00000053000000000000000000000000
#057361:0013
#057321:00000023
#058321:1300002300000000
#058361:00000053000000000000000000000000
#0583b1:0013
#058371:00000023
#059321:13
#059351:00230000
#0593b0:13
#059380:00230000
#060320:00132300
#060360:0000005300000000
#0603b1:00001323
#060371:0000000000530000
#061361:00000013000000000000000000002300
#061321:0000000000000000000000000000000000530000000000000000000000000000
#0613b0:00000013000000000000000000002300
#061370:0000000000000000000000000000000000530000000000000000000000000000
#064370:00130023
#0643b0:0033
#064321:00130023
#064361:0033
#069321:1c5c0000
#069371:000000000000000000000000000000000000000000000000000000000000000000000000000000000000000000000052000000000000000000000000000000000000000000000000000000000000000000000000000000000000000000000052000000000000000000000000000000000000000000000000000000000000000000000000000000000000000000000052000000000000000000000000000000000000000000000000000000000000000000000000000000000000000000000052
#069331:00005a5a
#070341:58580000
#070371:000000000000000000000000000000000000000000000000000000000000000000000000000000000000000000000052000000000000000000000000000000000000000000000000000000000000000000000000000000000000000000000052000000000000000000000000000000000000000000000000000000000000000000000000000000000000000000000052000000000000000000000000000000000000000000000000000000000000000000000000000000000000000000000000
#070351:0056
#070361:00000054
#071371:22
