This file was generated by Ched 2.7.0.0.
#TITLE ""
#ARTIST ""
#DESIGNER ""
#DIFFICULTY 0
#PLAYLEVEL
#SONGID ""
#WAVE ""
#WAVEOFFSET 0
#JACKET ""
#REQUEST "ticks_per_beat 480"
#00002: 4
#BPM01: 128
#00008: 01
#TIL00: ""
#VOLUME: ""
#HISPEED 00
#MEASUREHS 00
#0371f:11
#03715:0000000000130013
#03718:00000013
#04612:1313
#0461b:0000001300000000
#04618:0000000000000013
#04615:00000000000000000000001300000000
#04610:41
#0521a:14
#05215:0000000000000013
#05212:0000000000230000
#0521b:00000023
#05918:00000000000013000000000000130000
#05915:0000000013000013
#0591b:0000000000130000
#05912:00000000000000000000001300000000
#0641b:13
#06415:0013
#06412:00130000
#0651c:12
#06516:00000012000000000000000000000000
#0651a:0000001200000000
#06514:00000000000000000012000000000000
#06518:00000012
#06912:1c1c0000
#06913:00001a1a
#07014:18180000
#07015:00001616
#0011b:13
#00118:00000013000000000000000000001300
#00115:00000000000013000000001300000000
#00112:0013
#00012:0000000000000013
#0021b:1313
#00212:0000001300000000
#00218:00000000000000000000001300000000
#00215:0000000000000013
#0051a:1414
#00516:00000014000000000000000014000000
#00512:0000001400000000
#01318:00000000130000000000001300000000
#01315:0000001300000013
#0131b:0013
#01312:2300000000130000
#01310:41
#01712:0000140000140000
#01716:0000001400000000
#0171a:24000000000000001400001400000000
#02918:0000130000130000
#02912:00000000001300000000000013000000
#0291b:00000000000000130000000000000000
#02915:23000000000000000013000000000000
#02910:41
#03018:13000000000000000013000000000000
#03015:0000130000130000
#0301b:00000000001300000000000013000000
#03012:00000000000000130000000000001300
#03112:0000130000130000
#0311b:00000000001300000000000013000000
#03115:00000000000000130000000000000000
#03118:13000000000000000013000000000000
#03218:00000013
#03215:0000000000000013
#03212:1414
#03216:00000014000000000000000000000000
#0321a:0000001400000000
#03415:00000000001300000000000013000000
#03418:00000000000000130000000000001300
#03412:13000000000000000013000000000000
#0341b:0000130000130000
#03512:1313
#03518:00130000
#03515:000000000000000000000000000000130000000000000000000000000000330033003300000000000000000000000000
#0351b:00000000000000130000000000000000
#03513:000000000000000000000000003300000000000000000000
#03514:000000000000003300000000
#04118:0000130000000013
#0411b:0000000000130000
#04112:23000023
#04115:0000002300000000
#04215:00130013
#04218:0000001300130000
#0421b:0023000000000023
#04212:0023
#04418:0000000000000013
#04416:0000001300000000
#04412:130000000000000000000000000000333333000000000000
#04413:003300000000000000000000003333000000000000000000
#04414:000033333333330000000000330000000000000000000000
#04414:0033000000000000
#04415:000000000000003333003333000000000000000000000000
#04515:00000013000000000000000000001300
#04518:00000000000013000000001300000000
#0451b:2313
#0451f:21
#04512:23
#05112:1400001400000000
#05116:00000014000000001400000000000000
#0601b:13
#06018:00130000
#06015:0013
#06012:00000013
#0611b:13
#06115:00000013000000000000000000000000
#06112:0000000000000000000000000000001300000000000000000000000000000000
#06110:41
#06718:12
#06712:00000012000000000000000000000000
#0671a:0000001200000000
#06714:00000000000000000012000000000000
#0671c:00000012
#00312:1313
#0031b:0000001300000000
#00315:00000000000000000000001300000000
#00318:0000000000000013
#02112:00130000
#02115:0013
#0211b:13
#02110:41
#0221b:00000000130000000000001300000000
#02218:0013
#02312:00130000
#02315:0000001300000000
#02318:0000000013000013
#0231b:00000013
#02415:1313
#02412:00000000130000000000001300000000
#02518:00130000
#0251b:0013
#02615:00000000130000000000001300000000
#02612:0013
#0281b:1313
#02815:0013000000000000
#02812:0000001300000000
#02818:00000013000000000000000023000000
#0331b:13000000000000000013000000000000
#03312:0000130000130000
#03318:00000000001300000000000013000000
#03315:00000000000000130000000000000000
#0381b:1300000000000013
#03812:0000001300000000
#0471b:1313
#04712:0000001300000000
#04715:0000000000000013
#04718:00000000000000000000001300000000
#04912:1414
#04916:00000014000000000000000000000000
#0491a:0000001400000000
#0501a:1414
#05016:00000014000000000000000000000000
#05012:0000001400000000
#0541b:1313
#05412:0000001300000000
#05415:0000000000000013
#05418:00000000000000000000001300000000
#05318:00000013000000000000000000001300
#05315:00000000000013000000001300000000
#05312:2313
#0531b:23
#05310:41
#05512:1313
#0551b:0000001300000000
#05518:0000000000000013
#05515:00000000000000000000001300000000
#0571a:1414
#05716:00000014000000000000000000000000
#05712:0000001400000000
#05812:1414
#05816:00000014000000000000000000000000
#0581a:0000001400000000
#0621b:13
#06218:00000013000000000000000013001300
#06215:0000001300000000
#06212:00000000000000000013000000000000
#06312:1414
#06316:00000014000000000000000000000000
#0631a:0000001400000000
#06318:00000013
#06315:0000000000000013
#06612:12
#06618:00000012000000000000000000000000
#06614:0000001200000000
#0661a:00000000000000000012000000000000
#06616:00000012
#06816:12
#0681c:00000012000000000000000000000000
#06814:0000001200000000
#0681a:00000000000000000012000000000000
#06812:00000012
#0041b:13
#00418:00130000
#00415:0013
#00412:00000013
#00612:1414
#00616:00000014000000000000000014000000
#0061a:0000001400000000
#00718:00000000000013000000000000130000
#00715:0000000013000013
#0071b:0000000000130000
#00712:00000000000000000000001300000000
#0081b:13
#00818:00130000
#00815:0013
#00812:00000013
#0091b:13
#00915:00000013000000000000000000000000
#00912:0000000000000000000000000000001300000000000000000000000000000000
#0101b:13
#01015:00130000
#01018:0013
#01012:00000013
#0111b:13130000
#01115:0013001300000000
#01118:00001313
#01112:0000000000130013
#01217:0000001300000000
#0121b:130000000000000000000000000000333333000000000000
#0121a:003300000000000000000000003333000000000000000000
#01219:000033333333330000000000330000000000000000000000
#01219:0033000000000000
#01218:000000000000003333003333000000000000000000000000
#01415:00000000130000000000001300000000
#01418:0000001300000013
#01412:0013
#0141b:2300000000130000
#01518:00000000130000000000001300000000
#01515:0000001300000013
#0151b:0013
#01512:2300000000130000
#0161a:1414
#01616:00000014000000000000000000000000
#01612:0000001400001400
#0181a:0000140000140000
#01816:0000001400000000
#01812:24000000000000001400001400000000
#01912:0000140000140000
#01916:0000001400000000
#0191a:24000000000000001400001400000000
#02012:13
#0201b:0013000000000000
#02015:00000013000000001300000000000000
#02018:0000001300000000
#02718:13000013000000000000000000000000
#02715:0013001300000000
#0271b:00000000000000001300001300000000
#02712:0000000000130013
#0361b:1313
#03618:00130013
#03915:00000013
#04018:1313
#0401b:00130000
#04312:13130000
#04318:0013001300000000
#04315:00001313
#0431b:0000000000130013
#04812:23
#04815:00230000
#04818:0023
#0481b:00000023
#0561b:23
#05618:00230000
#05615:0023
#05612:00000023
#0525a:64
#05252:0000000000330000
#0525b:00000043
#0025b:63
#02858:00000013
#0285b:0053
#06452:00530013
#06455:0053
#04652:63
#05152:6400006400000000
#05156:00000064000000006400000000000000
#06152:0000000000000000000000000000002300000000000000000000000000000000
#06155:00000053000000000000000000000000
#00352:53
#0055a:0014
#02152:00530000
#02155:0053
#0225b:00000000630000000000005300000000
#02258:0063
#02452:00000000530000000000006300000000
#02455:0053
#02558:00530000
#0255b:0053
#02655:00000000630000000000005300000000
#02652:0063
#03552:0063
#03852:0000005300000000
#0385b:5300000000000053
#0475b:53
#04952:0064
#0505a:0054
#0545b:53
#05552:63
#0575a:0054
#05852:0064
#00652:0014
#00955:00000053000000000000000000000000
#00952:0000000000000000000000000000002300000000000000000000000000000000
#0125b:53000013
#01257:0000002300000000
#0165a:0014
#0175a:00000000000000000000005400000000
#01852:00000000000000000000006400000000
#0195a:00000000000000000000005400000000
#02055:0053
#0365b:6353
#03658:00530053
#04058:5353
#0405b:00530000
#0425b:0013000000000013
#04252:0013
#04152:13000013
#04155:0000001300000000
#04456:0000002300000000
#04452:63
#07055:00006666
#07054:68680000
#06953:00006a6a
#06952:6c6c0000
#0023b0:13
#002380:00230000
#003320:13
#003350:00230000
#007320:13230000
#0073b1:13230000
#009351:00000013000000000000000023000000
#009321:0000000000000000000000000000005300000000000000000000000000000000
#0123b1:130000000000000000000000000000333333230000000000
#0123a1:003300000000000000000000003333000000000000000000
#012391:000033333333330000000000330000000000000000000000
#012381:000000000000003333003333000000000000000000000000
#012371:0000003300000000
#0173a1:00000000000000000000001400000000
#017361:0000000000000024
#018321:00000000000000000000001400000000
#018361:0000000000000024
#0193a1:00000000000000000000001400000000
#019361:0000000000000024
#020351:0013
#020321:00000023
#021321:00130000
#021351:0033
#022321:23
#0223b1:00000000130000000000003300000000
#022381:0033
#023381:23
#024321:00000000130000000000003300000000
#024351:0033
#025351:23
#025381:00130000
#0253b1:0033
#026381:23
#026351:00000000130000000000003300000000
#026321:0000000033000023
#0283b1:0013
#028381:00000023
#035321:0013
#035331:000000000000000000000000003300000000000000000000
#035341:000000000000003300000000
#035351:000000000000000000000000000000333333230000000000
#0363b1:1333
#036381:00330033
#0373b1:23
#0383b1:13
#038381:00230000
#038321:0000001300000000
#038351:0000000000230000
#0383b1:0000000000000013
#039381:0023
#040381:1333
#0403b1:00330023
#044321:130000000000000000000000000000333333230000000000
#044331:003300000000000000000000003333000000000000000000
#044341:000033333333330000000000330000000000000000000000
#044351:000000000000003333003333000000000000000000000000
#044361:0000003300000000
#046321:13
#046351:00230000
#0473b1:13
#047381:00230000
#049321:0014
#049361:00000024
#0503a1:0014
#050361:00000024
#051321:1400003400002400
#051361:00000034000000003400000000000000
#0523a1:14
#052361:0024
#0543b1:13
#054381:00230000
#055321:13
#055351:00230000
#0573a1:0014
#057361:00000024
#058321:0014
#058361:00000024
#059321:13230000
#0593b0:13230000
#061350:00000013000000000000000023000000
#061320:0000000000000000000000000000005300000000000000000000000000000000
#064320:00130023
#064350:0033
#069320:1c5c0000
#069360:000000000000000000000000000000000000000000000000000000000000000000000000000000000000000000000054000000000000000000000000000000000000000000000000000000000000000000000000000000000000000000000054000000000000000000000000000000000000000000000000000000000000000000000000000000000000000000000054000000000000000000000000000000000000000000000000000000000000000000000000000000000000000000000054
#069330:00005a5a
#070340:58580000
#070360:000000000000000000000000000000000000000000000000000000000000000000000000000000000000000000000054000000000000000000000000000000000000000000000000000000000000000000000000000000000000000000000054000000000000000000000000000000000000000000000000000000000000000000000000000000000000000000000054000000000000000000000000000000000000000000000000000000000000000000000000000000000000000000000000
#070350:00005656
#071360:24
