This file was generated by Ched 2.7.0.0.
#TITLE ""
#ARTIST ""
#DESIGNER ""
#DIFFICULTY 0
#PLAYLEVEL
#SONGID ""
#WAVE ""
#WAVEOFFSET 0
#JACKET ""
#REQUEST "ticks_per_beat 480"
#00002: 4
#BPM01: 128
#00008: 01
#TIL00: ""
#VOLUME: ""
#HISPEED 00
#MEASUREHS 00
#0371f:11
#03712:12000012000012000000000000000000
#0371b:00130013
#03714:0000000000121212
#04518:00001300000000000000001300000000
#04515:00000013000016000000130000001600
#04512:23131323
#0451b:23231313
#0451f:21
#04612:1300001300001300
#0461b:13001323
#04617:0013001300000000
#04616:00231300
#04618:0000000000130000
#04615:00000000000000000000001300001600
#04610:41
#0471b:1300001300001300
#04712:13001323
#04716:0013001300000000
#04717:00231300
#04715:0000000000130016
#04718:00000000000000000000001300000000
#0481b:13231323
#04817:0013000000130000
#04816:00132313
#04812:2300001300000000
#04912:13231324
#04918:13131300
#0491b:0013001300130000
#04915:00000013000013000000130000000000
#04916:00000000000000000000000000140000
#0491a:0000000000000014
#0501b:13231323
#05015:13131300
#05012:0013001300130013
#05018:00000013000013000000130000000000
#05017:0000000000000013
#05116:13000000001313000000000000001400
#05112:00001313000000001300000013000000
#0511b:1300001300001300
#05117:00000013000000000000000000000000
#05212:16000023
#05218:1600000000000013
#05216:0000000000141400
#05215:0000000000000013
#0521b:0000000000230000
#05315:00001300000016000000001300001600
#05318:00000013000000000000130000000000
#0531b:23131323
#05312:23231313
#05310:41
#0541b:1300001300001300
#05412:13001323
#05416:0013001300000000
#05417:00231300
#05415:0000000000130016
#05418:00000000000000000000001300000000
#05512:1300001300001300
#0551b:13001323
#05517:0013001300000000
#05516:00231300
#05518:0000000000130000
#05515:00000000000000000000001300001600
#05612:13231323
#05616:0013000000130000
#05617:00132313
#0561b:2300001300000000
#0571b:13231300
#05715:13131300
#05712:0013001300130014
#05718:00000013000013000000130000000000
#05716:00000000000000000000000000140000
#0571a:00000024
#05812:13231323
#05818:13131300
#0581b:0013001300130000
#05815:00000013000013000000130000001600
#05912:13000000000000001300000000191300
#0591b:1300001300130000
#05916:0000001300000000
#05917:0013
#05915:00000000000000000000001900000000
#06015:13000000000000160000001600001600
#06018:1300000000130000
#0601b:00001313
#06012:00000000000000000016000013000000
#0611b:13
#06117:00000013000000000000000000000000
#06115:1313
#06112:00130013
#06110:41
#06215:1300000013000016
#06212:00130016
#0621b:13000000000013000000000000000013
#06218:00000013000000000013000000130000
#06318:1313
#0631b:00130013
#06312:13000013000000001300000000001300
#06315:0000001300000000
#06316:00000013
#06317:0000000000000013
#06416:1313
#0641b:1313
#06417:00130000
#06412:00130000
#0651c:1200000000001212
#0651a:00000012000000000012000000000000
#06518:0000001200000000
#06513:00140014
#06514:00000012000000000000001200000000
#06612:1200000000001212
#06614:00000012000000000012000000000000
#06616:0000001200000000
#06619:00140014
#0661a:00000012000000000000001200000000
#06718:1200000000001212
#0671a:00000012000000000012000000000000
#0671c:0000001200000000
#06713:00140014
#06714:00000012000000000000001200000000
#06816:12000000000000120000000000000000
#06814:00000012000000000000001200001200
#0681c:0000121200000000
#0681a:0000000012120012
#06818:16000012
#06812:00000012
#06912:1c1c0000
#06913:00001a1a
#07014:18180000
#07015:0016
#07016:00000014
#0011b:13000000000000000000001300000000
#00117:00000013000000001300000000001300
#00116:13000000000013000000001300000000
#00112:00000013000000001300000000000000
#00012:0000000000000013
#0021b:1313
#00212:13000000000013000000001300000000
#00217:00000000000013000000001300000000
#00216:0000000013000013
#00315:13
#00318:13
#00312:0013
#00316:00000000000013000000001300000000
#00317:0000000013000013
#0031b:00000000000013000000001300000000
#0041b:1313
#00412:13130013
#00417:0013000000130000
#00416:0000001300000000
#0051b:1300001300000000
#00516:13000000000013000000000000140000
#00512:00000013000000000000000014000000
#00518:00000013000000001300000000000000
#0051a:0000000000000014
#0061b:00000013000000000000000013000000
#00612:1300001300001300
#00617:1300001300000000
#00615:00000013000000001300000000000000
#00712:0000130013000013
#0071b:00000000130000001300000000130000
#00716:0000001400000000
#00718:0000000000130000
#00715:00000000000000000000001300000000
#00814:13
#00819:13
#00812:00130013
#00816:0000001300000013
#0081b:0013
#00817:0000130000130000
#0091c:2212
#00916:0012002200220012
#00914:00120022
#00912:0000001200000022
#0091a:0022000000120000
#00918:00222212
#0101c:2212
#01016:0012002200220012
#01014:00120022
#01012:0000001200000022
#0101a:0022000000120000
#01018:12222212
#01116:12000000001200000000001200001200
#01112:00120000000000000000000000000012
#01118:00001200000000120012000012000000
#01114:00000012000000000000000000120000
#0111a:0000120000120000
#0111c:0000001212000000
#01215:1300003313000000
#01218:0033130000330000
#01212:00000013
#01216:003300000000000033000000003300000000000000140000
#01217:000033000000003300000000000033000000000000000000
#01219:003300003300
#0121a:000000000033000000000000000000000033000000000000
#01214:000000000033000000000000
#01213:000000000000000000000033000000000000000000000000
#01312:23000000130000000000131300000000
#01314:0000001300000000
#01316:0013
#01317:00000000130000000000131300000000
#01319:0000001300000000
#0131b:2300000013000013
#01310:41
#0141b:23000000130000000000131300000000
#01419:0000001300000000
#01417:0013
#01416:00000000130000000000131300000000
#01414:0000001300000000
#01412:2300000013000013
#01512:23000000130000000000131300000000
#01514:0000001300000000
#01516:0013
#01517:00000000130000000000131300000000
#01519:0000001300000000
#0151b:2300000013000013
#01612:1300001300001300
#01616:000000000000000000130000000000000000000000000000130000000000000000000000000000003300000033000000
#01617:1300001300000013
#0161b:00000013000000000000000000000000
#01618:00000013
#01614:000000000000000000000000000000000000003300000033
#01712:00130013
#01717:00130000
#01719:0000001300000000
#0171b:23001313
#01714:0000001300000000
#01716:0013
#01718:00000000000000000000001300000000
#01715:0000000000130016
#0181b:23130013
#01816:00130000
#01814:0000001300000000
#01812:23001313
#01819:0000001300000000
#01817:0013
#01815:00000000000000000000001300001600
#01818:0000000000130000
#01912:23130013
#01917:00130000
#01919:0000001300000000
#0191b:23001313
#01914:0000001300000000
#01916:0013
#01918:00000000000000000000001300000000
#01915:0000000000130016
#02012:13131300
#0201b:13131300
#02018:0013000000000000
#02015:00000013000016000000000013000000
#02017:0000000000130000
#0211c:1200000000001212
#0211a:00000012000000000012000000000000
#02118:0000001200000000
#02112:16
#02110:41
#02212:1200000000001212
#02214:00000012000000000012000000000000
#02216:0000001200000000
#02218:16
#02318:1200000000001212
#0231a:00000012000000000012000000000000
#0231c:0000001200000000
#02312:16
#02416:1200000000001212
#02414:00000012000000000012000000000000
#02412:0000001200000000
#02418:16
#0251c:2212
#02516:0012002200220000
#02514:00120022
#02512:0000001200000022
#0251a:0022000000120000
#02518:12222212
#02519:000000000000000000000012
#02515:000000000000000000000000000000000000000000000012
#02616:000000120000000000220000000000000000000000001200
#02614:000000000000120000000000000000000000000000000012
#02612:0000001200000022
#02617:00000000000000000012000000000000
#02619:00000012
#0261c:22
#0261a:0022000000000000
#02618:00220000
#0261b:0022
#02613:0000000000220000
#02615:00000022
#02716:12000000001200000000001200001200
#02712:00120000000000000000000000000012
#02718:00001200000000120012000012000000
#02714:00000012000000000000000000120000
#0271a:0000120000120000
#0271c:0000001212000000
#02815:1300003313000000
#02818:0033130000330000
#02812:00000023
#0281b:00000023
#02816:003300000000000033000000003300000000000000000000
#02817:000033000000003300000000000033000000000000000000
#02819:003300003300
#0281a:000000000033000000000000000000000033000000000000
#02814:000000000033000000000000
#02813:000000000000000000000033000000000000000000000000
#02912:26000000130000130000001613000000
#02918:00130000160000000000130000000000
#02915:00000000001300000016000000000000
#0291b:23000000000000130000000013000000
#02916:0000000000000013
#02919:000000000000000000000000000000000000003300000033
#02917:000000000000000000003333
#02910:41
#03012:13000000160000130000000013000000
#03015:00130000000000000000001600001300
#0301b:00000000130000130000130000001300
#03018:00000000001300000016000013000000
#03118:16000000001300000000000000001300
#03112:13000000160000130000000013000000
#0311b:00000000130000130000000000000013
#03115:00130000000000000013160000130000
#03212:1300001300000016
#0321b:00000013000000000000001300000000
#03218:00000000000000001300160000130013
#03215:00000016
#03318:16000000001300000000001600000000
#03312:13000000160000130000000013000000
#0331b:00000000130000130000000013000000
#03315:00130000000000000016130000000000
#03317:0000000000000013
#03314:000000000000000000000000000000000000003300000033
#03316:000000000000000000003333
#0341b:13000000000000130000000013000000
#03418:00130000160000000013000000001300
#03412:00000000130000130000000000001300
#03415:00000000001300000000160013000000
#03512:160000000000000000000000130000000000000000130000000000000000000034003400000000000000000000000000
#0351b:13000000000000130000000013000000
#03518:00130000160000000000000000130013
#03515:000000000000000000000000000000130000000000000000000034000000000000000000000000000000130000000000
#03516:0014
#03514:000000000000003400000000
#03513:0000000000340000
#03612:1313
#0361b:13130013
#03818:00130013
#03814:0000120000120012
#0391c:12000012000012000012000000000000
#03912:00130013
#03918:00000012
#04015:00130013
#0401c:1212
#04018:00120000
#04116:1400141400141414
#0411a:24000024
#04112:0000002400000000
#04216:0014141400141400
#0421a:0000000024000014
#04212:0024000014000024
#04316:12000000001200000000001200001200
#04312:00120000000000000000000000000012
#04318:00001200000000120012000012000000
#04314:00000012000000000000000000120000
#0431a:0000120000120000
#0431c:0000001212000000
#04415:1300003313001300
#04418:0033130000330013
#04416:003300000000000033000000003300000000000000000000
#04417:000033000000003300000000000033000000000000000000
#04419:003300003300
#0441a:000000000033000000000000000000000033000000000000
#04414:000000000033000000000000
#04413:000000000000000000000033000000000000000000000000
#04657:0023000000000000
#0465b:53
#04752:63
#04756:0023000000000000
#0485b:53135313
#04857:0023000000230000
#04856:00531300
#04852:1300002300000000
#04958:0063
#0495b:0000000000230000
#05055:0053
#05052:0000000000230000
#0515b:5300005300000000
#05157:00000053000000001300000000000000
#05152:0013
#05258:56
#05252:56000033
#0525b:0000000000430000
#05452:63
#05456:0023000000000000
#0555b:53
#05557:0023000000000000
#05652:63136313
#05656:0023000000230000
#05657:00631300
#0565b:1300002300000000
#05755:0053
#05752:0000000000230000
#05858:0063
#0585b:0000000000230000
#05952:53
#0595b:53
#05955:00130000
#05958:00130000
#06055:53
#06058:53
#06052:00130000
#0605b:00130000
#0615b:53
#06152:00130013
#06157:00000053000000000000000000000000
#06252:00130000
#0635b:00130013
#06457:00530013
#06452:00530013
#06456:0053
#0645b:0053
#06553:00540054
#06554:00000022000000000000002200000000
#06659:00640064
#0665a:00000022000000000000002200000000
#06753:00540054
#06754:00000022000000000000002200000000
#06858:56
#0015b:53
#00157:00000053000000000000000000000000
#00152:0063
#00156:00000000000000000000006300000000
#0025b:6353
#00252:53
#00257:00000000000000000000005300000000
#00355:53
#00358:63
#00352:0063
#00356:00000000000000000000006300000000
#0045b:5353
#00457:0023000000230000
#00452:00630000
#00456:0000002300000000
#00552:00000053000000001300000000000000
#00556:5300005300000000
#00758:13
#00755:13
#0065b:00000063000000001300000063000000
#00652:00000053
#00657:6300006300000000
#00852:00630063
#00856:0000002300000023
#0085b:0053
#00857:0000000000230000
#01255:5353
#01258:00630000
#0125b:00000013
#01252:00000013
#01352:00000000000000000000005300000000
#0145b:00000000000000000000006300000000
#01552:00000000000000000000005300000000
#0165b:00000053000000001300000000000000
#01657:5300005300000023
#01652:00000053
#01752:00130013
#0185b:00130013
#01952:00130013
#0205b:00135300
#02057:0000000000230000
#02152:56
#02258:66
#02352:56
#02458:66
#02855:5353
#02858:00630000
#02852:00000013
#0285b:00000013
#0295b:00000053
#02956:0000000000000023
#03155:0000000000160000
#03252:5300005300000000
#0325b:00000063000000000000000000000000
#03255:0013
#03258:0013
#03352:00000063
#03357:0000000000000023
#03455:0000000000160000
#03652:5353
#0365b:00630063
#0375b:00130013
#03858:00130013
#03952:00130013
#03958:00000052
#04055:00130013
#0405c:5252
#04058:00520000
#0415a:44000044
#04152:0000003400000000
#04156:5400005400000054
#04252:0034000000000034
#0425a:0044
#04455:5353
#04458:00630000
#03556:0054
#06952:6c6c0000
#06953:00006a6a
#07054:68680000
#07055:0066
#07056:00000064
#0013b0:1300002300000000
#001370:00000053000000000000000000000000
#001320:0000000013000023
#001360:00000000000000000000005300000000
#0023b0:13
#002380:00230000
#002321:13
#002351:00230000
#0023b1:0000000013000023
#002371:00000000000000000000005300000000
#003351:13
#003321:00230000
#003380:13
#0033b0:00230000
#003320:0000000013000023
#003360:00000000000000000000005300000000
#0043b0:13230000
#004370:0053000000000000
#004321:00132300
#004361:0000005300000000
#0043b0:00001323
#004370:0000000000530000
#005360:1300003300000000
#005320:00000033000000002300000000000000
#006370:1300003300000000
#0063b0:00000033000000002300000000000000
#0063b0:00000013
#007380:23
#006321:00000013
#007351:23
#008321:00132300
#008361:0000005300000000
#0083b0:00001323
#008370:0000000000530000
#008321:00000013
#008361:0000000000000053
#009321:23
#012351:13
#012361:003300000000000000000000000000000000000000000000
#012371:003300000000000000000000
#012381:0033000000000000
#012391:003300000000
#0123a1:000000000033000000000000000000000000000000000000
#0123b1:00230000
#012380:00130000
#012370:000000000000003300000000000000000000000000000000
#012360:003300
#012350:0000003300000000
#012340:000000000033000000000000
#012330:000000000000000000000033000000000000000000000000
#012320:0023
#012351:0013
#012361:000000000000000000000000003300000000000000000000
#012371:000000000000003300000000
#012381:0000000000330000
#012391:000033
#0123a1:000000000000000000000000000000000033000000000000
#0123b1:00000023
#013321:00000000000000000000001300000000
#013361:0000000000000023
#0143b1:00000000000000000000001300000000
#014371:0000000000000023
#015321:00000000000000000000001300000000
#015361:0000000000000023
#016371:1300003300000000
#0163b1:00000033000000002300000000000000
#016321:00000013
#016341:000000000000000000000000000000000000003300000033
#016361:000000000000000000003333
#016371:0000000000000033
#017321:23
#0203b1:00001323
#020371:0000000000530000
#021321:16
#021341:0000000000000022
#022381:16
#0223a1:0000000000000022
#023321:16
#023341:0000000000000022
#024381:16
#0243a1:0000000000000022
#028351:13
#028361:003300000000000000000000000000000000000000000000
#028371:003300000000000000000000
#028381:0033000000000000
#028391:003300000000
#0283a1:000000000033000000000000000000000000000000000000
#0283b1:00230000
#028380:00130000
#028370:000000000000003300000000000000000000000000000000
#028360:003300
#028350:0000003300000000
#028340:000000000033000000000000
#028330:000000000000000000000033000000000000000000000000
#028320:0023
#028351:0013
#028361:000000000000000000000000003300000000000000000000
#028371:000000000000003300000000
#028381:0000000000330000
#028391:000033
#0283a1:000000000000000000000000000000000033000000000000
#0283b1:00000023
#0293b1:00000013
#029391:000000000000000000000000000000000000003300000033
#029371:000000000000000000003333
#029361:0000000000000033
#0303b1:23
#032321:13
#032361:00000023000000000000000000000000
#0323b0:00000013000000000000000000000000
#032370:0000002300000000
#032321:0000001300000000
#032351:0023
#033321:00000013
#033341:000000000000000000000000000000000000003300000033
#033361:000000000000000000003333
#033371:0000000000000033
#034321:23
#035361:0014
#035351:000000000000000000000000003400000000000000000000
#035341:000000000000003400000000
#035331:0000000000340000
#035321:000000000000000000000000000000003434240000000000
#036321:13
#036361:00230000
#0363b0:00130000
#036370:0023
#036321:0013
#036371:00000023
#0363b0:00000013
#037360:23
#038360:12
#038340:0022000000000000
#038360:0000001200000000
#038340:0022
#039380:00000012
#0403c0:3232
#040380:00320022
#041360:14
#041320:00240000
#041360:0000001400000000
#0413a0:0000000000240000
#041360:0000000000000014
#042320:0024000000000000
#044350:13
#044360:003300000000000000000000000000000000000000000000
#044370:003300000000000000000000
#044380:0033000000000000
#044390:003300000000
#0443a0:000000000033000000000000000000000000000000000000
#0443b0:00230000
#044381:00130000
#044371:000000000000003300000000000000000000000000000000
#044361:003300
#044351:0000003300000000
#044341:000000000033000000000000
#044331:000000000000000000000033000000000000000000000000
#044321:0023
#044350:0013
#044360:000000000000000000000000003300000000000000000000
#044370:000000000000003300000000
#044380:0000000000330000
#044390:000033
#0443a0:000000000000000000000000000000000033000000000000
#0443b0:00000023
#0463b0:13230000
#046370:0053000000000000
#047320:13230000
#047360:0053000000000000
#0483b0:13230000
#048370:0053000000000000
#048361:00132300
#048321:0000005300000000
#0483b0:00001323
#048370:0000000000530000
#049380:00001323
#0493b0:0000000000530000
#050350:00001323
#050320:0000000000530000
#0513b0:1300005300000000
#051370:00000053000000002300000000000000
#052320:16
#052360:0022
#052381:1622
#054321:13230000
#054361:0053000000000000
#0553b1:13230000
#055371:0053000000000000
#056321:13230000
#056361:0053000000000000
#056370:00132300
#0563b0:0000005300000000
#056321:00001323
#056361:0000000000530000
#057351:00001323
#057321:0000000000530000
#058381:00001323
#0583b1:0000000000530000
#059321:13
#059351:00230000
#0593b0:13
#059380:00230000
#060350:13
#060320:00230000
#060381:13
#0603b1:00230000
#0613b1:1300000000000023
#061371:00000033000000000000000000000000
#064371:00130023
#0643b1:0033
#064320:00130023
#064360:0033
#065340:12000052005200000000005200522200
#065330:00340034
#0663a0:12000052005200000000005200522200
#066390:00340034
#067340:12000052005200000000005200522200
#067330:00340034
#068380:16
#0683c0:00000022000000000000000000000000
#069320:1c5c0000
#069370:000000000000000000000000000000000000000000000000000000000000000000000000000000000000000000000052000000000000000000000000000000000000000000000000000000000000000000000000000000000000000000000052000000000000000000000000000000000000000000000000000000000000000000000000000000000000000000000052000000000000000000000000000000000000000000000000000000000000000000000000000000000000000000000052
#069330:00005a5a
#070340:58580000
#070370:000000000000000000000000000000000000000000000000000000000000000000000000000000000000000000000052000000000000000000000000000000000000000000000000000000000000000000000000000000000000000000000052000000000000000000000000000000000000000000000000000000000000000000000000000000000000000000000052000000000000000000000000000000000000000000000000000000000000000000000000000000000000000000000000
#070350:0056
#070360:00000054
#071370:22
