This file was generated by Ched 2.7.0.0.
#TITLE ""
#ARTIST ""
#DESIGNER ""
#DIFFICULTY 0
#PLAYLEVEL
#SONGID ""
#WAVE ""
#WAVEOFFSET 0
#JACKET ""
#REQUEST "ticks_per_beat 480"
#00002: 4
#BPM01: 128
#00008: 01
#TIL00: ""
#VOLUME: ""
#HISPEED 00
#MEASUREHS 00
#0371f:11
#03714:14
#0521a:14
#05218:00000024
#0021a:14
#01712:00140000
#01718:0014
#0171a:24
#0461a:14
#04614:0014
#04618:00000014
#04610:41
#02118:1414
#0211a:00140000
#02110:41
#0491a:1414
#04914:00140000
#0041a:14
#00412:00140000
#00418:0014
#00414:00000014
#0081a:14
#00814:00140000
#00818:0014
#00812:00000014
#01218:000034343434343434143434340000000000000000000000
#0121a:140000000000000000000000000000343434000000000000
#01219:003400000000000000000000003434000000000000000000
#01612:14
#01614:0014
#0161a:00140000
#0361a:1414
#03618:00140000
#0011a:14
#00114:00140000
#00118:0014
#00112:00000014
#00312:14
#0051a:1414
#00514:00140014
#00618:1414
#00612:00140014
#0091a:14
#01012:14
#01118:1600160000160000
#01112:0016000016001600
#01318:00140000
#01314:0014
#0131a:00000014
#01312:24
#01310:41
#0141a:14
#01414:00140000
#01418:0014
#01412:00000014
#01512:14
#01518:00140000
#01514:0014
#0151a:00000014
#0181a:00140000
#01814:0014
#01812:14
#01914:00140000
#0191a:0014
#01918:14
#02018:00140000
#02012:0014
#02014:14
#02214:1414
#02212:00140000
#0231a:14
#02412:14
#02518:1414
#0251a:00140000
#02614:1414
#02612:00140000
#02712:1414
#0271a:1414
#02818:14000024
#02814:00140000
#0291a:00140000
#02912:2414
#02910:41
#0301a:1414
#03012:00140000
#03114:1414
#03118:00140000
#0321a:14
#03212:0014
#03418:0014
#03412:14
#03414:00140000
#0331a:14
#03318:00140000
#03314:0014
#0351a:14
#03518:00140000
#03514:0014
#03818:14
#03912:14
#0401a:14
#0421a:0000000000000014
#04218:0026000000000000
#04212:0026
#04414:000034343434343434143434340000000000000000000000
#04412:140000000000000000000000000000343434000000000000
#04413:003400000000000000000000003434000000000000000000
#04514:00140000
#04518:0014
#04512:00000014
#0451f:21
#0451a:24
#04712:14
#04718:0014
#04714:00000014
#05012:1414
#05018:00140000
#0511a:14
#05112:0014
#05412:14
#05418:0014
#05414:00000014
#05712:1414
#05718:00140000
#05318:00140000
#05314:0014
#0531a:00000014
#05312:24
#05310:41
#0551a:14
#05514:0014
#05518:00000014
#0581a:1414
#05814:00140000
#06012:14
#06018:00140000
#06014:0014
#0601a:00000014
#06112:1414
#06118:00140014
#06110:41
#06214:1414
#0621a:00140014
#06312:1414
#0631a:00140014
#06414:1414
#06418:00140014
#06512:14
#0661a:14
#06712:14
#0681a:14
#04112:26000026
#04118:0000002600000000
#0481a:24
#04812:00240000
#04818:0024
#04814:00000024
#05612:24
#0561a:00240000
#05614:0024
#05618:00000024
#0525a:64
#05258:00000014
#0025a:64
#02858:00000014
#0465a:54
#02158:5454
#0215a:00540000
#0495a:0054
#0125a:54000014
#01258:0000002400000000
#01654:0014
#01758:0054
#0365a:6454
#03658:00540000
#04252:0016
#04258:0016000000000000
#0425a:0000000000000054
#04152:16000016
#04158:0000001600000000
#00352:54
#0095a:54
#01052:64
#01854:0064
#0195a:0054
#02052:0064
#02254:6464
#02252:00640000
#0235a:54
#02452:64
#02558:5454
#0255a:00540000
#02654:6464
#02652:00640000
#02952:0054
#0305a:0064
#03154:0054
#0325a:54
#03252:0064
#03458:0064
#03354:0054
#03554:0054
#03754:54
#03858:64
#03952:64
#0405a:54
#04454:0000002400000000
#04452:64
#04752:64
#05052:0064
#0515a:54
#05152:0064
#05452:64
#05752:0064
#0555a:54
#0585a:0054
#06552:54
#0665a:64
#06752:54
#0685a:64
#0023a0:14
#002380:0024
#003320:14
#003340:0024
#0073a0:14240000
#007320:00001424
#0093a0:14
#009380:00000024
#010320:14
#010340:00000024
#0123a0:140000000000000000000000000000343434240000000000
#012390:003400000000000000000000003434000000000000000000
#012380:000034343434343434343434340000000000000000000000
#017380:0014
#0173a0:00000024
#018340:0014
#018320:00000024
#0193a0:0014
#019380:00000024
#020320:0014
#020340:00000024
#021380:1434
#0213a0:00340024
#022340:1434
#022320:00340024
#0233a0:14
#023380:0024
#024320:14
#024340:0024
#025380:1434
#0253a0:00340024
#026340:1434
#026320:00340024
#028380:00001424
#029320:0014
#029340:00000024
#0303a0:0014
#030380:00000024
#031340:0014
#031320:00000024
#0323a0:14
#032380:00240000
#032320:0014
#032340:00000024
#033340:0014
#033320:00000024
#034380:0014
#0343a0:00000024
#035340:0014
#035320:00000024
#0363a0:1434
#036380:00340024
#037340:14
#037320:0024
#038380:14
#0383a0:0024
#039320:14
#039340:0024
#0403a0:14
#040380:0024
#0423a0:0000000000000014
#043380:00000024
#044320:140000000000000000000000000000343434240000000000
#044330:003400000000000000000000003434000000000000000000
#044340:000034343434343434343434340000000000000000000000
#0463a0:14
#046380:00240000
#047320:14
#047340:00240000
#0493a0:0014
#049380:00000024
#050320:0014
#050340:00000024
#0513a0:14
#051380:00240000
#051320:0014
#051340:00000024
#0523a0:14
#052380:00000024
#054320:14
#054340:00240000
#0553a0:14
#055380:00240000
#057320:0014
#057340:00000024
#0583a0:0014
#058380:00000024
#059320:14240000
#0593a0:00001424
#065320:14
#065340:00000024
#0663a0:14
#066380:00000024
#067320:14
#067340:00000024
#0683a0:14
#068380:00000024
#069340:14
#071340:24
