This file was generated by Ched 2.7.0.0.
#TITLE ""
#ARTIST ""
#DESIGNER ""
#DIFFICULTY 0
#PLAYLEVEL
#SONGID ""
#WAVE ""
#WAVEOFFSET 0
#JACKET ""
#REQUEST "ticks_per_beat 480"
#00002: 4
#BPM01: 145
#00008: 01
#TIL00: ""
#VOLUME: ""
#HISPEED 00
#MEASUREHS 00
#0601f:11
#0001a:14
#00218:14
#00414:14
#00612:14
#00818:14
#00918:14
#01014:14
#0121a:14
#0131a:14
#01412:14
#01512:14
#01114:14
#01618:14
#01610:41
#01714:14
#0181a:14
#01912:14
#02018:14
#02114:14
#0221a:14
#02312:14
#04312:16
#04318:0016
#0491a:14
#05012:14
#05118:14
#05214:14
#0531a:14
#05412:14
#05518:14
#06412:14
#06514:14
#06618:14
#0671a:14
#06818:0016
#0681f:21
#06812:26
#06912:1616
#07018:16
#07012:0016
#07118:1616
#07212:16
#07218:0016
#07210:41
#07312:1616
#07418:16
#07412:0016
#07518:1616
#07612:16
#07618:0016
#07712:1616
#07818:16
#07812:0016
#07918:1616
#08012:14
#08118:14
#08214:14
#0831a:14
#08412:14
#08518:14
#08614:14
#0321a:14
#03210:41
#03314:14
#03418:14
#03512:14
#04718:26
#04712:0026
#0361a:24
#03712:24
#0381a:24
#03912:24
#02410:41
#04010:41
#05610:41
#024380:14
#025380:24
#026340:14
#027340:24
#0283a0:14
#0293a0:24
#030320:14
#031320:24
#040380:16000026
#041320:16000026
#042380:16000026
#044320:16000026
#045380:16000026
#046320:16000026
#056340:14
#057340:24
#058380:14
#059380:24
#060320:14
#061320:24
#0623a0:14
#0633a0:24
#0873a0:14000024
