This file was generated by Ched 2.7.0.0.
#TITLE ""
#ARTIST ""
#DESIGNER ""
#DIFFICULTY 0
#PLAYLEVEL
#SONGID ""
#WAVE ""
#WAVEOFFSET 0
#JACKET ""
#REQUEST "ticks_per_beat 480"
#00002: 4
#BPM01: 145
#00008: 01
#TIL00: ""
#VOLUME: ""
#HISPEED 00
#MEASUREHS 00
#0601f:11
#06016:13000000000000000000001300001300
#06019:00000013000000000000000000000000
#06017:0000001313000000
#0601b:13000000000000000000001300001300
#04018:00000013
#04015:00130013001300130013001300000000
#0401b:1313131313130000
#04010:41
#04412:13131313
#0441b:00130000001300000013000000000000
#04415:0013001300130000
#04418:00000013000000130000001300000000
#04315:130013
#04312:001300
#0431b:0013
#04318:000013000000000000230000
#0471b:132300230000
#04712:232323
#04818:00000012
#0481a:0012
#0501a:0012
#05018:00000012
#05014:00120000
#05012:12
#05114:12
#05116:0012
#0511a:00120000
#05118:00000012
#05212:12
#05214:00120000
#05218:0012
#0521a:00000012
#05316:12
#05314:00120000
#0531c:0012
#0531a:00000012
#05416:12
#05414:0012
#0551c:12
#05512:00120000
#05514:0012
#05518:00000012
#05612:13000000000000000000001300001300
#05619:00000013000000000000000000000000
#0561b:0000001313000000
#05617:00000000000000000000001300001300
#05610:41
#04916:00120000
#04914:12
#0491a:00000012
#0491c:0012
#0571b:13000000000000000000001300001300
#05714:00000013000000000000000000000000
#05712:0000001313000000
#05716:13000000000000000000001300001300
#06117:13000000000000000000001300001300
#06114:00000013000000000000000000000000
#06116:0000001313000000
#06112:13000000000000000000001300001300
#06216:13000000000000000000001300001300
#06219:00000013000000000000000000000000
#06217:0000001313000000
#0621b:13000000000000000000001300001300
#06313:1313131313131313
#06314:00130000001300000013000000130000
#06312:00000013000000130000001300000013
#06318:13
#0641b:1300001300001300
#06418:0013000013000000
#06413:1313131313131313
#06414:00130000001300000013000000130000
#06412:00000013000000130000001300000013
#06518:13130000
#0651b:00001300000000001300000000000013
#06513:1313131313130000
#06514:00130000001300000013000000000000
#06512:00000013000000130000001300000000
#0651a:0000000000001313
#06519:00000000000000000000000000130000
#0661a:1313131313131313
#06619:00130000001300000013000000130000
#0661b:00000013000000130000001300000013
#06612:1300001300001300
#06615:0013000013000000
#0671a:1313131313132300
#06719:00130000001300000013000000000000
#0671b:00000013000000130000001300000000
#06715:13130000
#06712:0013000013000000
#06713:00000023
#06814:0013000000000000
#06819:0013000000000000
#0681b:2300001300000000
#06816:2300001300001300
#06812:00131300
#06817:00131300
#0681f:21
#0691b:00130000
#06918:13000023
#06915:0013000000000000
#06912:00131300
#07915:000000130013000000230000
#07918:001300
#07912:1313
#0791b:0013000013000000
#0081a:0000001200000000
#00818:0012
#00816:0000000000120000
#00814:00000012
#01014:0012
#00916:00120000
#00918:0000001200000000
#00914:00000012
#0091c:1200000000000012
#01214:0000001200000000
#01216:0012
#01218:0000000000120000
#0121a:00000012
#0141a:0012
#01318:00120012
#01316:0000001200000000
#01312:1200000000000012
#01512:00000012
#01518:1200000000000012
#01616:12
#0161c:0012000012000000
#01614:0000120000120000
#0161a:00000012
#01610:41
#01716:12
#01718:00120000
#0171c:12
#01712:0012
#01818:1200000000000012
#01816:0012000000001200
#0181c:00120000
#01814:0012
#02019:0000000000120000
#02017:00000012
#02015:0000000000000012
#02018:12
#02012:0012000012000000
#0201a:00120000
#0211a:12
#02114:00120000
#0211c:0012
#02116:00000012
#02118:0000000000000012
#02112:12
#02212:12
#0221c:0012000000000000
#02214:00121200
#0221a:0000001200001200
#02316:12
#02318:00120000
#02314:00000012
#02312:0012
#0321b:13
#03218:0013
#03215:00000013000013000000001300001300
#03212:0013
#03214:23
#03210:41
#03415:00000013000013000000001300001300
#03412:2313
#03418:13
#0341b:0013
#03618:00000000130000000000001300000000
#03615:23000013000000000000000013000000
#03612:0000001313000000
#0361b:1300000023000013
#0371b:1300000023000013
#03718:00000000130000000000001300000000
#03712:2300001313000000
#03715:00000013000000000000000013000000
#03817:1300001300000000
#03815:000000000000001300130000
#03818:000013
#03816:00000013000000000000000000000000
#03812:2300002300000000
#0381a:0023
#0381b:00000023000000000000000000000000
#0041a:00120000
#0041c:12
#00414:00000012
#00416:0012
#0051a:00120000
#00518:12
#00514:00000012
#00512:0012
#00618:00120000
#0061a:12
#00612:00000012
#00614:0012
#0071c:00120000
#0071a:12
#00716:00000012
#00714:0012
#0001a:000000000000000000000000000000000012001200000000000000000000001200120000000000000000000000000000
#00019:000000000000000000141400000000001414000000000000
#00114:000000000000001200120012000000000000000000000012001200000000000000120000000000000012001200120000
#00113:000000001414140000000000141400000014000000141414
#0021a:000000000000000000000000000000000012001200000012000000000000000000000012000000000000000000000000
#00219:000000000000000000141400140000000000140000000000
#00314:000000000000000000000000000012000012001200120012000000000000000012000000000000000012000000000000
#00313:000000000000000000000000000000140000140014001400140000000000000000140000000000000000140000000000
#02419:00000000000000001313131300000000
#02418:0000000000000000000000000000000000130000001300000000000000000000
#0241a:0000000000000000000000000000000000000013000000130000000000000000
#02413:00000000000000000000000013131313
#02412:0000000000000000000000000000000000000000000000000013000000130000
#02414:0000000000000000000000000000000000000000000000000000001300000013
#02410:41
#02513:13131313131313131300130013001300
#02512:0013000000130000001300000013000000001300000000000000130000000000
#02514:0000001300000013000000130000001300000000000013000000000000001300
#0261a:13001300130013001313131300000000
#02619:0000130000000000000013000000000000130000001300000000000000000000
#0261b:0000000000001300000000000000130000000013000000130000000000000000
#02614:00000000000000000000000013131313
#02613:0000000000000000000000000000000000000000000000000013000000130000
#02615:0000000000000000000000000000000000000000000000000000001300000013
#02714:13131313131313131300130013001300
#02713:0013000000130000001300000013000000001300000000000000130000000000
#02715:0000001300000013000000130000001300000000000013000000000000001300
#02819:13001300130013001313131300000000
#02818:0000130000000000000013000000000000130000001300000000000000000000
#0281a:0000000000001300000000000000130000000013000000130000000000000000
#02813:0000000000001313
#02812:00000000000000000000000000130000
#02814:00000000000000000000000000000013
#02913:130000000000130000000000130000000000130000000000130000001300000013000000130000130000130000130000
#02912:000000000000130000000000000000000000000000000000000000000000130000000000000000000000000000000000000000001300000000000000000000000000000013000000000000000000000000130000000000000000000000130000
#02914:0000000000001300000000000000130000000000130000000013000000130000
#0301b:0000001300000013000000130000001300000000130000000000000000000000
#0301a:130000130000130000130000130000130000130000130000130000001300000013000000000000000000000000000000
#03019:000000130000000000000000000000130000000000000000000000130000000000000000000000130000000000000000000000001300000000000000000000000000000013000000000000000000000000000000000000000000000000000000
#03014:00000000000000000000000013131313
#03013:0000000000000000000000000000000000000000000000000013000000130000
#03015:0000000000000000000000000000000000000000000000000000001300000013
#03114:13131313131313131300130013001300
#03113:0013000000130000001300000013000000001300000000000000130000000000
#03115:0000001300000013000000130000001300000000000013000000000000001300
#01914:0012
#01912:12
#0191a:00120000
#0191c:00000012
#01916:0000000000000012
#03318:00000013000013000000001300001300
#0331b:2313
#03312:13
#03315:0013
#03518:23000013000013000000001300001300
#0351b:0013
#03515:13
#03512:0013
#04112:1313131313130000
#04115:00000013
#04118:00130013001300130013001300000000
#04218:1313131313130000
#0421b:00000013
#04215:00130013001300130013001300000000
#0451b:13131313
#04512:00130000001300000013000000000000
#04518:0013001300130000
#04515:00000013000000130000001300000000
#04612:13131313
#0461b:00130000001300000013000000000000
#04615:0013001300130000
#04618:00000013000000130000001300000000
#05812:13000000000000000000001300001300
#05819:00000013000000000000000000000000
#0581b:0000001313000000
#05817:13000000000000000000001300001300
#0591b:13000000000000000000001300000000
#05914:00000013000000000000000000000000
#05912:0000001313000013
#05916:13000000000000000000001300000000
#05917:0000000000000013
#07012:1300001300000000
#07017:1300001300001300
#07019:0013000000000000
#07014:0013000000000000
#0701b:00131300
#07016:00131300
#07112:00130000
#07115:13000023
#07118:0013000000000000
#0711b:00131300
#0721b:1300001300000000
#07216:1300001300001300
#07214:0013000000000000
#07219:0013000000000000
#07212:00131300
#07217:00131300
#07210:41
#0731b:00130000
#07318:13000023
#07315:0013000000000000
#07312:00131300
#07412:1300001300000000
#07417:1300001300001300
#07419:0013000000000000
#07414:0013000000000000
#0741b:00131300
#07416:00131300
#07512:00130000
#07515:13000023
#07518:0013000000000000
#0751b:00131300
#0761b:1300001300000000
#07616:1300001300001300
#07614:0013000000000000
#07619:0013000000000000
#07612:00131300
#07617:00131300
#0771b:00130000
#07718:13000023
#07715:0013000000000000
#07712:00131300
#07812:1300001300000000
#07817:1300001300001300
#07819:0013000000000000
#07814:0013000000000000
#0781b:00131300
#07816:00131300
#08116:0012
#08112:12
#08114:00120000
#08012:12
#08014:00120012
#08016:0012
#08318:0012
#0831c:12
#0831a:00120000
#0821c:12
#0821a:00120012
#08218:0012
#08512:0012
#08516:12
#08514:00120000
#08416:12
#08414:00120012
#08412:0012
#0871c:0012
#08718:12
#0871a:00120000
#0871b:00000023
#08712:00000023
#08618:12
#0861a:00120012
#0861c:0012
#01112:00000000000000002300002300000000
#0111b:00000000000000002300002300000000
#03912:00230000
#0391b:23
#04058:00000013
#04452:00000013
#04355:130013
#04352:001300
#0435b:0013
#04358:000013000000000000130000
#04858:00000022
#0485a:0052
#0505a:0052
#05058:00000022
#05054:00220000
#05052:62
#05154:52
#05156:0062
#0515a:00620000
#05158:00000052
#05252:52
#05254:00220000
#05258:0052
#0525a:00000022
#05356:62
#05354:00220000
#0535c:0062
#0535a:00000022
#05456:62
#05454:0022
#0555c:62
#05552:00520000
#05554:0022
#05558:00000052
#05652:53
#0565b:0013
#05656:0013
#04956:00220000
#04954:62
#0495a:00000022
#0495c:0052
#0575b:63
#05752:0013
#05757:0013
#06056:63
#06057:0013
#06052:0013
#06157:53
#06156:0013
#0615b:0013
#06256:63
#06257:0013
#06252:0013
#06353:5353535353535353
#06354:00230000002300000023000000230000
#06352:00000023000000230000002300000023
#06453:5353535353535353
#06454:00230000002300000023000000230000
#06452:00000023000000230000002300000023
#06553:5353535353530000
#06554:00230000002300000023000000000000
#06552:00000023000000230000002300000000
#0655a:0000000000006363
#06559:00000000000000000000000000230000
#0655b:00000000000000000000000000000023
#0665a:6363636363636363
#06659:00230000002300000023000000230000
#0665b:00000023000000230000002300000023
#0675a:6363636363631300
#06759:00230000002300000023000000000000
#0675b:00000023000000230000002300000000
#06753:00000013
#0695b:00530000
#06952:0053
#06958:00000013
#06955:00000013
#07952:0053
#0795b:0063
#07955:00000013
#07958:00000013
#00854:00000052
#00958:0000005200000000
#0095c:5200000000000052
#0125a:00000062
#01356:0000006200000000
#01352:6200000000000062
#01654:00520000
#01756:52
#01758:00620000
#0185c:00520000
#0215a:52
#02154:00620000
#02254:0062
#0225a:00000052
#02356:52
#02358:00620000
#0325b:53
#03258:0023
#03254:13
#03658:00230000
#03652:0063
#03655:13000023
#0365b:6313
#0375b:5313
#03758:00230000
#03752:1363
#03755:00000023
#0045a:00220000
#0045c:52
#00454:00000022
#00456:0052
#0055a:00220000
#00558:62
#00554:00000022
#00552:0062
#00658:00220000
#0065a:52
#00652:00000022
#00654:0052
#0075c:00220000
#0075a:62
#00756:00000022
#00754:0062
#0005a:000000000000000000000000000000000022002200000000000000000000002200220000000000000000000000000000
#00059:000000000000000000545400000000005454000000000000
#00154:000000000000002200220022000000000000000000000022002200000000000000220000000000000022002200220000
#00153:000000006464640000000000646400000064000000646464
#0025a:000000000000000000000000000000000022002200000022000000000000000000000022000000000000000000000000
#00259:000000000000000000545400540000000000540000000000
#00354:000000000000000000000000000022000022002200220022000000000000000022000000000000000022000000000000
#00353:000000000000000000000000000000640000640064006400640000000000000000640000000000000000640000000000
#02459:00000000000000005353535300000000
#02458:0000000000000000000000000000000000230000002300000000000000000000
#0245a:0000000000000000000000000000000000000023000000230000000000000000
#02453:00000000000000000000000053535353
#02452:0000000000000000000000000000000000000000000000000023000000230000
#02454:0000000000000000000000000000000000000000000000000000002300000023
#02553:53535353535353535300530053005300
#02552:0023000000230000002300000023000000002300000000000000230000000000
#02554:0000002300000023000000230000002300000000000023000000000000002300
#0265a:53005300530053005353535300000000
#02659:0000230000000000000023000000000000230000002300000000000000000000
#0265b:0000000000002300000000000000230000000023000000230000000000000000
#02654:00000000000000000000000053535353
#02653:0000000000000000000000000000000000000000000000000023000000230000
#02655:0000000000000000000000000000000000000000000000000000002300000023
#02754:53535353535353535300530053005300
#02753:0023000000230000002300000023000000002300000000000000230000000000
#02755:0000002300000023000000230000002300000000000023000000000000002300
#02859:53005300530053005353535300000000
#02858:0000230000000000000023000000000000230000002300000000000000000000
#0285a:0000000000002300000000000000230000000023000000230000000000000000
#02853:0000000000005353
#02852:00000000000000000000000000230000
#02854:00000000000000000000000000000023
#02953:530000000000530000000000530000000000530000000000630000006300000063000000630000630000630000630000
#02952:000000000000230000000000000000000000000000000000000000000000230000000000000000000000000000000000000000002300000000000000000000000000000023000000000000000000000000230000000000000000000000230000
#02954:0000000000002300000000000000230000000000230000000023000000230000
#0305b:0000002300000023000000230000002300000000230000000000000000000000
#0305a:530000530000530000530000530000530000530000530000530000005300000053000000000000000000000000000000
#03059:000000230000000000000000000000230000000000000000000000230000000000000000000000230000000000000000000000002300000000000000000000000000000023000000000000000000000000000000000000000000000000000000
#03054:00000000000000000000000053535353
#03053:0000000000000000000000000000000000000000000000000023000000230000
#03055:0000000000000000000000000000000000000000000000000000002300000023
#03154:53535353535353535300530053005300
#03153:0023000000230000002300000023000000002300000000000000230000000000
#03155:0000002300000023000000230000002300000000000023000000000000002300
#01558:52
#01952:62
#0205a:00620000
#03458:63
#0345b:0023
#03452:13
#03352:63
#03355:0023
#0335b:13
#03555:53
#03552:0023
#03558:13
#04155:00000013
#0425b:00000013
#0455b:00000013
#04652:00000013
#05852:53
#0585b:0013
#05856:0013
#0595b:63
#05952:0013
#05957:0013
#06857:0063
#06856:00000053
#07152:00630000
#0715b:0063
#07155:00000013
#07158:00000013
#07056:0053
#07057:00000063
#0735b:00530000
#07352:0053
#07358:00000013
#07355:00000013
#07257:0063
#07256:00000053
#07552:00630000
#0755b:0063
#07555:00000013
#07558:00000013
#07456:0053
#07457:00000063
#0775b:00530000
#07752:0053
#07758:00000013
#07755:00000013
#07657:0063
#07656:00000053
#07856:0053
#07857:00000063
#08156:0012
#0815c:0012
#08358:0012
#08352:0012
#08552:0012
#0855a:0012
#0875c:0012
#08754:0012
#03952:00530000
#0395b:53
#03852:1300001300000000
#0385b:00000013000000000000000000000000
#04758:00000013
#04755:00000013
#0003a0:120000000000000000000000000000000052005200520000000000000000005200520052000000000000000000000000
#000390:000000000000000000343400000000003434000000000000
#0013a0:22
#001341:120000000000005200520052005200000000000000000052005200520000000000520052000000000052005200520052
#001331:000000003434340000000000343400000034000000343434
#002341:22
#0023a0:120000000000000000000000000000000052005200520052005200000000000000000052005200000000000000000000
#002390:000000000000000000343400340000000000340000000000
#0033a0:22
#003341:120000000000000000000000000052005252005200520052005200000000000052005200000000000052005200000000
#003331:000000000000000000000000000000340000340034003400340000000000000000340000000000000000340000000000
#004341:22
#0043c0:1222
#0043a0:00520000
#004361:0012
#004341:00000052
#005361:22
#005380:1222
#0053a0:00520000
#005321:0012
#005341:00000052
#006321:22
#0063a0:1222
#006380:00520000
#006341:0012
#006321:00000052
#007341:22
#0073a0:1222
#0073c0:00520000
#007341:0012
#007361:00000052
#008341:22
#008341:00000012
#009321:22
#0093c0:12
#0093a0:00220000
#009380:0000001200000000
#0093a0:0000000000220000
#0093c0:0000000000000012
#011380:22
#0123a0:00000012
#0133c0:22
#013321:12
#013341:00220000
#013361:0000001200000000
#013341:0000000000220000
#013321:0000000000000012
#015341:22
#015380:12
#0153a0:0022
#016340:00120000
#016320:0022
#017360:12
#017340:00220000
#017381:00120000
#0173a1:0022
#0183c1:00120000
#0183a1:0022
#019321:12
#019341:00220000
#0203a1:00120000
#0203c1:0022
#0213a1:12
#021381:00220000
#021340:00120000
#021360:0022
#022340:0012
#022360:00000022
#0223a1:00000012
#023381:22
#023360:12
#023340:00220000
#023381:00120000
#0233a1:00000022
#024391:13000000000000005353535323000000
#024381:0000000000000000000000000000000000530000005300000000000000000000
#0243a1:0000000000000000000000000000000000000053000000530000000000000000
#024330:00000000000000000000000013535353
#024320:0000000000000000000000000000000000000000000000000053000000530000
#024340:0000000000000000000000000000000000000000000000000000005300000053
#025330:53535353535353535300530053005300
#025320:0053000000530000005300000053000000005300000000000000530000000000
#025340:0000005300000053000000530000005300000000000053000000000000005300
#026330:23
#0263a1:13005300530053005353535323000000
#026391:0000530000000000000053000000000000530000005300000000000000000000
#0263b1:0000000000005300000000000000530000000053000000530000000000000000
#026340:00000000000000000000000013535353
#026330:0000000000000000000000000000000000000000000000000053000000530000
#026350:0000000000000000000000000000000000000000000000000000005300000053
#027340:53535353535353535300530053005300
#027330:0053000000530000005300000053000000005300000000000000530000000000
#027350:0000005300000053000000530000005300000000000053000000000000005300
#028340:23
#028391:13005300530053005353535323000000
#028381:0000530000000000000053000000000000530000005300000000000000000000
#0283a1:0000000000005300000000000000530000000053000000530000000000000000
#028330:0000000000001353
#028320:00000000000000000000000000530000
#028340:00000000000000000000000000000053
#029330:530000000000530000000000530000000000530000000000530000005300000053000000530000530000530000530000
#029320:000000000000530000000000000000000000000000000000000000000000530000000000000000000000000000000000000000005300000000000000000000000000000053000000000000000000000000530000000000000000000000530000
#029340:0000000000005300000000000000530000000000530000000053000000530000
#030330:23
#0303a1:130000530000530000530000530000530000530000530000530000005300000053000000230000000000000000000000
#030391:000000530000000000000000000000530000000000000000000000530000000000000000000000530000000000000000000000005300000000000000000000000000000053000000000000000000000000000000000000000000000000000000
#0303b1:0000005300000053000000530000005300000000530000000000000000000000
#030340:00000000000000000000000013535353
#030330:0000000000000000000000000000000000000000000000000053000000530000
#030350:0000000000000000000000000000000000000000000000000000005300000053
#031340:53535353535353535300530053005300
#031330:0053000000530000005300000053000000005300000000000000530000000000
#031350:0000005300000053000000530000005300000000000053000000000000005300
#032340:23
#0323b1:13
#032381:0033
#0333b1:23
#033320:13
#033350:0033
#034320:23
#034381:13
#0343b1:0033
#035381:23
#035350:13
#035320:0033
#036350:23
#0363b1:1323
#036381:00530000
#036320:0013
#036350:00000053
#037320:23
#0373b1:1323
#037381:00530000
#037320:0013
#037350:00000053
#038320:23
#0393b0:13
#039380:00000023
#039321:00130000
#039351:00000023
#047321:13
#047351:005323000000000000000000
#0473b0:001300000000
#047380:000000532300000000000000
#047321:001300
#047351:000000000053230000000000
#0473b0:0013
#047380:000000000000005300230000
#047321:000013
#047351:00000023
#0483a1:0012
#048381:00000052
#0493a1:22
#049340:1222
#049360:00520000
#0493c1:0012
#0493a1:00000052
#0503c1:22
#050320:1222
#050340:00520000
#0503a1:0012
#050381:00000052
#0513a1:22
#051340:12
#051360:00220000
#0513a1:00120000
#051381:0022
#051360:0012
#051340:00000022
#051381:00000012
#0523a1:22
#052320:1222
#052340:00520000
#052381:0012
#0523a1:00000052
#053381:22
#053360:1222
#053340:00520000
#0533c1:0012
#0533a1:00000052
#0543c1:22
#054360:12
#054340:0052
#055360:22
#0553c1:12
#0553a1:00220000
#055320:00120022
#055340:0052
#055381:00000012
#0563a1:22
#056320:13
#056360:0023
#0573b0:13
#057370:0023
#058320:13
#058360:0023
#0593b0:13
#059370:0023
#060360:13
#060320:0023
#061370:13
#0613b0:0023
#062360:13
#062320:0023
#063330:1353535353535353
#063340:00530000005300000053000000530000
#063320:00000053000000530000005300000053
#064330:5353535353535353
#064340:00530000005300000053000000530000
#064320:00000053000000530000005300000053
#065330:5353535353532300
#065340:00530000005300000053000000000000
#065320:00000053000000530000005300000000
#0653a1:0000000000001353
#065391:00000000000000000000000000530000
#0653b1:00000000000000000000000000000053
#0663a1:5353535353535353
#066391:00530000005300000053000000530000
#0663b1:00000053000000530000005300000053
#0673a1:5353535353532300
#067391:00530000005300000053000000000000
#0673b1:00000053000000530000005300000000
#068371:0013
#0683b1:00000023
#068360:00000013
#069320:23
#0693b0:00130000
#069380:0023
#069321:0013
#069351:00000023
#070361:0013
#070321:00000023
#070370:00000013
#0713b0:23
#071320:00130000
#071350:0023
#0713b1:0013
#071381:00000023
#072371:0013
#0723b1:00000023
#072360:00000013
#073320:23
#0733b0:00130000
#073380:0023
#073321:0013
#073351:00000023
#074361:0013
#074321:00000023
#074370:00000013
#0753b0:23
#075320:00130000
#075350:0023
#0753b1:0013
#075381:00000023
#076371:0013
#0763b1:00000023
#076360:00000013
#077320:23
#0773b0:00130000
#077380:0023
#077321:0013
#077351:00000023
#078361:0013
#078321:00000023
#078370:00000013
#0793b0:23
#079320:0013
#079350:00000023
#0793b1:0013
#079381:00000023
#0803c1:12
#0813c1:0022
#082321:12
#083321:0022
#0843a1:12
#0853a1:0022
#086341:12
#087341:0022
