This file was generated by Ched 2.7.0.0.
#TITLE ""
#ARTIST ""
#DESIGNER ""
#DIFFICULTY 0
#PLAYLEVEL
#SONGID ""
#WAVE ""
#WAVEOFFSET 0
#JACKET ""
#REQUEST "ticks_per_beat 480"
#00002: 4
#BPM01: 145
#00008: 01
#TIL00: ""
#VOLUME: ""
#HISPEED 00
#MEASUREHS 00
#0601f:11
#0601b:13000033000033000000000000000000
#06015:00000000000000000000001300000000
#06018:0000000000000013
#0431b:130013
#04318:001300
#04315:0013
#04312:000013000000000000230000
#0561b:13000033000033000000000000000000
#05615:00000000000000000000001300000000
#05618:0000000000000013
#05610:41
#0641b:13000013
#06415:0013000000000000
#06418:0000001300000000
#06412:0013
#06515:13
#06518:0013000000000000
#06512:00130000
#0651b:0013
#00816:0000001200120000
#00818:00001212
#00916:00120000
#00914:00000012
#0091c:12
#0091a:0000001200000000
#01518:00000012
#01616:12
#0161a:0012000000001200
#01618:0012
#01614:0000120000120000
#01610:41
#01716:12
#01812:12
#01818:0012000000000000
#0181c:00000012
#01816:0000000000000012
#02116:00000012
#02114:12
#0221a:1212
#02214:0012000000001200
#02218:00120000
#02216:0000001200000000
#03215:00000013000013000000000000000000
#03218:00000000000000000000001300001300
#0321b:13
#03210:41
#01914:0012
#01918:00000012
#0231c:12
#08118:0013
#08112:13
#08115:00130000
#0041c:12
#00416:0012
#0051a:12
#00514:0012
#00618:12
#00612:0012
#0071a:12
#00714:0012
#01218:0000001200120000
#01216:00001212
#01318:00120000
#0131a:00000012
#01312:12
#01314:0000001200000000
#02016:12
#0201a:0012000000000000
#02018:00000012
#0241b:13
#02412:00000013
#02410:41
#02618:13
#02615:00000013
#0281b:13
#02812:00000013
#03018:13
#03015:00000013
#03318:00000013000013000000000000000000
#03315:00000000000000000000001300001300
#03312:13
#03415:00000013000013000000000000000000
#03418:00000000000000000000001300001300
#0341b:13
#03518:00000013000013000000000000000000
#03515:00000000000000000000001300001300
#03512:13
#03615:00000013000000000000000000001300
#03618:00000000000013000000001300000000
#0361b:23
#03612:0023
#03715:00000013000000000000000000001300
#03718:00000000000013000000001300000000
#0371b:23
#03712:0023
#03818:00000013
#0381b:2300002300000000
#03812:00000023000000000000000000000000
#03815:0023
#0511a:12
#05114:00120000
#05116:0012
#05118:00000012
#05514:12
#05516:00000012
#05712:13000033000033000000000000000000
#05718:00000000000000000000001300000000
#05715:0000000000000013
#05818:13000033000033000000000000000000
#05812:00000000000000000000001300000000
#0581b:0000000000000013
#05915:13000033000033000000000000000000
#0591b:00000000000000000000001300000000
#05912:0000000000000013
#06112:13000033000033000000000000000000
#06118:00000000000000000000001300000000
#06115:0000000000000013
#06218:13000033000033000000000000000000
#06212:00000000000000000000001300000000
#0621b:0000000000000013
#06315:13
#06612:13000013
#06618:0013000000000000
#06615:0000001300000000
#0661b:0013
#06718:13000023
#06715:0013000000000000
#0671b:00130000
#06712:0013
#06815:0013000000001300
#0681b:0000001300000000
#06818:0013
#0681f:21
#06812:23
#0691b:13
#06912:0013000000000000
#06918:00130000
#06915:00000023
#07215:13
#07212:0013000000001300
#07218:0000001300000000
#0721b:0013
#07210:41
#07318:13
#07315:0013000000000000
#0731b:00130000
#07312:00000023
#0701b:13
#07018:0013000000001300
#07012:0000001300000000
#07015:0013
#07112:13
#0711b:0013000000000000
#07115:00130000
#07118:00000023
#07418:13
#0741b:0013000000001300
#07415:0000001300000000
#07412:0013
#07515:13
#07518:0013000000000000
#07512:00130000
#0751b:00000023
#07612:13
#07615:0013000000001300
#0761b:0000001300000000
#07618:0013
#0771b:13
#07712:0013000000000000
#07718:00130000
#07715:00000023
#0781b:13
#07818:0013000000001300
#07812:0000001300000000
#07815:0013
#07912:13
#0791b:0013000000000000
#07915:00130000
#07918:00000023
#08012:13
#08015:00130000
#08018:0013
#0801b:00000013
#08315:0013
#0831b:13
#08318:00130000
#0821b:13
#08218:00130000
#08215:0013
#08212:00000013
#08518:0013
#08512:13
#08515:00130000
#08412:13
#08415:00130000
#08418:0013
#0841b:00000013
#08715:0013
#0871b:13000023
#08718:00130000
#08712:00000023
#0861b:13
#08618:00130000
#08615:0013
#08612:00000013
#0441a:14343434343400343434343400000000
#04416:0000001400000000
#04512:14343434343400343434343400000000
#04516:0000001400000000
#04616:0000001400000000
#0461a:14343434343400343434343400000000
#01112:0023
#0111b:00000000000000000000002300000000
#0471b:000023000000000000230000
#04712:230023
#04715:002300
#04718:0023
#03912:23
#0391b:00230000
#04012:00343434343434343434343400000000
#04010:41
#0411a:00343434343434343434343400000000
#04212:00343434343434343434343400000000
#04352:00000013
#0565b:63
#05658:0013
#06758:00000013
#06955:00000013
#08158:0013
#02452:00000053
#0245b:53
#02658:63
#02655:00000063
#0285b:53
#02852:00000053
#03058:63
#03055:00000063
#0325b:13
#03352:13
#0345b:13
#03552:13
#04056:00000014
#04156:00000014
#04256:00000014
#0445a:54000014
#04456:0000002400000000
#04552:54000014
#04556:0000002400000000
#0465a:54000014
#04656:0000002400000000
#0475b:00000013
#05752:53
#05755:0013
#05858:53
#0585b:0013
#05955:63
#05952:0013
#0605b:63
#06058:0013
#06152:53
#06155:0013
#06258:53
#0625b:0013
#06355:53
#07352:00000013
#07158:00000013
#0755b:00000013
#07755:00000013
#07958:00000013
#08355:0013
#08558:0013
#08755:0013
#0395b:00530000
#0365b:13
#03652:0013
#0375b:13
#03752:0013
#0385b:1300001300000000
#03852:00000013000000000000000000000000
#0003a0:12000022
#001360:12000022
#002380:12000022
#003340:12000022
#009380:0000000000000012
#011380:22
#013360:0000000000000012
#015360:22
#0173c0:00122200
#018340:00122200
#0193a0:12220000
#020320:00122200
#0213c0:00122200
#023320:00122200
#0243b0:13
#024380:0023
#024320:00000013
#025350:00000023
#026380:13
#0263b0:0023
#026350:00000013
#027320:00000023
#0283b0:13
#028380:0023
#028320:00000013
#029350:00000023
#030380:13
#0303b0:0023
#030350:00000013
#031320:00000023
#0393b0:00130000
#039380:00000023
#040320:14343434343434343434343400000000
#040360:00000024
#0413a0:14343434343434343434343400000000
#041360:00000024
#042320:14343434343434343434343400000000
#042360:00000024
#0443a0:14343434343400343434343424000000
#044360:0000003400000000
#045320:14343434343400343434343424000000
#045360:0000003400000000
#0463a0:14343434343400343434343424000000
#046360:0000003400000000
#048340:00001222
#0493a0:12220000
#049320:00001222
#0503c0:12220000
#050340:00001222
#0523c0:12220000
#052360:00001222
#053380:12220000
#053320:00001222
#0543a0:12000022
#055380:00122200
#0563b0:13000033000033000000000000000000
#056380:0023
#057320:13000033000033000000000000000000
#057350:0023
#058380:13000033000033000000000000000000
#0583b0:0023
#059350:13000033000033000000000000000000
#059320:0023
#0603b0:13000033000033000000000000000000
#060380:0023
#061320:13000033000033000000000000000000
#061350:0023
#062380:13000033000033000000000000000000
#0623b0:0023
#063350:13
#063320:00000023
#069350:00001323
#071380:00001323
#073320:00001323
#0753b0:00001323
#077350:00001323
#079380:00001323
