This file was generated by Ched 2.7.0.0.
#TITLE ""
#ARTIST ""
#DESIGNER ""
#DIFFICULTY 0
#PLAYLEVEL
#SONGID ""
#WAVE ""
#WAVEOFFSET 0
#JACKET ""
#REQUEST "ticks_per_beat 480"
#00002: 4
#BPM01: 145
#00008: 01
#TIL00: ""
#VOLUME: ""
#HISPEED 00
#MEASUREHS 00
#0601f:11
#06016:13
#06019:00000013000000000000000000000000
#06017:0000001313000000
#06018:00000013
#0601b:1300000000000013
#06015:00000000000000000000000000130000
#06012:00000000000000000000001300000000
#04016:14141414141414141414141400000000
#0401a:00000014
#04012:00000014
#04010:41
#0441a:14000000001200000000000000000000
#0441c:00120000000000000000000000000000
#04414:00001400000000120000000000000000
#04416:00000012000000000000000000000000
#04418:00000000140000001412000000000000
#04412:0000000000001400000014121c000000
#04512:1412000000000000000000001c000000
#04518:00001412000000000000000000000000
#04514:00000000141200001400000000000000
#0451a:00000000000014120000140000000000
#04516:00000000000000000012000000000000
#0451c:00000000000000000000001200000000
#0461a:14000000001200000000000000000000
#0461c:00120000000000000000000000000000
#04614:00001400000000120000000000000000
#04616:00000012000000000000000000000000
#04618:00000000140000001412000000000000
#04612:0000000000001400000014121c000000
#04317:130013
#04312:130013
#04314:001300130000
#04316:000000001300000000240000
#04319:001300130000
#0431b:001300
#0471b:132300230000
#04715:00000023
#04712:232323
#04818:0000000000000012
#0481c:0012
#0501c:0012
#05018:00000012
#05016:0000001200000000
#05012:12
#05112:12
#05116:0012
#0511c:00120000
#05118:00000012
#05212:12
#05216:0000001200000000
#05218:0012
#0521c:0000000000000012
#05316:12
#05312:0000001200000000
#0531c:0012
#05318:00000012
#0541c:12
#05416:12
#05418:0012
#05412:0012
#0551c:12
#05512:00120000
#05516:0012
#05518:00000012
#05612:13000000000000000000000000130000
#05618:00000013000000000000000000001300
#0561b:0000001313001300
#05615:00000000000000000000001300000000
#05610:41
#04916:0000001200000000
#04912:12
#04918:0000000000000012
#0491c:0012
#0571b:13000000000000000000000000130000
#05715:00000013000000000000000000001300
#05712:1300001313001300
#05718:00000000000000000000001300000000
#05812:13000000000000000000000000130000
#05818:00000013000000000000000000001300
#0581b:1300001313001300
#05815:00000000000000000000001300000000
#0591b:13000000000000000000000000130000
#05915:00000013000000000000000000001300
#05912:1300001313001300
#05918:00000000000000000000001300000000
#06117:13
#06114:00000013000000000000000000000000
#06116:0000001313000000
#06115:00000013
#06112:1300000000000013
#06118:00000000000000000000000000130000
#0611b:00000000000000000000001300000000
#06216:13
#06219:00000013000000000000000000000000
#06217:0000001313000000
#06218:00000013
#0621b:1300000000000013
#06215:00000000000000000000000000130000
#06212:00000000000000000000001300000000
#06313:1313131313131313
#06314:00130000001300000013000000130000
#06312:00000013000000130000001300000013
#06318:13
#0641c:12000012
#0641a:0012000000000000
#0641b:0000001200000000
#06419:0012
#06413:1313131313131313
#06414:00130000001300000013000000130000
#06412:00000013000000130000001300000013
#06518:1212
#0651a:0012000000001313
#0651c:00120000
#06513:1313131313130000
#06514:00130000001300000013000000000000
#06512:00000013000000130000001300000000
#06519:00000000000000000000000000130000
#0651b:00000000000000000000000000000013
#0661a:1313131313131313
#06619:00130000001300000013000000130000
#0661b:00000013000000130000001300000013
#06612:12000012
#06614:0012000000000000
#06613:0000001200000000
#06615:0012
#0671a:1313131313132300
#06719:00130000001300000013000000000000
#0671b:00000013000000130000001300000000
#06716:1212
#06714:0012000000000000
#06712:00120000
#06713:00000023
#06812:001216001c000000
#06817:0013000000001300
#06816:2300001400000000
#06818:00160000
#0681f:21
#0681c:22
#0691c:12120000
#06912:0012000000002300
#06916:13130000
#06917:0013000013000000
#0691b:00000023
#07012:12161c00
#07017:13
#0701c:0012000000000000
#07016:0013001400001300
#07018:00160000
#07112:12120023
#0711c:0012000000000000
#07117:13130000
#07116:0013000013000000
#0711b:00000023
#0721c:12
#07216:1300001400000000
#07212:001216001c000000
#07217:0013000000001300
#07218:00160000
#07210:41
#0731c:12120000
#07312:0012000000002300
#07316:13130000
#07317:0013000013000000
#0731b:00000023
#07412:12161c00
#07417:13
#0741c:0012000000000000
#07416:0013001400001300
#07418:00160000
#07512:12120023
#0751c:0012000000000000
#07517:13130000
#07516:0013000013000000
#0751b:00000023
#0761c:12
#07616:1300001400000000
#07612:001216001c000000
#07617:0013000000001300
#07618:00160000
#0771c:12120000
#07712:0012000000002300
#07716:13130000
#07717:0013000013000000
#0771b:00000023
#07812:12161c00
#07817:13
#0781c:0012000000000000
#07816:0013001400001300
#07818:00160000
#07912:12000023
#0791c:0012000000000000
#07917:13
#07916:0013000000000000
#07915:000000130013130000000000
#07918:000013130000
#0791b:00000023
#0801a:12
#0801b:00120000
#08012:00161600
#0801c:0012
#08018:00000012
#08118:00161600
#08112:1212
#08116:00120000
#08318:00161600
#08312:1212
#08316:00120000
#0841a:12
#0841b:00120000
#08412:00161600
#0841c:0012
#08418:00000012
#08518:00161600
#08512:1212
#08516:00120000
#08718:000000161616160000260000
#08712:1212
#08716:00120000
#00818:0000001200120000
#00814:0012
#0081a:00001212
#00816:00000012
#00914:0012
#00916:00120012
#00918:0000001200000012
#0091c:12
#01014:0012
#01216:0000001200120000
#0121a:0012
#01214:00001212
#01218:00000012
#0131a:0012
#01318:00120012
#01316:0000001200000012
#01312:12
#0141a:0012
#01512:00000012
#01514:0000000000000012
#01518:12000012
#0151a:0000000000000012
#01616:12120000
#0161c:12120000
#0161a:0012000000120000
#01614:0012000012120000
#01612:00000012
#01618:00000012
#01610:41
#01716:12
#01718:00120000
#0171c:12
#01712:0012
#0181c:1200000012000012
#01818:0012000000001200
#0181a:00120000
#01816:1200000000000012
#01812:0012000000001200
#01814:00120000
#0191a:1200000000000012
#01914:1200000000000012
#0191c:0012
#01912:00000012
#01918:00000012
#02016:1200120000120000
#0201c:1200120000120000
#0201a:0012000000001200
#02014:0012000012001200
#02012:0000000000000012
#02018:0000000000000012
#02116:12000012
#02118:00120000
#0211c:12000012
#02112:0012
#0211a:0000000000000012
#02114:0000000000000012
#02218:1212
#0221c:00120012
#02212:1212
#02214:0012000000000000
#02216:00120000
#0221a:0000001200000000
#02316:12000012
#02318:00120000
#02312:0012
#0321b:1313
#03218:00130013
#03215:23000013130000001300000000001300
#03212:00000000000013000000001313000000
#03210:41
#03312:1313
#03315:00130013
#03318:00000013130000001300000000001300
#0331b:23000000000013000000001313000000
#03418:1313
#0341b:00130013
#03412:23000013130000001300000000001300
#03415:00000000000013000000001313000000
#03515:1313
#03512:00130013
#0351b:00000013130000001300000000001300
#03518:23000000000013000000001313000000
#0361b:1300000023000013
#03618:00000000130000000000001313000000
#03615:23000013130000000000000013000000
#03612:0000001313000000
#0371b:1300000023000013
#03718:00000000130000000000001313000000
#03715:00000013130000000000000013000000
#03712:2300001313000000
#03817:1300001300000000
#03816:00000013000000000000000000000000
#03818:000000000000001300000000
#03815:000013
#03812:2300002300001300
#0381b:00000023000000002300000000000000
#00418:00120000
#0041c:12
#00412:00000012
#00416:0012
#0051c:00120000
#00518:12
#00516:00000012
#00512:0012
#00618:00120000
#0061c:12
#00612:00000012
#00616:0012
#0071c:00120000
#00718:12
#00716:00000012
#00712:0012
#0001a:000000000000000000000000000000000012001200000000000000000000001200120000000000000000000000000000
#00019:000000000000000000141400000000001414000000000000
#00114:000000000000001200120012000000000000000000000012001200000000000000120000000000000012001200120000
#00113:000000001414140000000000141400000014000000141414
#0021a:000000000000000000000000000000000012001200000012000000000000000000000012000000000000000000000000
#00219:000000000000000000141400140000000000140000000000
#00314:000000000000000000000000000012000012001200120012000000000000000012000000000000000012000000000000
#00313:000000000000000000000000000000140000140014001400140000000000000000140000000000000000140000000000
#02419:00000000000000001212121200000000
#02418:0000000000000000000000000000000000120000001200000000000000000000
#0241a:0000000000000000000000000000000000000012000000120000000000000000
#02413:00000000000000000000000012121212
#02412:0000000000000000000000000000000000000000000000000012000000120000
#02414:0000000000000000000000000000000000000000000000000000001200000012
#02410:41
#02513:12121212121212121200120012001200
#02512:0012000000120000001200000012000000001200000000000000120000000000
#02514:0000001200000012000000120000001200000000000012000000000000001200
#0261b:12001200120012001212121200000000
#0261a:0000120000000000000012000000000000120000001200000000000000000000
#0261c:0000000000001200000000000000120000000012000000120000000000000000
#02615:00000000000000000000000012121212
#02614:0000000000000000000000000000000000000000000000000012000000120000
#02616:0000000000000000000000000000000000000000000000000000001200000012
#02715:12121212121212121200120012001200
#02714:0012000000120000001200000012000000001200000000000000120000000000
#02716:0000001200000012000000120000001200000000000012000000000000001200
#02819:12001200120012001212121200000000
#02818:0000120000000000000012000000000000120000001200000000000000000000
#0281a:0000000000001200000000000000120000000012000000120000000000000000
#02813:0000000000001212
#02812:00000000000000000000000000120000
#02814:00000000000000000000000000000012
#02913:120000000000120000000000120000000000120000000000120000001200000012000000120000120000120000120000
#02912:000000000000120000000000000000000000000000000000000000000000120000000000000000000000000000000000000000001200000000000000000000000000000012000000000000000000000000120000000000000000000000120000
#02914:0000000000001200000000000000120000000000120000000012000000120000
#0301c:0000001200000012000000120000001200000000120000000000000000000000
#0301b:120000120000120000120000120000120000120000120000120000001200000012000000000000000000000000000000
#0301a:000000120000000000000000000000120000000000000000000000120000000000000000000000120000000000000000000000001200000000000000000000000000000012000000000000000000000000000000000000000000000000000000
#03015:00000000000000000000000012121212
#03014:0000000000000000000000000000000000000000000000000012000000120000
#03016:0000000000000000000000000000000000000000000000000000001200000012
#03115:12121212121212121200120012001200
#03114:0012000000120000001200000012000000001200000000000000120000000000
#03116:0000001200000012000000120000001200000000000012000000000000001200
#04118:14141414141414141414141400000000
#0411c:00000012
#04112:00000016
#04214:14141414141414141414141400000000
#04212:00000012
#04218:00000016
#0821a:1200003200000000
#08218:000000120000000000000000323232323232000000000000
#08212:16001616
#0821c:00120000
#0821b:000000000000003232000000000000000000000000000000
#08219:000000000000000000003232000000000000000000000000
#08612:16001616
#0861a:1200003200000000
#08618:000000120000000000000000323232323232000000000000
#0861c:00120000
#0861b:000000000000003232000000000000000000000000000000
#08619:000000000000000000003232000000000000000000000000
#01112:00000000000000002300002300000000
#0111b:00000000000000002300002300000000
#03918:26
#03912:00260000
#0405a:00000014
#04052:00000014
#04452:0000001c
#04552:0000001c
#04652:0000001c
#04352:130013
#04356:000000001300000000140000
#04359:001300130000
#0475b:13
#04755:000013000000130000130000
#04758:001313
#04858:0000000000000022
#0485c:0052
#0505c:0052
#05058:00000022
#05056:0000002200000000
#05052:62
#05152:52
#05156:0062
#0515c:00620000
#05158:00000052
#05252:52
#05256:0000002200000000
#05258:0052
#0525c:0000000000000022
#05356:62
#05352:0000002200000000
#0535c:0062
#05358:00000022
#0545c:62
#05456:62
#05458:0022
#05452:0022
#0555c:62
#05552:00520000
#05556:0022
#05558:00000052
#05652:53
#0565b:0013
#05656:0013
#04956:0000002200000000
#04952:62
#04958:0000000000000022
#0495c:0052
#0575b:63
#05752:0013
#05757:0013
#05852:53
#0585b:0013
#05856:0013
#0595b:63
#05952:0013
#05957:0013
#06056:63
#06057:0013
#06052:0013
#06157:53
#06156:0013
#0615b:0013
#06256:63
#06257:0013
#06252:0013
#06353:5353535353535353
#06354:00230000002300000023000000230000
#06352:00000023000000230000002300000023
#06453:5353535353535353
#06454:00230000002300000023000000230000
#06452:00000023000000230000002300000023
#06553:5353535353530000
#06554:00230000002300000023000000000000
#06552:00000023000000230000002300000000
#0655a:0000000000006363
#06559:00000000000000000000000000230000
#0655b:00000000000000000000000000000023
#0665a:6363636363636363
#06659:00230000002300000023000000230000
#0665b:00000023000000230000002300000023
#0675a:6363636363631300
#06759:00230000002300000023000000000000
#0675b:00000023000000230000002300000000
#06753:00000013
#06852:005c
#06956:00630000
#06957:0063
#06952:00000013
#0695b:00000013
#07052:006c
#07157:00530000
#07156:0053
#0715b:00000013
#07152:00000013
#07252:005c
#07356:00630000
#07357:0063
#07352:00000013
#0735b:00000013
#07452:006c
#07557:00530000
#07556:0053
#0755b:00000013
#07552:00000013
#07652:005c
#07756:00630000
#07757:0063
#07752:00000013
#0775b:00000013
#07852:006c
#07955:0053
#07958:0063
#07952:00000013
#0795b:00000013
#08052:0016
#0805c:0052
#08058:00000052
#08158:0016
#08152:6262
#08156:00620000
#08358:0016
#08352:6262
#08356:00620000
#08452:0016
#0845c:0052
#08458:00000052
#08558:0016
#08552:6262
#08556:00620000
#08758:0016
#08752:6262
#08756:00620000
#00854:0012
#00856:00000052
#00954:0012
#00958:0000005200000052
#0095c:52
#01054:0012
#0125a:0012
#01258:00000062
#0135a:0012
#01356:0000006200000062
#01352:62
#0145a:0012
#0165c:00520000
#01654:0012
#01756:52
#01758:00620000
#01752:0012
#01854:00520000
#0185c:0012
#01954:52
#0195c:0012
#0205c:00520000
#02054:0012
#02156:52
#02158:00620000
#02152:0012
#02258:0012
#02252:0062
#0225c:00000052
#02356:52
#02358:00620000
#02352:0012
#0325b:5353
#03258:00230023
#03255:13
#03352:6363
#03355:00230023
#0335b:13
#03458:6363
#0345b:00230023
#03452:13
#03555:5353
#03552:00230023
#03558:13
#0365b:5313
#03658:00230000
#03652:0063
#03655:13000023
#0375b:5313
#03758:00230000
#03752:1363
#03755:00000023
#03857:53
#03856:00000063000000000000000000000000
#03852:1300001300000000
#0385b:00000013000000000000000000000000
#00458:00220000
#0045c:52
#00452:00000022
#00456:0052
#0055c:00220000
#00558:62
#00556:00000022
#00552:0062
#00658:00220000
#0065c:52
#00652:00000022
#00656:0052
#0075c:00220000
#00758:62
#00756:00000022
#00752:0062
#0005a:000000000000000000000000000000000022002200000000000000000000002200220000000000000000000000000000
#00059:000000000000000000545400000000005454000000000000
#00154:000000000000002200220022000000000000000000000022002200000000000000220000000000000022002200220000
#00153:000000006464640000000000646400000064000000646464
#0025a:000000000000000000000000000000000022002200000022000000000000000000000022000000000000000000000000
#00259:000000000000000000545400540000000000540000000000
#00354:000000000000000000000000000022000022002200220022000000000000000022000000000000000022000000000000
#00353:000000000000000000000000000000640000640064006400640000000000000000640000000000000000640000000000
#02459:00000000000000005252525200000000
#02458:0000000000000000000000000000000000220000002200000000000000000000
#0245a:0000000000000000000000000000000000000022000000220000000000000000
#02453:00000000000000000000000052525252
#02452:0000000000000000000000000000000000000000000000000022000000220000
#02454:0000000000000000000000000000000000000000000000000000002200000022
#02553:52525252525252525200520052005200
#02552:0022000000220000002200000022000000002200000000000000220000000000
#02554:0000002200000022000000220000002200000000000022000000000000002200
#0265b:52005200520052005252525200000000
#0265a:0000220000000000000022000000000000220000002200000000000000000000
#0265c:0000000000002200000000000000220000000022000000220000000000000000
#02655:00000000000000000000000052525252
#02654:0000000000000000000000000000000000000000000000000022000000220000
#02656:0000000000000000000000000000000000000000000000000000002200000022
#02755:52525252525252525200520052005200
#02754:0022000000220000002200000022000000002200000000000000220000000000
#02756:0000002200000022000000220000002200000000000022000000000000002200
#02859:52005200520052005252525200000000
#02858:0000220000000000000022000000000000220000002200000000000000000000
#0285a:0000000000002200000000000000220000000022000000220000000000000000
#02853:0000000000005252
#02852:00000000000000000000000000220000
#02854:00000000000000000000000000000022
#02953:520000000000520000000000520000000000520000000000620000006200000062000000620000620000620000620000
#02952:000000000000220000000000000000000000000000000000000000000000220000000000000000000000000000000000000000002200000000000000000000000000000022000000000000000000000000220000000000000000000000220000
#02954:0000000000002200000000000000220000000000220000000022000000220000
#0305c:0000002200000022000000220000002200000000220000000000000000000000
#0305b:520000520000520000520000520000520000520000520000520000005200000052000000000000000000000000000000
#0305a:000000220000000000000000000000220000000000000000000000220000000000000000000000220000000000000000000000002200000000000000000000000000000022000000000000000000000000000000000000000000000000000000
#03055:00000000000000000000000052525252
#03054:0000000000000000000000000000000000000000000000000022000000220000
#03056:0000000000000000000000000000000000000000000000000000002200000022
#03155:52525252525252525200520052005200
#03154:0022000000220000002200000022000000002200000000000000220000000000
#03156:0000002200000022000000220000002200000000000022000000000000002200
#01558:52
#0155a:0012
#0415c:00000012
#04152:00000016
#04252:00000012
#04258:00000016
#03958:56
#03952:00560000
#08252:0016
#0825c:00520000
#08652:0016
#0865c:00520000
#0003a0:120000000000000000000000000000000052005200520000000000000000005200520052000000000000000000000000
#000390:000000000000000000343400000000003434000000000000
#0013a0:22
#001341:120000000000005200520052005200000000000000000052005200520000000000520052000000000052005200520052
#001331:000000003434340000000000343400000034000000343434
#002341:22
#0023a0:120000000000000000000000000000000052005200520052005200000000000000000052005200000000000000000000
#002390:000000000000000000343400340000000000340000000000
#0033a0:22
#003341:120000000000000000000000000052005252005200520052005200000000000052005200000000000052005200000000
#003331:000000000000000000000000000000340000340034003400340000000000000000340000000000000000340000000000
#004341:22
#0043c0:1222
#004380:00520000
#004361:0012
#004321:00000052
#005361:22
#005380:1222
#0053c0:00520000
#005321:0012
#005361:00000052
#006321:22
#0063c0:1222
#006380:00520000
#006361:0012
#006321:00000052
#007361:22
#007380:1222
#0073c0:00520000
#007321:0012
#007361:00000052
#008321:22
#008361:00000012
#009341:22
#0093c0:12
#0093a0:00220000
#009380:0000001200000000
#0093a0:0000000000220000
#009380:0000000000000012
#0113c0:22
#012380:00000012
#0133a0:22
#013321:12
#013341:00220000
#013361:0000001200000000
#013341:0000000000220000
#013361:0000000000000012
#015321:22
#015380:12
#0153a0:0022
#0163c0:00120000
#0163a0:0022
#017360:12
#017340:00220000
#017381:00120000
#0173a1:0022
#018341:00120000
#018361:0022
#019341:12
#019321:00220000
#0203c1:00120000
#0203a1:0022
#021361:12
#021341:00220000
#021380:00120000
#0213a0:0022
#022320:0012
#022360:00000022
#0223c1:00000012
#023381:22
#023360:12
#023320:00220000
#023381:00120000
#0233c1:00000022
#024391:12000000000000005252525222000000
#024381:0000000000000000000000000000000000520000005200000000000000000000
#0243a1:0000000000000000000000000000000000000052000000520000000000000000
#024330:00000000000000000000000012525252
#024320:0000000000000000000000000000000000000000000000000052000000520000
#024340:0000000000000000000000000000000000000000000000000000005200000052
#025330:52525252525252525200520052005200
#025320:0052000000520000005200000052000000005200000000000000520000000000
#025340:0000005200000052000000520000005200000000000052000000000000005200
#026330:22
#0263b1:12005200520052005252525222000000
#0263a1:0000520000000000000052000000000000520000005200000000000000000000
#0263c1:0000000000005200000000000000520000000052000000520000000000000000
#026350:00000000000000000000000012525252
#026340:0000000000000000000000000000000000000000000000000052000000520000
#026360:0000000000000000000000000000000000000000000000000000005200000052
#027350:52525252525252525200520052005200
#027340:0052000000520000005200000052000000005200000000000000520000000000
#027360:0000005200000052000000520000005200000000000052000000000000005200
#028350:22
#028391:12005200520052005252525222000000
#028381:0000520000000000000052000000000000520000005200000000000000000000
#0283a1:0000000000005200000000000000520000000052000000520000000000000000
#028330:0000000000001252
#028320:00000000000000000000000000520000
#028340:00000000000000000000000000000052
#029330:520000000000520000000000520000000000520000000000520000005200000052000000520000520000520000520000
#029320:000000000000520000000000000000000000000000000000000000000000520000000000000000000000000000000000000000005200000000000000000000000000000052000000000000000000000000520000000000000000000000520000
#029340:0000000000005200000000000000520000000000520000000052000000520000
#030330:22
#0303b1:120000520000520000520000520000520000520000520000520000005200000052000000220000000000000000000000
#0303a1:000000520000000000000000000000520000000000000000000000520000000000000000000000520000000000000000000000005200000000000000000000000000000052000000000000000000000000000000000000000000000000000000
#0303c1:0000005200000052000000520000005200000000520000000000000000000000
#030350:00000000000000000000000012525252
#030340:0000000000000000000000000000000000000000000000000052000000520000
#030360:0000000000000000000000000000000000000000000000000000005200000052
#031350:52525252525252525200520052005200
#031340:0052000000520000005200000052000000005200000000000000520000000000
#031360:0000005200000052000000520000005200000000000052000000000000005200
#032350:23
#0323b1:1333
#032381:00530053
#0333b1:23
#033320:1333
#033350:00530053
#034320:23
#034381:1333
#0343b1:00530053
#035381:23
#035350:1333
#035320:00530053
#036350:23
#0363b1:1323
#036381:00530000
#036320:0013
#036350:00000053
#037320:23
#0373b1:1323
#037381:00530000
#037320:0013
#037350:00000053
#038320:23
#038371:13
#0383b1:00000023000000000000000000000000
#038360:00000013000000000000000000000000
#038320:0000002300000000
#039380:16000022
#039321:00160000
#039361:00000022
#047321:13
#047351:005323000000000000000000
#0473b0:001300000000
#047380:000000532300000000000000
#047321:001300
#047351:000000000053230000000000
#0473b0:0013
#047380:000000000000005323000000
#047321:000013
#047351:00000023
#0483c1:0012
#048381:0000000000000052
#0493c1:00220000
#049320:12000022
#049360:0000005200000000
#0493c1:0012
#049381:0000000000000052
#0503c1:00220000
#050320:12000022
#050360:0000005200000000
#0503c1:0012
#050381:00000052
#0513c1:22
#051320:12
#051360:00220000
#0513c1:00120000
#051381:0022
#051360:0012
#051320:00000022
#051381:00000012
#0523c1:22
#052320:12000022
#052360:0000005200000000
#052381:0012
#0523c1:0000000000000052
#053381:00220000
#053360:12000022
#053320:0000005200000000
#0533c1:0012
#053381:00000052
#0543c1:32
#054381:0052
#0543a1:00000022
#054360:12
#054320:0052
#055360:22
#0553c1:12
#055381:0022
#055320:00120022
#055360:0052
#055381:00000012
#0563c1:22
#056320:13
#056360:0023
#0573b0:13
#057370:0023
#058320:13
#058360:0023
#0593b0:13
#059370:0023
#060360:13
#060320:0023
#061370:13
#0613b0:0023
#062360:13
#062320:0023
#063330:1353535353535353
#063340:00530000005300000053000000530000
#063320:00000053000000530000005300000053
#064330:5353535353535353
#064340:00530000005300000053000000530000
#064320:00000053000000530000005300000053
#065330:5353535353532300
#065340:00530000005300000053000000000000
#065320:00000053000000530000005300000000
#0653a1:0000000000001353
#065391:00000000000000000000000000530000
#0653b1:00000000000000000000000000000053
#0663a1:5353535353535353
#066391:00530000005300000053000000530000
#0663b1:00000053000000530000005300000053
#0673a1:5353535353532300
#067391:00530000005300000053000000000000
#0673b1:00000053000000530000005300000000
#068321:00001c23
#069361:00130000
#069321:0023
#069370:0013
#0693b0:00000023
#070320:001c
#0703b0:00000023
#071370:00130000
#0713b0:0023
#071361:0013
#071321:00000023
#072321:00001c23
#073361:00130000
#073321:0023
#073370:0013
#0733b0:00000023
#074320:001c
#0743b0:00000023
#075370:00130000
#0753b0:0023
#075361:0013
#075321:00000023
#076321:00001c23
#077361:00130000
#077321:0023
#077370:0013
#0773b0:00000023
#078320:001c
#0783b0:00000023
#079350:0013
#079320:00000023
#079381:0013
#0793b1:00000023
#0803c1:0012
#080381:00000032
#0813c1:22
#081320:1232
#081360:00320022
#0823c0:00120000
#0823b0:000000000000003232000000000000000000000000000000
#0823a0:0000003200000000
#082390:000000000000000000003232000000000000000000000000
#082380:000000000000000000000000323232323232220000000000
#083320:1232
#083360:00320022
#0843c0:0012
#084380:00000032
#0853c0:22
#085321:1232
#085361:00320022
#0863c1:00120000
#0863b1:000000000000003232000000000000000000000000000000
#0863a1:0000003200000000
#086391:000000000000000000003232000000000000000000000000
#086381:000000000000000000000000323232323232220000000000
#087321:1232
#087361:00320022
