This file was generated by Ched 2.7.0.0.
#TITLE ""
#ARTIST ""
#DESIGNER ""
#DIFFICULTY 0
#PLAYLEVEL
#SONGID ""
#WAVE ""
#WAVEOFFSET 0
#JACKET ""
#REQUEST "ticks_per_beat 480"
#00002: 4
#BPM01: 145
#00008: 01
#TIL00: ""
#VOLUME: ""
#HISPEED 00
#MEASUREHS 00
#0601f:11
#0601a:14
#06012:0014
#00818:0014
#00914:0014
#01018:0014
#0121a:0014
#01312:0014
#0141a:0014
#01512:0014
#0241a:14
#02416:00000014
#02410:41
#02612:14
#02616:00000014
#0281a:14
#02816:00000014
#03012:14
#03016:00000014
#03214:00140000
#03218:0014
#0321a:14
#03210:41
#03318:00140000
#03314:0014
#03312:14
#03412:00140000
#0341a:0014
#03418:14
#0351a:00140000
#03512:0014
#03514:14
#04318:14
#04314:0014
#04812:0014
#04918:14
#04914:0014
#0501a:14
#05012:0014
#0511a:14
#05114:0014
#05218:14
#05212:0014
#0531a:14
#05312:0014
#05418:14
#05414:0014
#0551a:14
#05512:0014
#0561a:14
#05610:41
#05712:14
#0581a:14
#05912:14
#06118:14
#06114:0014
#0621a:14
#06212:0014
#06412:14
#0641a:0014
#06514:14
#06518:00140000
#0661a:14
#06612:0014
#06718:14000024
#06714:00140000
#06818:00140000
#06814:0014
#0681a:00000014
#0681f:21
#06812:24
#06912:14000024
#0691a:00140000
#0701a:14
#07014:00140000
#07018:0014
#07012:00000014
#0711a:14000024
#07112:00140000
#07214:14
#07218:00140000
#07212:0014
#0721a:00000014
#07210:41
#07314:14000024
#07318:00140000
#07418:14
#07414:00140000
#0741a:0014
#07412:00000014
#07518:14000024
#07514:00140000
#07618:00140000
#07614:0014
#0761a:00000014
#07612:14
#07712:14000024
#0771a:00140000
#0781a:14
#07814:00140000
#07818:0014
#07812:00000014
#0791a:14000024
#07912:00140000
#08014:00140000
#08018:0014
#08114:00140000
#08118:0014
#08212:14
#0821a:0014
#08214:00000014
#08318:00140000
#08312:0014
#08418:00140000
#08414:0014
#08518:00140000
#08514:0014
#0861a:14
#08612:0014
#08618:00000014
#08714:00140000
#0871a:0014
#08712:00000024
#0161a:14
#01618:0014
#01610:41
#01714:14
#01712:0014
#02012:14
#02014:0014
#02118:14
#0211a:0014
#02214:14
#02218:0014
#01114:0024
#04712:24
#0471a:0024
#0361a:24
#03612:0024
#03718:24
#03714:0024
#0381a:24
#03812:0024
#03918:24
#04014:00343434343434343434343400000000
#04010:41
#04118:00343434343434343434343400000000
#04214:00343434343434343434343400000000
#0441a:00343434343434343434343400000000
#04512:00343434343434343434343400000000
#0461a:00343434343434343434343400000000
#0245a:54
#02456:00000024
#02652:64
#02656:00000024
#0285a:54
#02856:00000024
#03052:64
#03056:00000024
#04052:00000014
#0415a:00000014
#04252:00000014
#04458:00000014
#04554:00000014
#04658:00000014
#0565a:54
#05752:64
#0585a:54
#05952:64
#06758:00000014
#06952:00000014
#0715a:00000014
#07354:00000014
#07558:00000014
#07752:00000014
#0795a:00000014
#0365a:14
#03652:0014
#03758:14
#03754:0014
#0385a:14
#03852:0014
#0003a0:14
#0013a0:24
#002340:14
#003340:24
#004380:14
#005380:24
#006320:14
#007320:24
#018380:1424
#019340:1424
#023340:1424
#0243a0:14
#024360:00000054
#0253a0:0024
#026320:14
#026360:00000054
#027320:0024
#0283a0:14
#028360:00000054
#0293a0:0024
#030320:14
#030360:00000054
#031320:0024
#039380:14000024
#040340:14343434343434343434343400000000
#040320:00000024
#041380:14343434343434343434343400000000
#0413a0:00000024
#042340:14343434343434343434343400000000
#042320:00000024
#0443a0:14343434343434343434343400000000
#044380:00000024
#045320:14343434343434343434343400000000
#045340:00000024
#0463a0:14343434343434343434343400000000
#046380:00000024
#0563a0:14
#056380:0024
#057320:14
#057340:0024
#0583a0:14
#058380:0024
#059320:14
#059340:0024
#063380:14000024
#065340:00001424
#067380:00001424
#069320:00001424
#0713a0:00001424
#073340:00001424
#075380:00001424
#077320:00001424
#0793a0:00001424
