This file was generated by Ched 2.7.0.0.
#TITLE ""
#ARTIST ""
#DESIGNER ""
#DIFFICULTY 0
#PLAYLEVEL
#SONGID ""
#WAVE ""
#WAVEOFFSET 0
#JACKET ""
#REQUEST "ticks_per_beat 480"
#00002: 4
#BPM01: 184
#00008: 01
#TIL00: ""
#VOLUME: ""
#HISPEED 00
#MEASUREHS 00
#0121a:14
#01210:41
#0131a:14
#01412:14
#01512:14
#01718:14
#01814:14
#01914:14
#01618:14
#0281a:14
#02912:14
#0301a:14
#03112:14
#03218:14
#03314:14
#03418:14
#03514:14
#05119:14
#05113:14
#05918:14
#06014:14
#0611a:14
#06112:14
#06218:2616
#0621f:21
#06312:1616
#06310:41
#06518:0016
#06512:16
#06612:1616
#06718:1616
#07012:2616
#07118:1616
#07312:0016
#07318:16
#07418:1616
#07512:1616
#0781a:14
#07810:41
#0791a:14
#08012:14
#08112:14
#08218:14
#08318:14
#08414:14
#08514:14
#04912:14
#0501a:14
#0571a:14
#05812:14
#0521f:11
#02218:34
#02119:34
#02614:34
#02513:34
#02410:41
#04810:41
#03610:41
#0043a0:14
#0053a0:24
#006320:14
#007320:24
#008380:14
#009380:24
#010340:14
#011340:24
#0203a0:14
#021390:34
#022380:34
#023380:24
#024320:14
#025330:34
#026340:34
#027340:24
#0363a0:14
#0373a0:24
#038320:14
#039320:24
#040380:14
#041380:24
#042340:14
#043340:24
#0443a0:14
#045390:34
#046380:34
#047390:34
#0483a0:24
#052320:14
#053330:34
#054340:34
#055330:34
#056320:24
#064380:1626
#068320:1626
#069380:1626
#072320:1626
#076380:1626
#077320:1626
#0863a0:14
#0873a0:34
#0883a0:34
#0893a0:24
#090320:14
#091320:34
#092320:34
#093320:24
#094380:14
#095380:24
#096340:14
#097340:24
#0983a0:14
#0993a0:24
#100320:1400000000000034
#104320:24
