This file was generated by Ched 2.7.0.0.
#TITLE ""
#ARTIST ""
#DESIGNER ""
#DIFFICULTY 0
#PLAYLEVEL
#SONGID ""
#WAVE ""
#WAVEOFFSET 0
#JACKET ""
#REQUEST "ticks_per_beat 480"
#00002: 4
#BPM01: 184
#00008: 01
#TIL00: ""
#VOLUME: ""
#HISPEED 00
#MEASUREHS 00
#0521f:11
#05213:0000000000000000000000000000000000000000000000000000000000140014
#05214:00000000000000000000000000000014
#05212:0000000000000014
#05219:0000000000000000000000000000000000000000000000000000000000140014
#05218:00000000000000000000130000000014
#0521a:0000000000000014
#05215:00000013
#0521b:0013
#05217:22
#03615:00000000001300130000130000000000
#03618:0000131313000013
#03612:23000013
#03610:41
#05612:14132413
#05616:0000000000130024
#0561b:0013
#05617:0000001300000000
#0561a:00240024
#0271a:1414
#02712:00140014
#02716:000034000034000034000000
#02718:003400000000003400000000
#02714:003400
#0231a:00140014
#02312:1414
#02316:000034000034000034000034
#02318:000034000034
#02314:003400000000003400000000
#08516:000034143400140000000000000034143400000000000000
#08512:1414
#0851a:000000000000000034143400000000000000140000000000
#08116:000034143400140000000000000034143400140000000000
#0811a:1414
#08112:000000000000000034143400000000000000000034143400
#05412:0000000000150000
#05415:1413
#05418:0000001300000000
#05419:0000000000150000
#0541a:14
#05116:0000001424000000
#05117:0000000000000012
#05114:28
#09912:0000130000000014
#09916:00001414
#0991a:0000000000140000
#0961c:12
#09619:0000001200000000
#09612:16
#0961b:0012000000000013
#0961a:00120000
#09815:0000001200000000
#09818:16
#09814:00120000
#09813:0012000000000000
#09812:22000013
#09415:0000001200000000
#09418:16
#09414:00120000
#09413:0012000000000000
#09412:2200000000000013
#09315:00001313
#09318:0000001300130013
#0931b:00130000
#09312:00130000
#0841a:1400001400000014
#08416:00001414
#08412:00140000000000000000140000000000
#08312:000034000000000000140000
#0831a:1414
#08315:00000000000000140000000000000000
#08319:0000001400000000
#08314:000000003400000000000000000000140000000000000000000000000000000000000000000000000000000000000000
#08318:000000140000003400000000
#08316:140034
#08218:0000000000140000
#0821a:2400000000000014
#08216:00140000000014000000000000000000
#08016:00001414
#08012:1400001400000014
#0801a:00140000000000000000140000000000
#07912:14
#07916:003400000000
#07914:003400000000000000000000
#02416:0000000000140014
#02412:2400001400000000
#0241a:00140000000000000000000000000000
#02410:41
#02016:0000000000140014
#0201a:2400001400000000
#02012:00140000000000000000000000000000
#03712:00130013
#03715:0000000000130013
#03718:0013
#0371b:0000001300000000
#0351c:0012
#0351a:0000001200120000
#03515:0000000000000013
#03512:13131313
#03518:00000012000000000000000012000000
#03516:0012000000000000
#0351b:13
#02612:0000000014000014
#02616:00140000000014000000000014000000
#0261a:1400000000140000
#0321b:1300000013130000
#03217:0000000000000013
#03219:0000001300001300
#03212:13131313
#0331b:00130000000000001300130000000000
#03318:0000000000001313
#03319:0000001300000000
#03312:13131313
#03116:00000000001300000000000000000000
#03112:0013000000130000
#03118:0000000000000013
#03115:13000013
#0311b:13131313
#03419:00000013001300130000000000000000
#0341b:0013131300000000
#0341a:0000000000130013001300130013001300000000000000000000000000000000
#03412:13131313
#03012:0000130000000013
#03014:0013000000000000
#03016:13
#0301b:13131313
#02916:0000000000000013
#02914:00130013000000000000000013000000
#02912:1313000000130000
#0291b:13131313
#02913:0013001300130013000000000000000000000000000000000000000000000000
#02815:00000000001300000000130000000000
#02814:00001300000000000000000000000013
#02813:0000000000000000000000000000000000000000000000000000000000130013
#02812:0000130000000013
#02818:0000001300000000
#0281b:23131313
#0251a:1400141414000000
#02512:14000014
#02516:000000000000000034000000000000140000000000140000000000000000000034000000000000000000000000000000
#02518:000000000000003400000000
#02514:003400000000000000000000
#02216:00140000000014000000140000001400
#02212:0014
#0221a:14000014
#02112:1400140000141400
#0211a:14
#02116:000000000000000034000000000000140000000000000000000000000000000000140000000000000000000000000000
#02118:003400000000000000000000
#01512:1313
#01515:0013000000000013
#01518:00000013
#0151b:1300000000130000
#01212:2300000000000013
#0121b:1300000000130000
#01218:0013001300000000
#01215:00130013
#01210:41
#01412:1300000000130000
#01415:00131313
#01418:0013001300000013
#0141b:13
#01312:0013
#01315:0000130000000013
#0131b:0000000000130000
#01318:00001313
#04718:0000000000130000
#04717:00130000000000000000000000000000
#04715:0000130000130000
#06917:00130013
#06916:1313
#06912:00000013
#06919:0000000000130000
#06816:1300000000000000000000000013000013000000000000000000000000130000
#06817:0000000000000000130000000000000000000000001300001300000000000000
#0681b:13
#05516:0000000014140000
#05512:0000141400000000
#0551a:0000141400000000
#05018:2400000000140000
#0501a:0000001400000000
#05016:0000240000000014
#05012:00000024
#05014:0024
#0461b:00130000000000000000130000001300
#04612:00130000000000000000130000001300
#04618:0013
#04615:0000001300000000
#04515:0000000000130013
#04518:0000000013000013
#04512:00000013
#0451b:0000001300000000
#09016:0000130000000013
#09017:13
#0901b:00000013
#09018:0000000000130000
#09015:0013
#09012:2300001300000000
#0891b:0013000000000013
#08918:13000013
#08915:0000000000130000
#08912:0013
#09216:00000000000000000013000000000000
#09212:0013000000000000
#0921b:00000000000000000013000000000000
#09217:0013000000000000
#09215:13
#09118:0000130000130013
#09115:0013
#09112:0000001300000000
#0911b:00000013
#08815:0000130000130013
#08812:00000013
#08818:0013
#0881b:0000001300000000
#08715:0000000000130013
#08718:00000013
#08712:1414141400000000
#08713:0000001200000012000000120000000000000000000000000000000000000000
#0871a:1414141400000000
#0871b:0000001200000012000000120000000000000000000000000000000000000000
#06612:0000130000000013
#06615:0000001300000000
#06618:0013
#0661b:0000000000130000
#0731b:0000130000000013
#07312:1300000000130000
#07314:00000013
#07319:00000013
#07317:0000000000130000
#07315:0013
#07318:0000001300000000
#07316:0000000000000013
#0651b:1300000000130000
#06519:00000013
#06512:0000130000000013
#06517:0000000000000013
#06514:00000013
#06516:0000000000130000
#06518:0013
#06515:0000001300000000
#07816:0000141400000000
#07812:24
#07810:41
#07712:00131300
#0771b:13
#07717:0013
#07715:13
#0741b:0000130000001313
#07414:00000013
#07416:0000000000000013
#07412:0000000000130000
#07415:0013
#07418:0000001300000000
#0751b:0000000000130000
#07512:0000131300000013
#07517:0000001300000000
#07216:13
#0721b:00000013
#07217:0000001313000000
#07212:0000000000000013
#0711b:13000000000000000000000000000013
#07117:0000001313000000
#07112:00000000130000130000000000000000
#07116:0000000000000013
#0671b:0013001300000013
#06716:0000130000000013
#06712:0000000000130000
#06417:13
#06412:00000013
#06416:0000001313000000
#0641b:0000000000000013
#06312:13000000000000000000000000000013
#06316:0000001313000000
#0631b:00131300
#06317:0000000000000013
#06310:41
#06217:00000013
#06216:00130000
#06212:1300000000000013
#0621b:0000001313000000
#0621f:21
#0621a:24
#07616:00130000
#07614:0000000000000013
#0761a:0000000000000013
#07613:00000013
#07619:00000013
#07618:0000000000130000
#07016:00000013
#07012:0013
#07017:0013
#0701b:0000130000000013
#07014:0000001300000000
#0701a:24
#10012:0000001300000016
#1001b:00000013
#10018:0013000000130000
#10015:00131300
#09716:0014
#0971b:00130013
#09516:0014
#09512:00130013
#08613:2200001200000012000000120000001200000012000000120000001200000012
#08612:0014141414141414
#0861b:2200001200000012000000120000001200000012000000120000001200000012
#0861a:0014141414141414
#0591b:00130000
#05918:1300001300130000
#05915:0013000013000013
#05912:00140013
#0591a:00000014
#05815:0013
#0581a:00000014
#05818:2600001300000000
#0581b:00130000
#05812:24140000
#06016:00000000000000000014000014000000
#06012:26140000
#0601a:1414
#05313:0014001400140014000000000000000000000000000000000000000000000000
#05314:00140014000000000000000000000000
#05312:1414001300000000
#05319:0014001400140014000000000000000000000000000000000000000000000000
#05318:00140014000000000000130000000000
#0531a:1414000000000000
#0531b:00000013
#05315:0013
#0441b:13000013
#04418:0000000000130026
#04415:2313
#04412:0000001300000026
#0421b:0013000000000000
#04216:0013000000000000
#04112:0013000000000013
#04116:0000001300130000
#04114:00130000
#0381b:0000130000000013
#0381a:00000013
#03819:0000000000130000
#03818:1313
#03812:0013000000000000
#03918:0013000000002200
#03916:0000000000220022
#04315:1300000013000013
#04318:0000130000131300
#04312:0000131300001300
#0431b:1313000013000000
#04018:22130013
#04015:0000001300130000
#04012:0013
#04016:0022000000000000
#01915:00000000000000000000130000130013
#01918:0000000000002313
#0191b:2323
#01912:2323
#01712:23130013
#01718:00000000000000002300000000000013
#01715:0000001300130013
#0171b:13130013
#01812:24132413
#0181b:1313
#01817:0000001300000023
#01816:0013000000230000
#0181a:00240024
#0161b:0000000023000013
#01612:2300001300000000
#01115:1300130013001313
#01118:00000000000000000000000000130000
#01014:13131313
#00913:13131313
#00812:00131313
#00718:13131313
#00619:13131313
#0051a:13131313
#0041b:13131313
#06112:0026000000000000
#06118:26
#0571a:0024
#05712:2426
#05718:26
#0491a:00000024
#04912:0026
#04919:00240000
#04814:0026
#04810:41
#05456:0000000000000012
#05458:0000000000000012
#05452:0000000000550000
#05459:0000000000650000
#0545a:24
#05455:24
#0565a:14
#04852:13
#0485b:13
#01958:00130000
#01955:00130000
#06152:0036000000000000
#06158:46
#05752:0016
#05758:16
#07852:14
#0705a:14
#07056:00000023
#07052:0053
#0625a:14
#06257:00000023
#06256:00230000
#06252:53
#0625b:0063
#06052:16540000
#06056:00000064
#0605a:64
#05858:16
#05855:0063
#0585a:00000014
#05852:00140000
#01652:13
#01252:13
#0275a:6464
#02752:00540054
#0235a:00640064
#02352:5454
#08556:0024540000240000
#08552:5454
#0855a:0000002400000000
#08156:0024640000246400
#0815a:6464
#08152:0000002400000024
#08352:00000054
#0835a:0064
#08356:64
#07952:54
#03652:00000023
#03655:0000000000630000
#03658:0000000000000053
#0325b:63
#03257:0000000000000053
#0335b:00230000000000000000000000000000
#03358:0000000000000053
#03156:00000000002300000000000000000000
#03152:0053000000000000
#03459:00000023002300230000000000000000
#0345b:0023232300000000
#0345a:0000000000530053005300530053005300000000000000000000000000000000
#02855:0000000000630000
#02854:00000000000000000000000000000023
#02853:0000000000000000000000000000000000000000000000000000000000630063
#02852:0000000000000023
#02954:00230023000000000000000000000000
#02952:2323000000000000
#02953:0063006300630063000000000000000000000000000000000000000000000000
#0255a:0064
#02552:54000024
#04758:0000000000530000
#04757:00230000000000000000000000000000
#04755:0000000000630000
#06957:00530000
#06956:63
#06952:00000053
#06856:6363
#06857:00530053
#05556:0000000024540000
#05552:0000005400000000
#0465b:00230000000000000000430000006300
#04652:00230000000000000000330000001300
#04555:0000000000000063
#04558:0000000000000053
#09056:0000000000000063
#09057:53
#0895b:0063000000000000
#09256:00000000000000000023000000000000
#09252:0053000000000000
#0925b:00000000000000000023000000000000
#09257:0053000000000000
#07752:0053
#0775b:63
#0745b:0000000000000063
#0755b:0000000000630000
#07552:0000005300000053
#07356:0000000000000063
#07352:53
#07256:63
#0725b:00000023
#07257:0053
#0715b:23
#07157:0053
#0675b:0000006300000000
#06752:0000000000130000
#06652:0000000000000023
#0665b:0000000000630000
#06557:0000000000000053
#0655b:63
#06457:53
#06452:00000023
#06456:0063
#06352:23
#06356:0063
#07656:00230000
#10052:0000000000000066
#09652:66
#09458:56
#09858:56
#08752:6464646400000000
#08753:0000002200000022000000220000000000000000000000000000000000000000
#0875a:5454545400000000
#0875b:0000002200000022000000220000000000000000000000000000000000000000
#08653:0000002200000022000000220000002200000022000000220000002200000022
#08652:0064646464646464
#0865b:0000002200000022000000220000002200000022000000220000002200000022
#0865a:0054545454545454
#05952:00140000
#0595a:00000014
#05353:0064006400640064000000000000000000000000000000000000000000000000
#05354:00240024000000000000000000000000
#05352:2424000000000000
#05359:0054005400540054000000000000000000000000000000000000000000000000
#05358:00240024000000000000000000000000
#0535a:2424000000000000
#05253:0000000000000000000000000000000000000000000000000000000000640064
#05254:00000000000000000000000000000024
#05252:0000000000000024
#05259:0000000000000000000000000000000000000000000000000000000000540054
#05258:00000000000000000000000000000024
#0525a:0000000000000024
#0445b:63
#02152:00000024
#0215a:64
#0425b:0023000000000000
#04256:0063000000000000
#04152:0000000000000053
#04156:0000000000630000
#0385b:0000000000000063
#03958:0053000000000000
#004320:13333333
#004340:0033003300330033
#005320:33333333
#005340:0033003300330033
#006320:33333333
#006340:0033003300330033
#007320:33333333
#007340:0033003300330033
#008320:23
#0083b1:13333333
#008391:0033003300330033
#0093b1:33333333
#009391:0033003300330033
#0103b1:33333333
#010391:0033003300330033
#0113b1:33333323
#011391:0033003300330000
#012321:0000001300000000
#012351:0000000000230000
#012381:0000000000000013
#0133b1:00230000
#015381:0013000000000000
#0153b1:0023
#0163b1:13
#016371:0000002300000000
#016321:0013
#016361:0000000000000023
#0193b1:13
#019381:00530000230000000000000000000000
#019320:13
#019350:00530000230000000000000000000000
#0203a0:0014240000000000
#020361:0000142400000000
#020321:0000000014240000
#0203a1:0000000000001424
#0213a1:14
#021381:003400000000000000000000
#021361:000034240000000000000000
#021321:0000001424000000
#0213a0:0000000014240000
#021320:00000014
#022360:24
#0223a0:0014240000000000
#022321:0000142400000000
#023321:14
#023341:003400000000000000000000
#023361:000034240000000000000000
#0233a0:00140000
#023380:003400
#023360:000000000034240000000000
#023321:0014
#023341:000000000000003400000000
#023361:000000000000000034240000
#0233a0:00000014
#023380:000000000034
#023360:000000000000000000000034
#024360:24
#024320:0014240000000000
#024361:0000142400000000
#0243a1:0000000014240000
#024321:0000000000001424
#025321:14
#025341:003400000000000000000000
#025361:000034240000000000000000
#0253a1:0014
#025381:000000000000003400000000
#025361:000000000000000034240000
#025320:00000014
#026360:24
#0263a0:0014240000000000
#026321:0000142400000000
#0273a1:14
#027381:003400000000000000000000
#027361:000034240000000000000000
#027320:00140000
#027340:003400
#027360:000000000034240000000000
#0273a1:0014
#027381:000000000000003400000000
#027361:000000000000000034240000
#027320:00000014
#028360:24
#028350:0000000000130000
#028320:0000000000000033
#028330:0000000000000000000000000000000000000000000000000000000000530053
#028340:00000000000000000000000000000053
#029320:5353530023000000
#029330:0053005300530053000000000000000000000000000000000000000000000000
#029340:00530053000000000000000000000000
#030320:0000001300000000
#030330:0033
#030340:0000000000330000
#030350:00000023
#031320:0013000023000000
#031360:00000000005300000000000000000000
#0323b0:13
#032370:00230000
#032370:0000000000000013
#0333b0:00530000000000000000000000000000
#033370:00230000
#033380:0000000000000013
#0343b0:0033535353002300
#0343a0:0000000000530053005300530053005300000000000000000000000000000000
#034390:00000053005300530000000000000000
#0363b0:1323000000000000
#036321:0013230000000000
#036351:0000000000130023
#036321:00000053
#036380:0000000000000013
#0373b0:00230000
#038320:0000001300000000
#039320:0023
#0383b1:0000000000000013
#039381:0033000000000000
#0393b1:0023
#039361:0000000000122200
#039380:0000000000001222
#039361:0000000000000012
#040361:22
#040380:1222000000000000
#040361:0012220000000000
#0403b1:0000000000000013
#0423b1:0053000000000000
#042371:00000023
#041360:0000000013330000
#041320:0000000000000033
#042360:0033000000000000
#042320:00000023
#0443b0:13
#044380:0000002300000000
#044320:000000000000000000000000000000000000000000000000000000000000000000000000000000000000000000000000000000000000000000000000000000000000000000000000000000000000000000000000000000000000000000000000000000000000000000000000000000000000000000000000000000000000000000000000000000000000000000000000000000000000000000000000000000000000000000000000000000000000000000000000000000000000000000000000000000000000000000000000000000000000000000000000000000000000000000000000000000000000000000000000000000000000000000000000000000000000000000000000000000000000000000000000000000000000000000000000000000000000000000000000000000000000000000000000000000000000000000000000000000000000000000000000160000000000000000000057000000000000005600000000540000000056000000000000005700000000000000000000
#045320:000000000000000000000056000000000000005500000000530000000055000000000000005600000000000000000000000000000000000000000055000000000000005400000000520000000054000000000000005500000000000000000000260000000000000000000000000000000000000000000000000000000000000000000000000000000000000000000000000000000000000000000000000000000000000000000000000000000000000000000000000000000000000000000000000000000000000000000000000000000000000000000000000000000000000000000000000000000000000000000000000000000000000000000000000000000000000000000000000000000000000000000000000000000000000000000000000000000000000000000000000000000000000000000000000000000000000000000000000000000000000000000000000000000000000000000000000000000000000000000000000000000000000000000000000000000000000000000000
#044381:0000000000000016
#044391:000000000000000000000000000000000000000000000000000000000000000000000000000000000000000000000000000000000000000000000000000000000000000000000000000000000000000000000000000000000000000000000000000000000000000000000000000000000000000000000000000000000000000000000000000000000000000000000000000000000000000000000000000000000000000000000000000000000000000000000000000000000000000000000000000000000000000000000000000000000000000000000000000000000000000000000000000000000000000000000000000000000000000000000000000000000000000000000000000000000000000000000000000000000000000000000000000000000000000000000000000000000000000000000000000000000000000000000000000000000000000000000000000000000000000000000055000000000000000000000000000000000000000000000000005500000000000000000000
#0443a1:000000000000000000000000000000000000000000000000000000000000000000000000000000000000000000000000000000000000000000000000000000000000000000000000000000000000000000000000000000000000000000000000000000000000000000000000000000000000000000000000000000000000000000000000000000000000000000000000000000000000000000000000000000000000000000000000000000000000000000000000000000000000000000000000000000000000000000000000000000000000000000000000000000000000000000000000000000000000000000000000000000000000000000000000000000000000000000000000000000000000000000000000000000000000000000000000000000000000000000000000000000000000000000000000000000000000000000000000000000000000000000000000000000000000000000000000000000000000005400000000000000000054000000000000000000000000000000000000
#0443c1:00000000000000000000000000000052
#045381:000000000000000000000056000000000000000000000000000000000000000000000000005600000000000000000000000000000000000000000000000000000000005600000000000000000056000000000000000000000000000000000000260000000000000000000000000000000000000000000000000000000000000000000000000000000000000000000000000000000000000000000000000000000000000000000000000000000000000000000000000000000000000000000000000000000000000000000000000000000000000000000000000000000000000000000000000000000000000000000000000000000000000000000000000000000000000000000000000000000000000000000000000000000000000000000000000000000000000000000000000000000000000000000000000000000000000000000000000000000000000000000000000000000000000000000000000000000000000000000000000000000000000000000000000000000000000000000000
#045391:000000000000000000000000000000000000005500000000000000000055000000000000000000000000000000000000000000000000000000000000000000000000000000000000000000000000000000000000000000000000000000000000000000000000000000000000000000000000000000000000000000000000000000000000000000000000000000000000000000000000000000000000000000000000000000000000000000000000000000000000000000000000000000000000000000000000000000000000000000000000000000000000000000000000000000000000000000000000000000000000000000000000000000000000000000000000000000000000000000000000000000000000000000000000000000000000000000000000000000000000000000000000000000000000000000000000000000000000000000000000000000000000000000000000000000000000000000000000000000000000000000000000000000000000000000000000000000000000
#0453b1:00530000000000000000000000000000
#045371:000000000000000000000000000000000000000000000000000000000000000000000000000000000000000000000000000000000000000000000057000000000000000000000000000000000000000000000000005700000000000000000000000000000000000000000000000000000000000000000000000000000000000000000000000000000000000000000000000000000000000000000000000000000000000000000000000000000000000000000000000000000000000000000000000000000000000000000000000000000000000000000000000000000000000000000000000000000000000000000000000000000000000000000000000000000000000000000000000000000000000000000000000000000000000000000000000000000000000000000000000000000000000000000000000000000000000000000000000000000000000000000000000000000000000000000000000000000000000000000000000000000000000000000000000000000000000000000000
#0453a1:00000054000000000000000000000000
#045381:0000000000000013
#0463b1:00530000000000000000000000000000
#046381:00230000
#045350:0000000000000013
#046320:00530000000000000000000000000000
#046350:00230000
#0463b0:0000000000000013
#047370:00530000000000000000000000000000
#0473b0:00230000
#047380:0000001300330000
#0483b0:23
#047351:0000000000130000
#048321:23
#048341:00001626
#0483a0:00000014
#0493a0:24
#049331:16260000
#049390:00142400
#049321:00001626
#051341:18280000
#051361:00001424
#052371:12220000
#052321:0000000000000014
#052331:0000000000000000000000000000000000000000000000000000000000540054
#052341:00000000000000000000000000000054
#053321:5454240000000000
#053331:0054005400540054000000000000000000000000000000000000000000000000
#053341:00540054000000000000000000000000
#0523a0:0000000000000014
#052390:0000000000000000000000000000000000000000000000000000000000540054
#052380:00000000000000000000000000000054
#0533a0:5454240000000000
#053390:0054005400540054000000000000000000000000000000000000000000000000
#053380:00540054000000000000000000000000
#053350:0000000000000014
#054350:54
#054320:00240000
#0533a1:0000000000000014
#0543a1:54
#054371:00240000
#054321:0000000000150000
#054361:0000000000000022
#054390:0000000000150000
#054380:0000000000000022
#055320:0000001400240000
#055360:0054
#055361:0000000000140000
#0563a1:24
#058351:0013
#059321:23
#0603a1:14
#060361:00240000
#060320:00140000
#060360:0024
#0603a0:0000000000142400
#060361:00000014
#061321:24
#062321:1323
#062361:00530000
#0623b0:0013
#062370:00000053
#0633b0:23
#063321:13
#063361:00230000
#063361:0013
#063321:0000000000000023
#064371:13
#0643b1:0023
#064360:0013
#064320:00000053
#065360:23
#0653b1:13
#065371:00230000
#065371:0000000000000013
#0663b1:00230000
#0663b1:0000000000130000
#066371:0000000000000023
#066320:0000000000000013
#067360:0023000000000000
#0673b0:0000001300000000
#067370:0000000000230000
#068360:13
#068320:00230000
#068371:00130000
#0683b1:0023
#068360:0013
#068320:00000023
#068371:00000013
#0693b1:23
#069360:13
#069320:00230000
#069371:00130000
#0693b1:0023
#069321:00000013
#070361:00230000
#070321:0013
#070361:00000053
#071321:23
#0713b0:13
#071370:00230000
#071370:0013
#0713b0:0000000000000023
#072360:13
#072320:0023
#072371:0013
#0723b1:00000053
#073371:23
#073320:13
#073360:00230000
#073360:0000000000000013
#074320:00230000
#0743b0:0000000000000013
#075370:00230000
#075320:0000001300000000
#075360:0000000000230000
#0753b1:0000000000130000
#075371:0000000000000023
#075320:0000000000000013
#076360:00530000
#076320:0000000000230000
#0773b0:13
#077370:00230000
#077320:0013
#077360:00000023
#0773b1:00000013
#0803b1:23
#078340:0000000014240000
#078320:0000000000001424
#079320:1400003424000000
#079340:000000003400000000000000000000340000000000000000000000000000000000000000000000000000000000000000
#079360:000034340000000000000000
#079320:0000000000140000
#079340:00000000000000000000003400000000
#079360:00000024
#080361:0014240000000000
#0803a0:0000142400000000
#0813a0:14240000
#081360:000034543400000000000000000000000000000000000000
#081361:00142400
#081321:000000000000000034543400000000000000000000000000
#0813a0:00001424
#081360:000000000000000000000000000034543400000000000000
#081361:00000014
#081321:000000000000000000000000000000000000000034543400
#082361:24
#0823a1:0014240000000000
#082320:0000142400000000
#082340:0000000014240000
#082360:0000000000001424
#083360:14
#083340:003400000000000000000000
#083320:000034240000000000000000
#0833a0:0014
#083380:000000000000003400000000
#083360:000000000000000034240000
#083321:00000014
#084361:24
#084361:0014240000000000
#084320:0000142400000000
#085320:14240000
#085360:000034543400000000000000000000000000000000000000
#085361:00142400
#0853a1:000000000000000034543400000000000000000000000000
#085320:00001424
#085360:000000000000000000000000000034543400000000000000
#086330:1200005200520052005200520052005200520052005200520052005200520052
#086320:0034343434343434
#087320:3434343400000000
#087330:0052005200520052005200520052000022000000000000000000000000000000
#0863b1:1200005200520052005200520052005200520052005200520052005200520052
#0863a1:0034343434343434
#0873a1:3434343400000000
#0873b1:0052005200520052005200520052000022000000000000000000000000000000
#088381:13230000
#0893b1:0013000000000000
#089371:0023
#090371:13
#0903b1:00230000
#090361:0000000000000013
#091321:00230000
#092321:0013000000000000
#092361:00000000000000000053000000000000
#093321:23
#092370:0013000000000000
#0923b0:00000000000000000053000000000000
#093370:23
#094380:16
#0953c0:0022
#096320:16
#097320:0022
#098380:16
#0993c0:0022
#100320:0000000000000016
#104320:22
