This file was generated by Ched 2.7.0.0.
#TITLE ""
#ARTIST ""
#DESIGNER ""
#DIFFICULTY 0
#PLAYLEVEL
#SONGID ""
#WAVE ""
#WAVEOFFSET 0
#JACKET ""
#REQUEST "ticks_per_beat 480"
#00002: 4
#BPM01: 184
#00008: 01
#TIL00: ""
#VOLUME: ""
#HISPEED 00
#MEASUREHS 00
#00818:0013000000001300
#00815:0000130000130000
#0081b:1300001300000000
#00812:1313
#02618:0014001400000000
#02614:00001414
#0261a:0000000000140014
#02612:00140000
#01215:00000013
#01212:0013000000000000
#01218:00130000
#0121b:23
#01210:41
#01418:0013001300000013
#01415:00131300
#0141b:13000013
#01412:0000000000130000
#01315:00000013
#01312:0000000000000013
#01318:0000000000130000
#01715:0000001300130013
#01718:00001313
#05212:0013
#05219:000000000000000000000014
#05218:000000000000000000000000000000130000000000000014
#0521a:0000000000000014
#05215:00000013
#0521f:11
#03812:0013000000000000
#0381b:00130000
#03815:0000000000000013
#03818:13
#04318:1313
#0431b:00130000
#04315:00000013
#0471b:00130000
#04712:0000001300000000
#04715:0000000000130000
#02512:1414
#02515:00000000143400000000000014000000
#02513:000000003400000000000000000000000000000000340000000000003400000000000000000000000000000000000000
#02514:000000003400000000340000000000003400000000000000
#04612:0013
#04618:0016000000130000
#04615:0000000000000013
#06718:0013000000000000
#06715:0000130000000013
#0671b:0000001300000013
#06518:0000000013000013
#0651b:0000001300000000
#06512:14000013
#06515:0000000000130000
#0681b:1313
#06818:00130013
#06815:1313
#06812:00130013
#0681a:0000000000000000000000000033000000000000000000000000000000330000
#06819:0000000000000000000000000000000000000000003300000000000000000000
#06814:0000000000000000000000000033000000000000000000000000000000330000
#06813:0000000000000000000000000000000000000000003300000000000000000000
#06618:0013
#06615:0000001300000000
#06612:0000000000130000
#09315:00131313
#09318:0000001300130013
#0691b:13
#06915:1300000000130000
#0691a:00000014
#06918:0013
#05018:2300000000000013
#0501b:0000232300130000
#05015:0000000000000013
#05012:0000232300130000
#01518:0000000000130013
#01515:13000013
#0241a:14
#02414:0000001400000000
#02412:0014000000000000
#02418:00140034
#02419:0000000000340000
#02410:41
#02815:0013000000000013
#0281b:23130000
#02818:0013
#02812:0000001300130000
#0041b:13
#00415:0013000000000000
#00418:00130000
#00515:0000000000130000
#0051b:00000013
#00512:0000000000000013
#00615:0000001300130000
#00618:0000000013000013
#0061b:00000013
#00715:13000013
#00718:0000000000130000
#00915:0000001300000000
#0091b:0013
#00912:0000000000130000
#01118:00130013
#01115:0000000013000013
#01919:000000000000000000000000000000000000001400140014
#01918:000000140000000000140014
#0191a:140000140014
#01913:000000000000000000000000000000000000001400140014
#01914:000000140000000000140014
#01912:140000140014
#0291b:0000000000130000
#02915:00000013
#02918:0000000000000013
#03015:13000013
#0301b:0013000000130013
#03012:00131300
#03018:0000001300000000
#03112:1300000000130000
#03118:0013000000000013
#03115:00000013
#0321b:1313
#03218:00000013
#03215:0000001300000000
#03212:0000000000130013
#0331b:0000000000130000
#03312:00000013
#03318:0000001300000013
#03315:0013
#0351b:0000000000000013
#03518:1313
#03515:00130013
#0341b:0013000000000000
#03415:00000013
#03715:0000001300000013
#0371b:0013
#03712:0000000000130000
#03718:00000013
#03912:0013000000002600
#03918:0000000000260026
#04412:1300000000130000
#0441b:0013
#04418:00000013
#04415:0000000000000023
#04512:00190000000000001300000000000000
#04518:0000000000130000
#04515:00000013
#0451b:0000001300000013
#06212:0000001400000000
#06215:0000000000000014
#06217:0014
#0621a:24
#0621f:21
#06412:14
#0641a:0000001400000000
#06415:0014
#06417:0000000000000014
#0631a:14
#06317:0014
#06312:0000001400000000
#06314:0000000000000014
#06318:00000000000000000000000000000014
#06310:41
#08414:0014001400000000
#08418:00001414
#08412:0000000000140014
#0841a:00140000
#0831a:1414
#08317:00000000143400000000000014000000
#08319:000000003400000000000000000000000000000000340000000000003400000000000000000000000000000000000000
#08318:000000003400000000340000000000003400000000000000
#08218:0000001400000000
#0821a:0014000000000000
#08214:00140034
#08213:0000000000340000
#0801a:0000000000140000
#08014:00001414
#08018:0000001400000014
#08012:00140000
#09015:0013000000001300
#09018:0000130000130000
#09012:1300001300000000
#0901b:2313
#08612:13
#08618:0013000000000000
#08615:00130000
#08718:0000000000130000
#08712:00000013
#0871b:0000000000000013
#08818:0000001300130000
#08815:0000000013000013
#08812:00000013
#08918:13000013
#08915:0000000000130000
#09118:0000001300000000
#09112:0013
#0911b:0000000000130000
#09915:0000000000130000
#09918:00001313
#10018:0000000000000013
#10015:0000000000000013
#09412:1600340000000034
#09618:16
#0961a:0000340000000034
#09812:16340034
#05319:141414000000000000000000
#0531a:001400000014000000000000000000000000000000000000
#05318:0014000000001300
#05312:0000000000130014
#0531b:0013
#05315:0000001300000000
#02019:001400140014001400140014001400140014001400140014
#0201a:141414141414
#02018:001400140014001400140014
#02013:001400140014001400140014001400140014001400140014
#02012:141414141414
#02014:001400140014001400140014
#02119:00140014001400140014001400140014
#0211a:14141414
#02118:0014001400140014
#02113:00140014001400140014001400140014
#02112:14141414
#02114:0014001400140014
#0221a:14
#02212:14
#04115:0000130000000013
#04118:0000001300000000
#04112:0000000000130000
#04015:00131313
#04018:0026001300130000
#04012:26
#04216:0000000000000000000000000013000000000000000000000000000000000000
#04212:0013000000000000
#04912:1414
#0491a:00140000
#04918:2424
#04914:00240000
#04915:00000023
#0481a:00000014
#04812:0014
#04814:00000024
#04818:0024
#04810:41
#03618:0013000000000013
#03612:23130000
#03615:0013
#0361b:0000001300130000
#03610:41
#0511b:00000013000000000000000000000000
#05112:00000013000000000000000000000000
#05418:0000001300160000
#05415:0013
#05618:0000001300000000
#0561b:0000000000130000
#05612:00240000
#05614:0024
#05616:00000024
#05815:0000001300000000
#05818:2613
#05918:0013000000001300
#05915:0000130000130000
#06015:13
#0601b:13
#06018:0000001300000000
#06012:0000001300000000
#05512:00130000
#0551b:0000001300000000
#05518:0000000000130000
#0761b:0000000000130000
#07618:00000013
#07615:0000000000000013
#07616:00000013000000000000000000000000
#07712:13000013
#07716:0013
#0771b:0013
#07717:00000013
#07012:0000001400000000
#07015:0000000000000014
#07017:2414
#0711a:1400000000000014
#07112:0000001414000000
#07117:00000000000000140000000000000000
#07115:00000000000000000000000000000014
#0721a:14
#07212:0000001400000000
#07217:0014
#07215:0000000000000014
#0731a:14
#07315:0000000013000013
#07312:0000001300000000
#0731b:00000013
#07318:0000000000130000
#0741b:0000001300000000
#07412:00000013
#07418:0000000000130013
#07415:0013
#07512:0000001300000013
#07515:0000000000130000
#07816:0000000000000013
#0781b:0000000000000013
#07810:41
#06118:26
#06112:0026000000000000
#0181a:0000000000000024
#01812:0000000000000024
#05718:26
#05712:0026
#09512:00340034
#0971a:00340034
#02552:5454
#02555:00640064
#06558:0000000000000053
#06552:54
#0675b:0000006300000000
#0685b:6363
#06858:00530053
#06855:6363
#06852:00530053
#04658:0026000000130000
#04655:0000000000000013
#04852:13
#0695b:63
#06955:63
#0695a:00000064
#05058:0000000000000053
#0505b:0000000000630000
#05055:0000000000000063
#05052:0000000000530000
#0125b:13
#01959:000000000000000000000000000000000000006400640064
#01958:000000640000000000240024
#0195a:640000640024
#01953:000000000000000000000000000000000000005400540054
#01954:000000540000000000240024
#01952:540000540024
#02852:0000000000530000
#02855:0000000000000063
#03158:0053000000000000
#0325b:63
#03252:0000000000000053
#03358:0000000000000053
#0345b:0063000000000000
#03855:0000000000000063
#03952:0053000000000000
#04452:53
#04455:0000000000000023
#0455b:0000000000000063
#04552:00690000000000000000000000000000
#06452:54
#06455:0064
#0635a:64
#06357:0054
#06257:0054
#0625a:64
#06652:0000000000530000
#0835a:6464
#08357:00540054
#10058:0000000000000053
#10055:0000000000000063
#09452:66
#09658:56
#09852:66
#05259:000000000000000000000064
#05258:000000000000000000000000000000000000000000000024
#0525a:0000000000000024
#05359:646464000000000000000000
#0535a:002400000024000000000000000000000000000000000000
#05358:0024000000000000
#05352:0000000000000024
#02059:006400640064006400640064006400640064006400640064
#0205a:242424242424
#02058:002400240024002400240024
#02053:005400540054005400540054005400540054005400540054
#02052:242424242424
#02054:002400240024002400240024
#02159:00540054005400540054005400540054
#0215a:24242424
#02158:0024002400240024
#02153:00640064006400640064006400640064
#02152:24242424
#02154:0024002400240024
#0225a:24
#02252:24
#04155:0000000000000063
#04152:0000000000530000
#04252:0053000000000000
#04256:0000000000000000000000000023000000000000000000000000000000000000
#0365b:0000000000630000
#03658:0000000000000053
#04752:0000005300000000
#04755:0000000000630000
#0515b:00000023000000000000000000000000
#05152:00000023000000000000000000000000
#05458:0000000000660000
#0545b:0000000000000013
#05858:1653
#05758:16
#05752:0016
#05955:00630000
#05958:00000053
#06055:63
#0605b:63
#06058:0000002300000000
#06052:0000002300000000
#0555b:0000006300000000
#05558:0000000000530000
#0565b:13
#07752:53000053
#07756:0063
#0775b:0063
#07757:00000053
#0715a:64
#07152:0054
#07057:1454
#0725a:64
#07257:0054
#0735a:64
#07355:0000000000000063
#07458:0000000000000053
#07552:0000005300000053
#07555:0000000000630000
#07656:00000023000000000000000000000000
#07856:0000000000000023
#0785b:0000000000000023
#004320:0000001300000000
#004350:0000000000230000
#0043b0:0000000000000013
#005380:00230000
#006380:13230000
#007320:0013000000000000
#007350:0023
#0083b0:0000000000000013
#009380:00230000
#009380:0000000000000013
#011380:23
#010351:0013000000000000
#011351:23
#012351:0000001300000000
#012321:0000000000230000
#012381:0000000000000013
#0133b1:00230000
#015321:0013000000000000
#015351:0023
#016351:13
#016321:0000002300000000
#016381:0013
#0173b1:23
#0183b1:13
#018381:0000003323000000
#018320:13
#018350:0000003323000000
#0183a0:0000000000000014
#0193a0:340000340054
#019380:000000340000000000340054
#019390:000000000000000000000000000000000000005400540054
#0203a0:545454545454
#020390:005400540054005400540054005400540054005400540054
#020380:005400540054005400540054
#0213a0:54545454
#021390:00540054005400540054005400540054
#021380:0054005400540054
#0223a0:54
#023380:00000024
#018321:0000000000000014
#019321:340000340054
#019341:000000340000000000340054
#019331:000000000000000000000000000000000000005400540054
#020321:545454545454
#020331:005400540054005400540054005400540054005400540054
#020341:005400540054005400540054
#021321:54545454
#021331:00540054005400540054005400540054
#021341:0054005400540054
#022321:54
#023341:00000024
#0243a1:0014
#024391:0000000000340000
#024381:0000000000003424
#025321:1434
#025331:000000003400000000000000000000000000000000340000000000003400000000000000000000000000000000000000
#025341:000000003400000000340000000000003400000000000000
#025351:00000000343400000000000034000000
#026321:24
#027321:1434
#027331:003400000034003400000000
#027341:003434003400
#027351:00340024
#028321:0000000000130000
#028351:0000000000000033
#029321:0023
#031381:0013000000000000
#0313b1:0023
#0323b1:13
#032381:00230000
#032321:0000000000000013
#033351:00230000
#033381:0000000000000013
#0343b1:0033000000000000
#034381:0023
#0363b1:0000000000130000
#036381:0000000000000033
#0373b1:00230000
#038321:0000001300000000
#038331:0033
#038341:0000000000330000
#038351:0000000000003333
#039321:0033000000000000
#039351:0023
#040381:0000000000000013
#0413b1:0023000000000000
#041321:0000000013330000
#041351:0000000000000033
#042321:0033000000002300
#042361:0000000000000000000000000053000000000000000000000000000000000000
#044321:13
#044351:0000002300000000
#044351:0000000000000013
#045321:00590000000000000000000000000000
#045351:00230000
#0453b1:0000000000000013
#046381:0056000000000000
#0463b1:0000002300000000
#047321:0000001300000000
#047351:0000000000330000
#048321:23
#0503b1:0000001300330000
#050381:0000000000000033
#0513b1:00000053000000000000000000000000
#051381:0033
#052381:23
#050320:0000001300330000
#050350:0000000000000033
#051320:00000053000000000000000000000000
#051350:0033
#052350:23
#0523a0:0000000000000014
#052390:000000000000000000000054
#052380:000000000000000000000000000000000000000000000054
#053390:545454240000000000000000
#0533a0:005400000054000000000000000000000000000000000000
#053380:0054000000000000
#053320:0000000000000014
#054340:00240000
#054380:0000000000160000
#0543b0:0000000000000023
#0553b0:0000001300000000
#055380:0000000000330000
#0563b0:23
#058380:0013
#0593b0:23
#059350:00130000
#059320:0023
#059380:00000013
#0603b0:33000023
#060380:0000005300000000
#060351:13000023
#060321:0000005300000000
#0623a1:14
#062371:00240000
#062371:0014
#0623a1:00000024
#0633a1:14
#063371:00240000
#063371:0014
#0633a1:00000024
#064321:14
#064351:00240000
#064351:0014
#064321:00000024
#065321:14
#065351:00240000
#065381:0000000000000013
#0663b1:00230000
#066321:0000000000130000
#066351:0000000000000023
#0673b1:0000001300000000
#067381:0000000000230000
#0683b1:1333
#068381:00330033
#0683a1:0000000000000000000000000033000000000000000000000000000000330000
#068391:0000000000000000000000000000000000000000003300000000000000000000
#0693b1:33
#069381:00230000
#068350:1333
#068320:00330033
#068340:0000000000000000000000000033000000000000000000000000000000330000
#068330:0000000000000000000000000000000000000000003300000000000000000000
#069350:33
#069320:00230000
#0693a0:00000014
#070370:24
#070370:0014
#0703a0:00000024
#0713a0:14
#071370:00240000
#071320:0014
#071350:00000024
#0723a0:14
#072370:00240000
#072370:0014
#0723a0:00000024
#0733a0:14
#073370:00240000
#073350:0000000000000013
#074320:00230000
#074380:0000000000000013
#0753b0:00230000
#075320:0000001300000033
#075350:0000000000330000
#076360:00000053000000000000000000000000
#076320:0023
#077320:13000033
#077360:00333300
#078360:0000000000000053
#080320:23
#0773b1:0013
#077371:00000033
#0783b1:0000000000000053
#080371:23
#081321:1434
#081331:003400000034003400000034
#081341:003434003434
#081351:00340034
#082321:24
#082321:0014
#082331:0000000000340000
#082341:0000000000003424
#0833a1:1434
#083391:000000003400000000000000000000000000000000340000000000003400000000000000000000000000000000000000
#083381:000000003400000000340000000000003400000000000000
#083371:00000000343400000000000034000000
#0843a1:24
#0853a1:1434
#085391:003400000034003400000000
#085381:003434003400
#085371:00340024
#0863b1:0000001300000000
#086381:0000000000230000
#086321:0000000000000013
#087351:00230000
#088351:13230000
#0893b1:0013000000000000
#089381:0023
#090321:0000000000000013
#091351:00230000
#091351:0000000000000013
#093351:23
#092380:0013000000000000
#093380:23
#094320:1600340000000034
#095320:00340034
#096320:24
#096381:16
#0963a1:0000340000000034
#0973a1:00340034
#0983a1:24
#098320:16340034
#099320:00240000
#099350:0000000000000013
#100350:0000000000000033
#104320:23
#100381:0013333333333333
#1043b1:23
