This file was generated by Ched 2.7.0.0.
#TITLE ""
#ARTIST ""
#DESIGNER ""
#DIFFICULTY 0
#PLAYLEVEL
#SONGID ""
#WAVE ""
#WAVEOFFSET 0
#JACKET ""
#REQUEST "ticks_per_beat 480"
#00002: 4
#BPM01: 184
#00008: 01
#TIL00: ""
#VOLUME: ""
#HISPEED 00
#MEASUREHS 00
#01212:1313
#0121b:0000131300001300
#01215:0013130000001300
#01217:0000000013000013
#0121a:24
#01210:41
#0131b:0000000013130000
#01319:00000013
#01315:00130013
#01312:1313
#01317:0000000000000013
#01414:0013000013000000
#01412:0000131300001313
#01418:00130013
#01416:1300000000130000
#0141b:1313
#01518:00130013
#01516:1313000000130000
#01514:00000013
#0151b:1313
#01512:0000000000000013
#0161b:1300001323001300
#01612:2300130013000013
#01715:0000000000000013
#01718:00000000000000000000000000000013
#01716:0000000000140000
#01712:00001313
#01719:13130000
#01714:23130000
#01717:0012001200000000
#0171b:00002313
#0181a:14240000
#01812:24142616
#01818:00001626
#01815:0016001600000000
#01814:0000000000280028
#01912:2400000023130000
#0191b:0000000023130000
#01918:00000000000000000000000000130013
#01915:0000000000002313
#0191a:24
#05219:0012
#0521a:0000000000000000000000000000000000000000120000001200000000000012
#0521b:00000000000000000000000000001212
#0521c:0000000000000000000000000000000000000000000000000000000000120000
#0521f:11
#0371b:00231313
#03712:0000001300002300
#03716:0013
#03715:00000000000000000000001300000000
#03718:0000000000130000
#03719:0013000000000013
#03717:13
#03817:13
#03819:0013000000000000
#03812:13130013
#03816:0000000013000013
#03814:0000001300130000
#0381b:0000230013002313
#05317:0000001313000000
#05319:0000000000131300
#0531b:12121212000000000000000000000000
#0531c:0012000000120000000000000000000000000000000000000000000000000000
#0531a:0000001200000012000000000000000000000000000000000000000000000000
#0541b:13
#05418:0000001414000000
#05416:0000000000180000
#05516:00000000140014000000000000140000
#0551a:0000000000140000
#05812:26140000
#0581b:00131300
#05818:2600001300000000
#05815:0000000013000013
#0581a:00000014
#0591b:1300001300000000
#05918:00000013000000001300130000000000
#05912:1300140000000013
#05915:00001300000000130000001300000000
#0591a:00000014
#06016:00001400000014000014000000001400
#0601a:1414
#06012:26140000
#0561b:0013
#05612:00132413
#05615:00000000000013000000001300000000
#05618:00000000000000130000130000000000
#0561a:00240024
#05616:0000000000000024
#06219:0000001300000000
#06212:1300001313001300
#0621b:0000130000130013
#06217:0013
#06216:0013000000000013
#06218:26
#0621f:21
#0631b:00000000130000000000000000000013
#06319:0000001300000000
#06312:1300001313000000
#06317:1313
#06316:0013000000001313
#06310:41
#06414:0000001300000013
#06419:0000001300000013
#06416:1313
#06412:0000000000130000
#0641b:00001313
#06417:00130000
#06517:1300001300000013
#06519:00001313
#0651b:0013000000130000
#06512:13130000
#06712:0000000000130000
#06716:0000000000000013
#0671b:0000001300000013
#06118:1626000012121313
#06116:00000000000000000012001200000000
#06115:00000000000000000000000000130013
#06112:2616000000000000
#10016:0012
#10018:0000001200120000
#1001a:0000120000001214
#10012:0014000000000000
#1001c:0012000000000000
#06617:00000000000000000013000000000000
#06616:00000000000000000000000000130000
#0661b:00130000000000000000000013000000
#06612:2313
#06914:0000000000130000
#06912:1300001300001300
#0691b:0013000013001300
#06915:00130000
#06917:13
#06817:0000000013000000000000000000000000000000000000000000000000130000
#0681b:1300000000000000000000000013000013000000000000000000000000000000
#06819:0000000000000000000000000000000000000000001300001300000000000000
#06816:13
#0221b:2300131300001300
#02219:0000000000130000
#02215:00130000000000000000000000000000
#02218:0013000000000000
#02212:00132300
#02216:00000013
#02214:0000000000000013
#0221a:0000000000000000000000000033000000000000000000000000000000000000
#0271b:00000013
#02712:23142314
#02714:001400001400
#02717:001400000000001400000000
#0271a:1414
#02715:001400
#02718:000000000014000000000000
#02115:000014000000000000130000000000130000000000000000
#02118:000000000000000014000000000000000000000000000000000000000000000000130000000000000000000000000000
#02112:14131313
#0211b:23000000001300002300000013000000
#02116:0000000000000013
#02612:2300131300001300
#02618:00130000000000000000000000000000
#02615:0013000000000000
#0261b:00132300
#02617:00000013
#02619:0000000000000013
#02614:0000000000130000
#02613:0000000000000000000000000033000000000000000000000000000000000000
#02817:0000130013000013
#02819:0013000000001300
#0281b:2300001300130000
#0291b:0000130013000013
#02917:1300001300130000
#02919:0013000000001300
#0301b:13130013
#03017:0013
#03012:00001313
#03014:0013001300000000
#03016:00130000
#03015:0000000000000013
#03019:0000000000130000
#03118:13
#03112:13130013
#03116:0013
#0311b:0013000000000000
#03117:00000000001300000000000013000000
#03114:0000001300130000
#03119:0000000000000013
#0321b:1313000013000013
#03217:00130013
#03216:0013000013000000
#03212:13000013
#03219:0000001300000000
#03214:0000000000130000
#03512:13
#03517:1312000012000000
#03515:00000012000012000000000012000000
#03516:0000000000120000
#03513:00120000
#03514:0000000000000012
#03519:00130013
#0351b:0013
#0251b:00130013
#02517:000014000000000000000000000014000000000000130000
#0251a:1414
#02514:001400001400
#02512:23000000001300002300000000000000
#02518:0000001300000000
#02515:00000000000000130000000000000000
#02418:00130000000000000000000000001300
#02415:0000000013000000000000000033000000000000000000000000000000001300
#02412:23130000
#02417:00130000
#0241b:23002313
#02414:0000000000130000
#02416:0000001300001300
#02410:41
#04216:0014000000000000
#04116:0000000000140000
#04112:0000000000000014
#04014:0000001300130000
#04019:0000001300130000
#0401b:0013
#04016:0013
#04012:0000230000001324
#04017:0022000000002300
#04015:22
#0431a:0014
#04318:1600000000140000
#04316:0016000000001400
#04314:0000160000000014
#04312:1400001614000000
#04512:001c0000000013001300000000000000
#04515:0000000000131300
#04517:0000000000000012
#04612:0000001400000014
#04614:0014
#04616:0000000000140000
#04716:00000000140014000000000000140000
#04712:0000000000140000
#03618:0000001300000000
#03615:00000000001300130000000000000000
#03612:23001323
#0361b:0000230013130000
#03617:00000013
#03616:0000000000130013
#03610:41
#08613:2100001100000011000000110000001100000011000000110000001100000011
#08612:0013131313131313
#0861c:0000001100000011000000110000001100000011000000110000001100000011
#0861b:0013131313131313
#08712:1313131300000000
#08713:0000001100000011000000110000000000000000000000000000000000000000
#0871b:1313131300000000
#0871c:0000001100000011000000110000000000000000000000000000000000000000
#08717:0000000000121212
#07812:24000013
#07816:0000001300000000
#07815:0000000000000000000000000033000000000000000000000000000000001300
#07818:00130000000000000000000000001300
#07817:00130000
#0781b:2323
#07810:41
#08112:140000000014000000001400
#08116:001400000000140000000014
#0811a:000014000000001400000000
#08114:000000140000000014000000
#08118:000000001400000000140000
#0811b:2323
#08312:140000231400
#0831a:001400140000
#08316:001400130000001400000000
#0831b:23000013
#08317:00000000000000130000000000001300
#08319:00000000001300000000000000000000
#08314:0000001300000000
#08216:00130000
#0821b:00000013
#08215:00130000000000000000000000001300
#08217:0000001300000000
#08218:0000000000000000000000000033000000000000000000000000000000001300
#0821a:24
#08212:2323
#0851a:140000000014000000240000
#08516:001400000000140014000000
#08512:230014000000231400000000
#08518:00140000
#08514:001400
#0791a:14
#07912:230014000000230000130000
#07916:000014000000000000000000000000000000000000130000
#0791b:00130000
#07915:00000000001300000000130000000000
#07918:00000000000000000000001300000000
#07014:0000001300000000
#07016:1313
#07012:2400130000130013
#0701b:0000001313001300
#07017:0000000000000013
#07112:00000000130000000000000000000013
#07116:1300001313000000
#0711b:13000000000000130000000000000000
#07117:0013000000001313
#07214:0000001300000013
#07217:1313
#0721b:0000000000130000
#07212:00001313
#07219:0000001300000013
#07216:00130000
#07316:1300001300000013
#07314:00001313
#07312:0013000000130000
#0731b:13130000
#07412:00130000000000000000000013001300
#07416:00000000000000000013000000000000
#07417:0000000000000013
#0741b:2313
#0751b:00000000130000000013000000001300
#07516:00130000000000001300000000001300
#07512:0000001300000000
#07517:00000013
#07616:00000013000000000000000000000000
#07612:00131313
#0761b:00000013
#07618:0000000000130000
#07615:0000000000000013
#0771a:0000000000141400
#07719:0000000000000014
#07712:00000014001400000000000000000000
#07718:1414
#07714:00000000000000140000000000000014
#07713:00140000000000000000000000000000
#07716:00001400000014000014000000140000
#07715:00140000
#07717:00000000000000000000001400000000
#03919:1300000000000022
#03914:1300001300000000
#03912:0013230000000000
#03916:0013
#03917:0013000000000000
#03913:00000022
#0391b:0000000000220000
#0881a:00000012
#08816:0000000012000012
#08814:0000001200000000
#08818:0000000000120000
#0891a:0000000000120000
#08918:00000012
#08916:0000000000000012
#09014:1212
#09016:2400001200120000
#09018:00120012
#09114:0000001200000000
#09116:0000120012000012
#09118:0000000000120000
#0911a:00000012
#09212:12
#0921c:0012000000000000
#09315:0000001300130013
#09318:00131313
#0931b:0000001300130000
#09312:00130013
#09916:0000000000140000
#0991a:00000014
#0991b:00130000
#09912:0014
#09516:00000012
#09514:0000000000000012
#09518:0000000000120000
#0951b:00130013
#09612:1200130000000013
#09616:1400001400000000
#09718:00000012
#0971a:0000000000000012
#09716:0000000000120000
#09712:00130013
#0981c:12
#0981b:00130013
#09816:2400001400000000
#0941b:0000130000000013
#09416:2400001400000000
#04413:0000001212000000
#04415:0000000000121200
#04412:24
#04417:0000000000000022
#0501c:00120012
#05012:1212
#05016:2400241424142414
#0491c:00000012
#04916:00000024
#04812:00140000
#0481a:00140000
#04818:0026
#04810:41
#08418:00130000000000000000000000000000
#0841b:00132300
#08416:0000000000000013
#08412:2300001300000000
#08413:0000000000000000000000000033000000000000000000000000000000000000
#00418:1212121212121212
#00412:14141414
#0051a:14141414
#00516:1212121212121212
#00618:0000000012121212
#0061a:1212121200000000
#00612:14141414
#00716:0000000012121212
#00714:1212121200000000
#0071a:14141414
#00818:0000121200001212
#0081a:1212000012120000
#00812:14141414
#00916:0000121200001212
#00914:1212000012120000
#0091a:14141414
#01012:14141414
#01018:0012001200120012
#0101a:12121212
#01118:00000000000000000000000000120000
#0111a:14141414
#01116:0012001200120012
#01114:12121212
#08012:00132300
#08015:00130000000000000000000000000000
#0801b:2300001300000000
#08017:0000000000000013
#0801a:0000000000000000000000000033000000000000000000000000000000000000
#02017:0000001300001300
#02019:0000000000130000
#02012:23002313
#0201b:23130000
#02016:00130000
#02015:00130000000000000000000000001300
#02018:0000000013000000000000000033000000000000000000000000000000001300
#0231a:00140014
#02317:000014000014
#02314:000000000014000000000014
#02312:1414
#02315:001400000000001400000000
#02318:001400001400
#0231b:2323
#03312:13130013
#03316:0013000013000000
#03317:13130000
#0331b:00001313
#03318:0000000000000013
#03319:0000001300000000
#03314:0000000000130000
#03417:0013
#03419:0000001300130000
#03416:00000000001300000000000013000000
#03412:0013000000000000
#0341b:13130013
#03415:13
#03414:0000000000000013
#05718:2626
#05712:2626
#05117:0022
#05116:24
#0125a:14
#0125b:0000006300000000
#01257:0000000023000053
#01652:1353
#0165b:63
#0525b:00000000000000000000000000005252
#0525c:0000000000000000000000000000000000000000000000000000000000220000
#0525a:0000000000000000000000000000000000000000000000000000000000000022
#05257:12
#0545b:23
#05456:0000000000680000
#05459:0000000000000012
#0605a:64
#06052:36540000
#06056:0024002400000000
#05855:0063
#05858:46
#05852:00340000
#0585a:00000044
#06258:16
#06252:53
#06257:0053
#06256:0023000000000000
#0625b:0000000000230000
#06456:6363
#06452:0000000000230000
#06557:5300000000000053
#0655b:0023000000000000
#0675b:0000006300000000
#06752:0000000000130000
#06352:53
#06357:0053
#06356:0023000000000000
#01958:00440000
#01954:00340000
#02152:00000053
#02156:0000000000000023
#0255b:00000063
#02557:0000000000000023
#02752:00000054
#04052:0000000000000054
#04256:0064000000000000
#04156:0000000000640000
#04152:0000000000000054
#04656:0000000000340000
#04652:0000000000000034
#04752:0000000000540000
#04756:00000000000064000000000000240000
#0535b:52525252000000000000000000000000
#0535c:0022000000220000000000000000000000000000000000000000000000000000
#0535a:0000002200000022000000000000000000000000000000000000000000000000
#0315b:0063000000000000
#03157:00000000002300000000000000000000
#03252:53
#03256:0023000000000000
#0325b:0000000000000063
#01556:0063000000000000
#0685b:63
#06857:0023000000000000
#0665b:00230000000000000000000000000000
#08653:0000002100000021000000210000002100000021000000210000002100000021
#08652:0063636363636363
#0865c:0000002100000021000000210000002100000021000000210000002100000021
#0865b:0053535353535353
#0855a:00000054
#08752:6363636300000000
#08753:0000002100000021000000210000000000000000000000000000000000000000
#0875b:5353535300000000
#0875c:0000002100000021000000210000000000000000000000000000000000000000
#07856:0000006300000000
#07852:14
#08257:0000005300000000
#0825a:14
#07257:5353
#0725b:0000000000230000
#07356:6300000000000063
#07352:0023000000000000
#07056:2363
#07052:1400000000230000
#0715b:63
#07156:0063
#07157:0023000000000000
#07452:00230000000000000000000000005300
#07556:00230000000000000000000000000000
#0755b:0000000000000063
#07656:00000023000000000000000000000000
#05758:46
#05752:0036
#0695b:0023000000006300
#06952:0000002300000000
#06955:00630000
#06957:53
#06152:36
#06158:0046000000000000
#03957:0053000000000000
#09252:52
#0925c:0062000000000000
#05952:00340000
#0595a:00000044
#1005a:0000000000000054
#10052:0064000000000000
#09856:14
#09456:14
#09056:14
#0835b:00000063
#08357:0000000000000023
#04852:34
#0555a:0000000000640000
#05556:00000000000054000000000000240000
#0565a:44
#07956:0000000000000023
#07952:00000053
#0805b:0000006300000000
#08452:0000005300000000
#02057:0000005300000000
#0205b:13
#0225b:0000006300000000
#02652:0000005300000000
#02452:13
#02456:0000006300000000
#0365b:0000000000630000
#03657:00000023
#03656:0000000000000063
#03357:23
#03456:00000000002300000000000000000000
#03452:0053000000000000
#04557:0000000000000052
#04552:005c0000000000000000000000000000
#04457:0000000000000022
#0123b0:0000001300230000
#012370:0053
#012370:0000000000000013
#0133b0:00230000
#015360:0013000000000000
#015320:0023
#0163b0:13
#016370:00230000
#016320:0013
#016360:00000023
#019320:14
#019380:00540000240000000000000000000000
#0193a1:14
#019341:00540000240000000000000000000000
#020371:0000001300000000
#020381:0000000000000000000000000033000000000000000000000000000000000000
#0203b1:0023
#021321:00000013
#021361:0000000000000053
#022321:23
#0223b1:0000001300000000
#0223a1:0000000000000000000000000033000000000000000000000000000000000000
#022371:0023
#024361:0000001300000000
#024351:0000000000000000000000000033000000000000000000000000000000000000
#024321:0023
#0253b1:00000013
#025371:0000000000000053
#0263b1:23
#026321:0000001300000000
#026331:0000000000000000000000000033000000000000000000000000000000000000
#026361:0023
#027321:00000014
#029321:0000000000000000000000000000000000000000000000005252525252525252
#029331:00000000000000000000000000000000000000000000000000000000000000000000000000000000000000000000000000520052005200520052005200520052
#030321:22
#0313b1:0013000023000000
#031371:00000000005300000000000000000000
#032321:13230000
#032361:0053000000000000
#0323b1:0000000000000013
#033371:53
#0333b1:0023000000000000
#034321:0013000023000000
#034361:00000000005300000000000000000000
#036381:1626000000000000
#036320:0016260000000000
#0363b0:0000000000130023
#036370:00000053
#036361:0000000000000013
#037321:00230000
#039371:0013000000000000
#0393b1:0023
#0393b1:0000000000122200
#039330:0000000000001222
#039391:0000000000000012
#040391:22
#040350:1222000000000000
#040371:0012220000000000
#040361:0000000000000018
#040321:000000000000000000000000000000000000000000000000000000000000000000000000000000000000000000000000000000000000000000000000000000000000000000000000000000000000000000000000000000000000000000000000000000000000000000000000000000000000000000000000000000000000000000000000000000000000000000000000000000000000000000000000000000000000000000000000000000000000000000000000000000000000000000000000000000000000000000000000000000000000000000000000000000000000000000000000000000000000000000000000000000000000000000000000000000000000000000000000000000000000000000000000000000000000000000000000000000000000000000000000000000000000000000000000000000000000000000000000000000000000000000000000000000000000000000000000000000000000000000000000000000000000000000000000000000000000000000000000000000000000000000000000000000000000000000000000000000000000000000000000000000000000000000000000000000000000000000000000000000000000000000000000000000000000000000000000000000000000000000000000000000000000000000000000000000000000000000000000000000000000000000000000000000000000000000000000000000000000000000000000000000000000000000000000000000000000000000000000000000000000000000000000000000000000000000000000000000000000000000000000000000000000000000000000000000000000000000000000000000000000000000000000000000000000000000000000000000000000000000000000000000000000000000000000000000000000000000000000000000000000000000000000000000000000000000000000000000000000000000000000000000000000000000000000000000000000000000000000000000000000000000000000000000000000000000000000000000000000000000000000000000000000000000000000000000000000000000000000000000000000000000000000000000000000000000000000000000000000000000000000000000000000000000000000000000000000000000000000000000000000000000000000000000000000000000000000000000000000000000000000000000000000000000000000000000000000000000000000000000000000000000000000000000000000000000000000000000000000000000000000000000000000000000000000000000000000000000000000000000000000000000000000000000000000000000000000000000000000000000000000000000000000000000000000000000000000000000000000000000000000000000000000000000000000000000000000000000000000000000000000000000000000000000000000000000000000000000000000000000000000000000000000000000000000000000000000000000000000000000000000000000000000000000000000000000000000000000000000000000000000000000000000000000000000000000000000000000000000000000000000000000000000000000000000000000000000000000000000000000000000000000000000000000000000000000000000000000000000000000000000000000000000000000000000000000000000000000000000000000000000000000000000000000000000000000000000000000000000000000000000000000000000000000000000000000000000000000000000000000000000000000000000000000000000000000000000000000000000000000000000000000000000000000000000000000000000000000000000000000000000000000000000000000000000000000000000000000000000000000000000000000000000000000000000000000000000000000000000000000000000000000000000000000000000000000000000000000000000000000000000000000000000000000000000000000000000000000000000000000000000000000000000000000000000000000000000000000000000000000000000000000000000000000000000000000000000000000000000000000000000000000000000000000000000000000000000000000000000000000000000000000000000000000000000000000000000000000000000000000000000000000000000000000000000000000000000000000000000000000000000005c00000000000000000000000000000000000000000000000000000000000000000000000000000000000000000000000000000000000000000000000000000000000000000000000000000000000000000000000000000000000000000000000000000000000000000000000000000000000000000000000000000000000000000000000000000000000000000000000000000000000000000000000000000000000000000000000000000000000000000000000000000000000000000000000000000000000000000000000000000000000000000000000000000000000000000000000000000000000000000000
#042321:00000000000000000000000000000000000000000000000000000000000000000000000000000000000000000000000000000000000000000000000000000000000000000000000000000000000000000000000000000000000000000000000000000000000000000000000000000000000000000000000000000000000000000000000000000000000000000000000000000000000000000000000000000000000000000000000000000000000000000000000000000000000000000000000000000000000000000000000000000000000000000000000000000000000000000000000000000000000000000000000000000000000000000000000000000000000000000000000000000000000000000000000000000000000000000000000000000000000000000000000000000000000000000000000000000000000000000000000000000000000000000000000000000000000000000000000000000000000000000000000000000000000000000000000000000000000000000000000000000000000000000000000000000000000000000000000000000000000000000000000000000000000000000000000000000000000000000000000000000000000000000000000000000000000000000000000000000000000000000000000000000000000000000000000000000000000000000000000000000000000000000000000000000000000000000000000000000000000000000000000000000000000000000000000000000000000000000000000000000000000000000000000000000000000000000000000000000000000000000000000000000000000000000000000000000000000000000000000000000000000000000000000000000000000000000000000000000000000000000000000000000000000000000000000000000000000000000000000000000000000000000000000000000000000000000000000000000000000000000000000000000000000000000000000000000000000000000000000000000000000000000000000000000000000000000000000000000000000000000000000000000000000000000000000000000000000000000000000000000000000000000000000000000000000000000000000000000000000000000000000000000000000000000000000000000000000000000000000000000000000000000000000000000000000000000000000000000000000000000000000000000000000000000000000000000000000000000000000000000000000000000000000000000000000000000000000000000000000000000000000000000000000000000000000000000000000000000000000000000000000000000000000000000000000000000000000000000000000000000000000000000000000000000000000000000000000000000000000000000000000000000000000000000000000000000000000000000000000000000000000000000000000000000000000000000000000000000000000000000000000000000000000000000000000000000000000000000000000000000000000000000000000000000000000000000000000000000000000000000000000000000000000000000000000000000000000000000000000000000000000000000000000000000000000000000000000000000000000000000000000000000000000000000000000000000000000000000000000000000000000000000000000000000000000000000000000000000000000000000000000000000000000000000000000000000000000000000000000000000000000000000000000000000000000000000000000000000000000000000000000000000000000000000000000000000000000000000000000000000000000000000000000000000000000000000000000000000000000000000000000000000000000000000000000000000000000000000000000000000000005c000000000000000000000000000000000000000000000000000000000000000000000000000000000000000000000000000000000000000000000000000000000000000000000000000000000000000000000000000000000000000000000000000000000000000000000000000000000000000000000000000000000000000000000000000000000000000000000000000000000000000000000000000000000000000000000000000000000000000000000000000000000000000000000000000000000000000000000000000000000000000000000000000000000000000000000000000000000000000000000000000000000000000000000000000000000000000000000000000000000000000000000000000000000000000000000000000000000000000000000000000000000000000000000000000000000000000000000000000000000000000000000000000000000000000000000000000000000000000000000000000000000000000000000000000000000000000000000000000000000000000000000000000000000000000000000000000000000000000000000000000000000000000000000000000000000000000000000000000000000000000000000000000000000000000000000000000000000000000000000000
#042361:00000028
#040320:0000000000000014
#041360:0034003400340000
#041320:0000340034000034
#042360:0034000000000000
#042320:00000024
#0443c0:12323232
#0453c0:32323232
#0463c0:320000000000000000000000000000000000000000000000000000000000000000000000000000000000000000000000000000000000000000000000000000000000000000000000000000000000000000000000000000000000000000000000000000000000000000000000000000000000000000000000000000000000000000000000000000000000000000000000000000000000000000000000000000000000000000000000000000000000000000000000000000000000000000000000000000000000000000000000000000000000000000000000000000000000000000000000000000000000000000000000000000000000000000000000000000000000000000000000000000000000000000000000000000000000000000000000000000000000000000000000000000000000000000000000000000000000000000000000000000000000000000000000000000000000000000000000000000000000000000000000000000000000000000000000000000000000000000000000000000000000000000000000000000000000000000000000000000000000000000000000000000000000000000000000000000000000000000000000000000000000000000000000000000000000000000000000000000000000000000000032000000000000000000000000000000000000000000000000000000000000000000000000000000000000000000000000000000000000000000000000000000000000000000000000000000000000000000000000000000000000000000000000000000000000000000000000000000000000000000000000000000000000000000000000000000000000000000000000000000000000000000000000000000000000000000000000000000000000000000000000000000000000000000000000000000000000000000000000000000000000000000000000000000000000000000000000000000000000000000000000000000000000000000000000000000000000000000000000000000000000000000000000000000000000000000000000000000000000000000000000000000000000000000000000000000000000000000000000000000000000000000000000000000000000000000000000000000000000000000000000000000000000000000000000000000000000000000000000000000000000000000000000000000000000000000000000000000000000000000000000000000000000000000000000000000000000000000000000000000000000000000000000000000000000000000000000000000000000000000000000320000000000000000000000000000000000000000000000000000000000000000000000000000000000000000000000000000000000000000000000000000000000000000000000000000000000000000000000000000000000000000000000000000000000000000000000000000000000000000000000000000000000000000000000000000000000000000000000000000000000000000000000000000000000000000000000000000000000000000000000000000000000000000000000000000000000000000000000000000000000000000000000000000000000000000000000000000000000000000000000000000000000000000000000000000000000000000000000000000000000000000000000000000000000000000000000000000000000000000000000000000000000000000000000000000000000000000000000000000000000000000000000000000000000000000000000000000000000000000000000000000000000000000000000000000000000000000000000000000000000000000000000000000000000000000000000000000000000000000000000000000000000000000000000000000000000000000000000000000000000000000000000000000000000000000000000000000000000000000000000320000000000000000000000000000000000000000000000000000000000000000000000000000000000000000000000000000000000000000000000000000000000000000000000000000000000000000000000000000000000000000000000000000000000000000000000000000000000000000000000000000000000000000000000000000000000000000000000000000000000000000000000000000000000000000000000000000000000000000000000000000000000000000000000000000000000000000000000000000000000000000000000000000000000000000000000000000000000000000000000000000000000000000000000000000000000000000000000000000000000000000000000000000000000000000000000000000000000000000000000000000000000000000000000000000000000000000000000000000000000000000000000000000000000000000000000000000000000000000000000000000000000000000000000000000000000000000000000000000000000000000000000000000000000000000000000000000000000000000000000000000000000000000000000000000000000000000000000000000000000000000000000000000000000000000000000000000000000000000000000
#0473c0:32323232
#0483c0:22
#044371:0000000000000012
#045321:005c0000000000000000000000000000
#045371:00220000
#045371:0000000000000012
#046321:002c0000
#047361:00000000000014000000000000540000
#047321:0000000000340000
#048321:24
#048341:000000000000000000000000000000000000000000000000000000000000000000000000000000000000000000000000000000000000000000000000000000000000000000000000000000000000000000000000000000000000000000000000000000000000000000000000000000000000000000000000000000000000000000000000000000000000000000000000000000000000000000000000000000000000000000000000000000000000000000000000000000000000000000000000000000000000000000000000000000000000000000000000000000000000000000000000000000000000000000000000000000000000000000000000000000000000000000000000000000000000000000000000000000000000000000000000000000000000000000000000000000000000000000000000000000000000000000000000000000000000000000000000000000000000000000000000000000000000000000000000000000000000000000000000000000000000000000000000000000000000000000000000000000000000000000000000000000000000000000000000000000000000000000000000000000000000000000000000000000000000000000000000000000000000000000000000000000000000000000000000000000000000000000000000000000000000000000000000000000000000000000000000000000000000000000000000000000000000000000000000000000000000000000000000000000000000000000000000000000000000000000000000000000000000000000000000000000000000000000000000000000000000000000000000000000000000000000000000000000000000000000000000000000000000000000000000000000000000000000000000000000000000000000000000000000000000000000000000000000000000000000000000000000000000000000000000000000000000000000000000000000000000000000000000000000000000000000000000000000000000000000000000000000000000000000000000000000000000000000000000000000000000000000000000000000000000000000000000000000000000000000000000000000000000000000000000000000000000000000000000000000000000000000000000000000000000000000000000000000000000000000000000000000000000000000000000000000000000000000000000000000000000000000000000000000000000000000000000000000000000000000000000000000000000000000000000000000000000000000000000140000000000000000000000000000000000000000000000000000000000000000000000000000000000000000000000000000000000000000000000000000000000000000000000000000000000000000000000000000000000000000000000000000000000000000000000000000000000000000000000000000000000000000000000000000000000000000000000000000000000000000000000000000000000000000000000000000000000000000000000000000000000000000000000000000000000000000000000000000000000000000000000000000000000000000000000000000000000000000000000000000000000000000000000000000000000000000000000000000000000000000000000000000000000000000000000000000000000000000000000000000000000000000000000000000000000000000000000000000000000000000000000000000000000000000000000000000000000000000000000000000000000000000000000000000000000000000000000000000000000000000000000000000000000000000000000000000000000000000000000000000000000000000000000000000000000000000000000000000000000000000000000000000000000000000000000000000000000000000000054000000000000000000000000000000000000000000000000000000000000000000000000000000000000000000000000000000000000000000000000000000000000000000000000000000000000000000000000000000000000000000000000000000000000000000000000000000000000000000000000000000000000000000000000000000000000000000000000000000000000000000000000000000000000000000000000000000000000000000000000000000000000000000000000000000000000000000000000000000000000000000000000000000000000000000000000000000000000000000000000000000000000000000000000000000000000000000000000000000000000000000000000000000000000000000000000000000000000000000000000000000000000000000000000000000000000000000000000000000000000000000000000000000000000000000000000000000000000000000000000000000000000000000000000000000000000000000000000000000000000000000000000000000000000000000000000000000000000000000000000000000000000000000000000000000000000000000000000000000000000000000000000000000000000000000000000000000000000000000000000
#048361:000000000000000000000000000000000000000000000000000000000000000000000000000000000000000000000000000000000000000000000000000000000000000000000000000000000000000000000000000000000000000000000000000000000000000000000000000000000000000000000000000000000000000000000000000000000000000000000000000000000000000000000000000000000000000000000000000000000000000000000000000000000000000000000000000000000000000000000000000000000000000000000000000000000000000000000000000000000000000000000000000000000000000000000000000000000000000000000000000000000000000000000000000000000000000000000000000000000000000000000000000000000000000000000000000000000000000000000000000000000000000000000000000000000000000000000000000000000000000000000000000000000000000000000000000000000000000000000000000000000000000000000000000000000000000000000000000000000000000000000000000000000000000000000000000000000000000000000000000000000000000000000000000000000000000000000000000000000000000000000000000000000000000000000000000000000000000000000000000000000000000000000000000000000000000000000000000000000000000000000000000000000000000000000000000000000000000000000000000000000000000000000000000000000000000000000000000000000000000000000000000000000000000000000000000000000000000000000000000000000000000000000000000000000000000000000000000000000000000000000000000000000000000000000000000000000000000000000000000000000000000000000000000000000000000000000000000000000000000000000000000000000000000000000000000000000000000000000000000000000000000000000000000000000000000000000000000000000000000000000000000000000000000000000000000000000000000000000000000000000000000000000000000000000000000000000000000000000000000000000000000000000000000000000000000000000000000000000000000000000000000000000000000000000000000000000000000000000000000000000000000000000000000000000000000000000000000000000000000000000000000000000000000000000000000000000000000000000000000000000000000000000000000000000000000000000000000000000000000000000000000000000000000000000000000000000000000000000000000000000000000000000000000000000000000000000000000000000000000000000000000000000000000000000000000000000000000000000000000000000000000000000000000000000000000000000000000000000000000000000000000000000000000000000000000000000000000000000000000000000000000000000000000000000000000000000000000000000000000000000000000000000000000000000000000000000000000000000000000000000000000000000000000000000000000000000000000000000000000000000000000000000000000000000000000000000000000000000000000000000000000000000000000000000000000000000000000000000000000000000000000000000000000000000000000000000000000000000000000000000000000000000000000000000000000000000000000000000000000000000000000000000000000000000000000000000000000000000000000000000000000000000000000000000000000000000000000000000000000000000000000000000000000000000000000000000000000000000000000000000000360000000000000000000000000000000000000000000000000000000000000000000000000000000000000000000000000000000000000000000000000000000000000000000000000000000000000000000000000000000000000000000000000000000000000000000000000000000000000000000000000000000000000000000000000000000000000000000000000000000000000000000000000000000000000000000000000000000000000000000000000000000000000000000000000000000000000000000000000000000000000000000000000000000000000000000000000000000000000000000000000000000000000000000000000000000000000000000000000000000000000000000000000000000000000000000000000000000000000000000000000000000000000000000000000000000000000000000000000000000000000000000000000000000000000000000000000000000000000000000000000000000000000000000000000000000000000000000000000000000000000000000000000000000000000000000000000000000000000000000000000000000000000000000000000000000000000000000000000000000000000000000000000000000000000000000000000000000000000000000056
#049341:36360000
#049381:000000000000000000000000000000000000000000000000000000000000000000000000000000000000000000000000000000000000000000000000000000000000000000000000000000000000000000000000000000000000000000000000000000000000000000000000000000000000000000000000000000000000000000000000000000000000000000000000000000000000000000000000000000000000000000000000000000000000000000000000000000000000000000000000000000000000000000000000000000000000000000000000000000000000000000000000000000000000000000000000000000000000000000000000000000000000000000000000000000000000000000000000000000000000000000000000000000000000000000000000000000000000000000000000000000000000000000000000000000000000000000000000000000000000000000000000000000000000000000000000000000000000000000000000000000000000000000000000000000000000000000000000000000000000000000000000000000000000000000000000000000000000000000000000000000000000000000000000000000000000000000000000000000000000000000000000000000000000000000000000005400000000000000000000000000000000000000000000000000000000000000000000000000000000000000000000000000000000000000000000000000000000000000000000000000000000000000000000000000000000000000000000000000000000000000000000000000000000000000000000000000000000000000000000000000000000000000000000000000000000000000000000000000000000000000000000000000000000000000000000000000000000000000000000000000000000000000000000000000000000000000000000000000000000000000000000000000000000000000000000000000000000000000000000000000000000000000000000000000000000000000000000000000000000000000000000000000000000000000000000000000000000000000000000000000000000000000000000000000000000000000000000000000000000000000000000000000000000000000000000000000000000000000000000000000000000000000000000000000000000000000000000000000000000000000000000000000000000000000000000000000000000000000000000000000000000000000000000000000000000000000000000000000000000000000000000000000000000000000000000240000000000000000000000000000000000000000000000000000000000000000000000000000000000000000000000000000000000000000000000000000000000000000000000000000000000000000000000000000000000000000000000000000000000000000000000000000000000000000000000000000000000000000000000000000000000000000000000000000000000000000000000000000000000000000000000000000000000000000000000000000000000000000000000000000000000000000000000000000000000000000000000000000000000000000000000000000000000000000000000000000000000000000000000000000000000000000000000000000000000000000000000000000000000000000000000000000000000000000000000000000000000000000000000000000000000000000000000000000000000000000000000000000000000000000000000000000000000000000000000000000000000000000000000000000000000000000000000000000000000000000000000000000000000000000000000000000000000000000000000000000000000000000000000000000000000000000000000000000000000000000000000000000000000000000000000000000000000000000000000000000000000000000000000000000000000000000000000000000000000000000000000000000000000000000000000000000000000000000000000000000000000000000000000000000000000000000000000000000000000000000000000000000000000000000000000000000000000000000000000000000000000000000000000000000000000000000000000000000000000000000000000000000000000000000000000000000000000000000000000000000000000000000000000000000000000000000000000000000000000000000000000000000000000000000000000000000000000000000000000000000000000000000000000000000000000000000000000000000000000000000000000000000000000000000000000000000000000000000000000000000000000000000000000000000000000000000000000000000000000000000000000000000000000000000000000000000000000000000000000000000000000000000000000000000000000000000000000000000000000000000000000000000000000000000000000000000000000000000000000000000000000000000000000000000000000000000000000000000000000000000000000000000000000000000000000000000000000000000000000
#048380:000000000000000000000000000000000000000000000000000000000000000000000000000000000000000000000000000000000000000000000000000000000000000000000000000000000000000000000000000000000000000000000000000000000000000000000000000000000000000000000000000000000000000000000000000000000000000000000000000000000000000000000000000000000000000000000000000000000000000000000000000000000000000000000000000000000000000000000000000000000000000000000000000000000000000000000000000000000000000000000000000000000000000000000000000000000000000000000000000000000000000000000000000000000000000000000000000000000000000000000000000000000000000000000000000000000000000000000000000000000000000000000000000000000000000000000000000000000000000000000000000000000000000000000000000000000000000000000000000000000000000000000000000000000000000000000000000000000000000000000000000000000000000000000000000000000000000000000000000000000000000000000000000000000000000000000000000000000000000000000000000000000000000000000000000000000000000000000000000000000000000000000000000000000000000000000000000000000000000000000000000000000000000000000000000000000000000000000000000000000000000000000000000000000000000000000000000000000000000000000000000000000000000000000000000000000000000000000000000000000000000000000000000000000000000000000000000000000000000000000000000000000000000000000000000000000000000000000000000000000000000000000000000000000000000000000000000000000000000000000000000000000000000000000000000000000000000000000000000000000000000000000000000000000000000000000000000000000000000000000000000000000000000000000000000000000000000000000000000000000000000000000000000000000000000000000000000000000000000000000000000000000000000000000000000000000000000000000000000000000000000000000000000000000000000000000000000000000000000000000000000000000000000000000000000000000000000000000000000000000000000000000000000000000000000000000000000000000000000000000000160000000000000000000000000000000000000000000000000000000000000000000000000000000000000000000000000000000000000000000000000000000000000000000000000000000000000000000000000000000000000000000000000000000000000000000000000000000000000000000000000000000000000000000000000000000000000000000000000000000000000000000000000000000000000000000000000000000000000000000000000000000000000000000000000000000000000000000000000000000000000000000000000000000000000000000000000000000000000000000000000000000000000000000000000000000000000000000000000000000000000000000000000000000000000000000000000000000000000000000000000000000000000000000000000000000000000000000000000000000000000000000000000000000000000000000000000000000000000000000000000000000000000000000000000000000000000000000000000000000000000000000000000000000000000000000000000000000000000000000000000000000000000000000000000000000000000000000000000000000000000000000000000000000000000000000000000000000000000000000056000000000000000000000000000000000000000000000000000000000000000000000000000000000000000000000000000000000000000000000000000000000000000000000000000000000000000000000000000000000000000000000000000000000000000000000000000000000000000000000000000000000000000000000000000000000000000000000000000000000000000000000000000000000000000000000000000000000000000000000000000000000000000000000000000000000000000000000000000000000000000000000000000000000000000000000000000000000000000000000000000000000000000000000000000000000000000000000000000000000000000000000000000000000000000000000000000000000000000000000000000000000000000000000000000000000000000000000000000000000000000000000000000000000000000000000000000000000000000000000000000000000000000000000000000000000000000000000000000000000000000000000000000000000000000000000000000000000000000000000000000000000000000000000000000000000000000000000000000000000000000000000000000000000000000000000000000000000000000000000000
#048320:000000000000000000000000000000000000000000000000000000000000000000000000000000000000000000000000000000000000000000000000000000000000000000000000000000000000000000000000000000000000000000000000000000000000000000000000000000000000000000000000000000000000000000000000000000000000000000000000000000000000000000000000000000000000000000000000000000000000000000000000000000000000000000000000000000000000000000000000000000000000000000000000000000000000000000000000000000000000000000000000000000000000000000000000000000000000000000000000000000000000000000000000000000000000000000000000000000000000000000000000000000000000000000000000000000000000000000000000000000000000000000000000000000000000000000000000000000000000000000000000000000000000000000000000000000000000000000000000000000000000000000000000000000000000000000000000000000000000000000000000000000000000000000000000000000000000000000000000000000000000000000000000000000000000000000000000000000000000000000000000000000000000000000000000000000000000000000000000000000000000000000000000000000000000000000000000000000000000000000000000000000000000000000000000000000000000000000000000000000000000000000000000000000000000000000000000000000000000000000000000000000000000000000000000000000000000000000000000000000000000000000000000000000000000000000000000000000000000000000000000000000000000000000000000000000000000000000000000000000000000000000000000000000000000000000000000000000000000000000000000000000000000000000000000000000000000000000000000000000000000000000000000000000000000000000000000000000000000000000000000000000000000000000000000000000000000000000000000000000000000000000000000000000000000000000000000000000000000000000000000000000000000000000000000000000000000000000000000000000000000000000000000000000000000000000000000000000000000000000000000000000000000000000000000000000000000000000000000000000000000000000000000000000000000000000000000000000000000000000000000000000000000000000000000000000000000000000000000000000000000000000000000000000000000000000000000000000000000000000000000000000000000000000000000000000000000000000000000000000000000000000000000000000000000000000000000000000000000000000000000000000000000000000000000000000000000000000000000000000000000000000000000000000000000000000000000000000000000000000000000000000000000000000000000000000000000000000000000000000000000000000000000000000000000000000000000000000000000000000000000000000000000000000000000000000000000000000000000000000000000000000000000000000000000000000000000000000000000000000000000000000000000000000000000000000000000000000000000000000000000000000000000000000000000000000000000000000000000000000000000000000000000000000000000000000000000000000000000000000000000000000000000000000000000000000000000000000000000000000000000000000000000000000000000000000000000000000000000000000000000000000000000000000000000000000000000000000000000000000000000540000000000000000000000000000000000000000000000000000000000000000000000000000000000000000000000000000000000000000000000000000000000000000000000000000000000000000000000000000000000000000000000000000000000000000000000000000000000000000000000000000000000000000000000000000000000000000000000000000000000000000000000000000000000000000000000000000000000000000000000000000000000000000000000000000000000000000000000000000000000000000000000000000000000000000000000000000000000000000000000000000000000000000000000000000000000000000000000000000000000000000000000000000000000000000000000000000000000000000000000000000000000000000000000000000000000000000000000000000000000000000000000000000000000000000000000000000000000000000000000000000000000000000000000000000000000000000000000000000000000000000000000000000000000000000000000000000000000000000000000000000000000000000000000000000000000000000000000000000000000000000000000000000000000000000000000000000000000000000000054
#0493a0:54540000
#049320:000000000000000000000000000000000000000000000000000000000000000000000000000000000000000000000000000000000000000000000000000000000000000000000000000000000000000000000000000000000000000000000000000000000000000000000000000000000000000000000000000000000000000000000000000000000000000000000000000000000000000000000000000000000000000000000000000000000000000000000000000000000000000000000000000000000000000000000000000000000000000000000000000000000000000000000000000000000000000000000000000000000000000000000000000000000000000000000000000000000000000000000000000000000000000000000000000000000000000000000000000000000000000000000000000000000000000000000000000000000000000000000000000000000000000000000000000000000000000000000000000000000000000000000000000000000000000000000000000000000000000000000000000000000000000000000000000000000000000000000000000000000000000000000000000000000000000000000000000000000000000000000000000000000000000000000000000000000000000000000000005600000000000000000000000000000000000000000000000000000000000000000000000000000000000000000000000000000000000000000000000000000000000000000000000000000000000000000000000000000000000000000000000000000000000000000000000000000000000000000000000000000000000000000000000000000000000000000000000000000000000000000000000000000000000000000000000000000000000000000000000000000000000000000000000000000000000000000000000000000000000000000000000000000000000000000000000000000000000000000000000000000000000000000000000000000000000000000000000000000000000000000000000000000000000000000000000000000000000000000000000000000000000000000000000000000000000000000000000000000000000000000000000000000000000000000000000000000000000000000000000000000000000000000000000000000000000000000000000000000000000000000000000000000000000000000000000000000000000000000000000000000000000000000000000000000000000000000000000000000000000000000000000000000000000000000000000000000000000000000000260000000000000000000000000000000000000000000000000000000000000000000000000000000000000000000000000000000000000000000000000000000000000000000000000000000000000000000000000000000000000000000000000000000000000000000000000000000000000000000000000000000000000000000000000000000000000000000000000000000000000000000000000000000000000000000000000000000000000000000000000000000000000000000000000000000000000000000000000000000000000000000000000000000000000000000000000000000000000000000000000000000000000000000000000000000000000000000000000000000000000000000000000000000000000000000000000000000000000000000000000000000000000000000000000000000000000000000000000000000000000000000000000000000000000000000000000000000000000000000000000000000000000000000000000000000000000000000000000000000000000000000000000000000000000000000000000000000000000000000000000000000000000000000000000000000000000000000000000000000000000000000000000000000000000000000000000000000000000000000000000000000000000000000000000000000000000000000000000000000000000000000000000000000000000000000000000000000000000000000000000000000000000000000000000000000000000000000000000000000000000000000000000000000000000000000000000000000000000000000000000000000000000000000000000000000000000000000000000000000000000000000000000000000000000000000000000000000000000000000000000000000000000000000000000000000000000000000000000000000000000000000000000000000000000000000000000000000000000000000000000000000000000000000000000000000000000000000000000000000000000000000000000000000000000000000000000000000000000000000000000000000000000000000000000000000000000000000000000000000000000000000000000000000000000000000000000000000000000000000000000000000000000000000000000000000000000000000000000000000000000000000000000000000000000000000000000000000000000000000000000000000000000000000000000000000000000000000000000000000000000000000000000000000000000000000000000000000000000000000000
#051320:120000000000000000000000000000000000000000000000000000000000000000000000000000000000000000000000000000000000000000000000000000000000000000000000000000000000000000000000000000000000000000000000000000000000000000000000000000000000000000000000000000000000000000000000000000000000000000000000000000000000000000000000000000000000000000000000000000000000000000000000000000000000000000000000000000000000000000000000000000000000000000000000000000000000000000000000000000000000000000000000000000000000000000000000000000000000000000000000000000000000000000000000000000000000000000000000000000000000000000000000000000000000000000000000000000000000000000000000000000000000000000000000000000000000000000000000000000000000000000000000000000000000000000000000000000000000000000000000000000000000000000000000000000000000000000000000000000000000000000000000000000000000000000000000000000000000000000000000000000000000000000000000000000000000000000000000000000000000000000000000325c00000000000000000000000000000000000000000000000000000000000000000000000000000000000000000000000000000000000000000000000000000000000000000000000000000000000000000000000000000000000000000000000000000000000000000000000000000000000000000000000000000000000000000000000000000000000000000000000000000000000000000000000000000000000000000000000000000000000000000000000000000000000000000000000000000000000000000000000000000000000000000000000000000000000000000000000000000000000000000000000000000000000000000000000000000000000000000000000000000000000000000000000000000000000000000000000000000000000000000000000000000000000000000000000000000000000000000000000000000000000000000000000000000000000000000000000000000000000000000000000000000000000000000000000000000000000000000000000000000000000000000000000000000000000000000000000000000000000000000000000000000000000000000000000000000000000000000000000000000000000000000000000000000000000000000000000000000000000000000000000000000000000000000000000000000000000000000000000000000000000000000000000000000000000000000000000000000000000000000000000000000000000000000000000000000000000000000000000000000000000000000000000000000000000000000000000000000000000000000000000000000000000000000000000000000000000000000000000000000000000000000000000000000000000000000000000000000000000000000000000000000000000000000000000000000000000000000000000000000000000000000000000000000000000000000000000000000000000000000000000000000000000000000000000000000000000000000000000000000000000000000000000000000000000000000000000000000000000000000000000000000000000000000000000000000000000000000000000000000000000000000000000000000000000000000000000000000000000000000000000000000000000000000000000000000000000000000000000000000000000000000000000000000000000000000000000000000000000000000000000000000000000000000000000000000000000000000000000000000000000000000000000000000000000000000000000000000000000000000000000000000000000000000000000000000000000000000000000000000000000000000000000000000000000000000000000000000000000000000000000000000000000000000000000000000000000000000000000000000000000000000000000000000000000000000000000000000000000000000000000000000000000000000000000000000000000000000000000000000000000000000000000000000000000000000000000000000000000000000000000000000000000000000000000000000000000000000000000000000000000000000000000000000000000000000000000000000000000000000000000000000000000000000000000000000000000000000000000000000000000000000000000000000000000000000000000000000000000000000000000000000000000000000000000000000000000000000000000000000000000000000000000000000000000000000000000000000000000000000000000000000000000000000000000000000000000000000000000000000000000000000000000000000000000000000000000000000000000000000000000000000000000000000000000000000000000000000000000000000000000000000000000000000000000000000000000000000000000000000000
#052320:00000000000000000000000000000000000000000000000000000000000000000000000000000000000000000000000000000000000000000000000000000000000000000000000000000000000000000000000000000000000000000000000000000000000000000000000000000000000000000000000000000000000000000000000000000000000000000000000000000000000000000000000000000000000000000000000000000000000000000000000000000000000000000000000000000000000000000000000000000000000000000000000000000000000000000000000000000000000000000000000000000000000000000000000000000000000000000000000000000000000000000000000000000000000000000000000000000000000000000000000000000000000000000000000000000000000000000000000000000000000000000000000000000000000000000000000000000000000000000000000000000000000000000000000000000000000000000000000000000000000000000000000000000000000000000000000000000000000000000000000000000000000000000000000000000000000000000000000000000000000000000000000000000000000000000000000000000000000000000000005c320000000000000000000000000000000000000000000000000000000000000000000000000000000000000000000000000000000000000000000000000000000000000000000000000000000000000000000000000000000000000000000000000000000000000000000000000000000000000000000000000000000000000000000000000000000000000000000000000000000000000000000000000000000000000000000000000000000000000000000000000000000000000000000000000000000000000000000000000000000000000000000000000000000000000000000000000000000000000000000000000000000000000000000000000000000000000000000000000000000000000000000000000000000000000000000000000000000000000000000000000000000000000000000000000000000000000000000000000000000000000000000000000000000000000000000000000000000000000000000000000000000000000000000000000000000000000000000000000000000000000000000000000000000000000000000000000000000000000000000000000000000000000000000000000000000000000000000000000000000000000000000000000000000000000000000000000000000000000000000000320000000000000000000000000000000000000000000000000000000000000000000000000000000000000000000000000000000000000000000000000000000000000000000000000000000000000000000000000000000000000000000000000000000000000000000000000000000000000000000000000000000000000000000000000000000000000000000000000000000000000000000000000000000000000000000000000000000000000000000000000000000000000000000000000000000000000000000000000000000000000000000000000000000000000000000000000000000000000000000000000000000000000000000000000000000000000000000000000000000000000000000000000000000000000000000000000000000000000000000000000000000000000000000000000000000000000000000000000000000000000000000000000000000000000000000000000000000000000000000000000000000000000000000000000000000000000000000000000000000000000000000000000000000000000000000000000000000000000000000000000000000000000000000000000000000000000000000000000000000000000000000000000000000000000000000000000000000000000000000000320000000000000000000000000000000000000000000000000000000000000000000000000000000000000000000000000000000000000000000000000000000000000000000000000000000000000000000000000000000000000000000000000000000000000000000000000000000000000000000000000000000000000000000000000000000000000000000000000000000000000000000000000000000000000000000000000000000000000000000000000000000000000000000000000000000000000000000000000000000000000000000000000000000000000000000000000000000000000000000000000000000000000000000000000000000000000000000000000000000000000000000000000000000000000000000000000000000000000000000000000000000000000000000000000000000000000000000000000000000000000000000000000000000000000000000000000000000000000000000000000000000000000000000000000000000000000000000000000000000000000000000000000000000000000000000000000000000000000000000000000000000000000000000000000000000000000000000000000000000000000000000000000000000000000000000000000000000000000000000000
#053320:32323232
#054320:32323232
#055320:32323232
#056320:22
#051371:0012
#052371:22
#0523b1:00000000000000000000000000001252
#0523c1:0000000000000000000000000000000000000000000000000000000000520000
#0523a1:0000000000000000000000000000000000000000000000000000000000000052
#0533b1:52525252220000000000000000000000
#0533c1:0052000000520000000000000000000000000000000000000000000000000000
#0533a1:0000005200000052000000000000000000000000000000000000000000000000
#0533b1:0000000000000013
#0543b1:53
#054361:00230000
#054361:0000000000180000
#054391:0000000000000022
#055361:00000000000014000000000000540000
#0553a1:0000000000340000
#0563a1:24
#058351:0013
#058321:00000023
#0603a1:14240000
#060361:0054000000000000
#060320:00142400
#060360:0000005400000000
#0603a0:0000000000142400
#060321:0000000000001424
#062321:13230000
#062361:0053000000000000
#062371:00001323
#0623b1:0000000000530000
#063321:13230000
#063361:0053000000000000
#063371:0013
#0633b1:00000023
#064361:13
#064321:00230000
#064361:00001323
#064321:0000000000530000
#065371:13230000
#0653b1:0053000000000000
#065321:0000001300330023
#065361:00003333
#065370:0000000000000013
#0663b0:00530000000000000000000000000000
#066370:00230000
#066321:0000132300000000
#0663b0:0000001300000000
#066370:0023
#066320:0000000000130000
#066360:00000023
#0663b0:0000000000000013
#067370:23
#067321:1323000000000000
#067380:0013230000000000
#067351:0000132300000000
#0673b0:0000001300000000
#067370:0000000000230000
#0683b0:13230000
#068370:0053000000000000
#068361:0000000000000000130000000023000000000000000000000000000000000000
#068341:0000000000000000000000000000000013000000002300000000000000000000
#068321:0000000000000000000000000000000000000000000000001300000000230000
#069371:13
#0693b1:0053000000000000
#069381:00230000
#069350:00130000
#069320:0000005300000000
#069360:0023
#0693b0:00000013
#070360:53
#0703b0:00230000
#070360:00001323
#070320:0000000000530000
#0713b0:13230000
#071370:0053000000000000
#071360:0013
#071320:00000023
#072370:13
#0723b0:00230000
#072370:00001323
#0723b0:0000000000530000
#073360:13230000
#073320:0053000000000000
#0733b0:0000001300330023
#073370:00003333
#073361:0000000000000013
#074321:00530000000000000000000000000000
#074361:00230000
#0743b0:0000132300000000
#074321:0000001300000000
#074361:0023
#0743b1:0000000000130000
#074371:00000023
#074321:0000000000000013
#075361:00530000000000000000000000000000
#075321:00230000
#075371:0000001300000000
#0753b1:0023
#075361:0000000000130000
#075321:00000023
#0753b1:0000000000000013
#076361:00000053000000000000000000000000
#0763b1:0023
#078321:0013230000000000
#078361:0000001300000000
#078351:0000000000000000000000000033000000000000000000000000000000000000
#078321:0023
#078371:0000000000132300
#079381:0000001323000000
#079321:00000013
#079361:0000000000000053
#080321:23
#080381:0013230000000000
#0803b1:0000001300000000
#0803a1:0000000000000000000000000033000000000000000000000000000000000000
#080371:0023
#0803b1:0000000000132300
#080320:0000000000001323
#0823b0:0013230000000000
#082370:0000001300000000
#082380:0000000000000000000000000033000000000000000000000000000000000000
#0823b0:0023
#082360:0000000000132300
#0833b0:00000013
#083370:0000000000000053
#0843b0:23
#084350:0013230000000000
#084320:0000001300000000
#084330:0000000000000000000000000033000000000000000000000000000000000000
#084360:0023
#084320:0000000000132300
#0843b1:0000000000001323
#0853a1:00000014
#0863c1:3100005100510051005100510051005100510051005100510051005100510051
#0863b1:0033333333333333
#0873b1:3333333300000000
#0873c1:0051005100510051005100510051000021000000000000000000000000000000
#086330:1100005100510051005100510051005100510051005100510051005100510051
#086320:0033333333333333
#087320:3333333300000000
#087330:0051005100510051005100510051000021000000000000000000000000000000
#088370:12220000
#089320:1222
#0893c1:0012000022000000
#0903a1:0000000000000012
#0913a1:00220000
#092321:12
#093361:22
#0923c0:0012000000000000
#093380:22
#099320:0000000000000014
#100320:0034000000000000
#104320:22
#1003a1:0000000000000014
#1043c1:22
