This file was generated by Ched 2.7.0.0.
#TITLE ""
#ARTIST ""
#DESIGNER ""
#DIFFICULTY 0
#PLAYLEVEL
#SONGID ""
#WAVE ""
#WAVEOFFSET 0
#JACKET ""
#REQUEST "ticks_per_beat 480"
#00002: 4
#BPM01: 184
#00008: 01
#TIL00: ""
#VOLUME: ""
#HISPEED 00
#MEASUREHS 00
#0241a:14140000
#02412:00001414
#02410:41
#0121a:1414
#01214:00140014
#01210:41
#01318:1414
#01312:00140014
#0141a:1414
#01414:00140014
#01518:1414
#01512:00140014
#0161a:14
#01614:00140000
#01618:0014
#01612:00000014
#0171a:14
#01714:00140000
#01718:0014
#01712:00000014
#0181a:14
#01812:00140000
#01818:0014
#01814:00000014
#0191a:14
#01912:00140000
#01918:0014
#01914:00000014
#02112:0000000000140000
#03618:1414
#03614:00140014
#03610:41
#0371a:1414
#03712:00140014
#03818:1414
#03814:00140014
#0391a:1414
#03912:00140014
#0481a:14
#04812:1414
#04814:00000014
#04810:41
#0441a:14
#04512:14
#04618:14
#04714:14
#06212:00140000
#06218:0014
#06214:00000014
#0621a:24
#0621f:21
#0631a:14
#06314:00140000
#06318:0014
#06312:00000014
#06310:41
#0681a:14
#06814:14
#06812:0014
#06818:0014
#06819:00340034
#06813:00340034
#0691a:14
#06914:14
#06912:0014
#06918:0014
#06919:00340034
#06913:00340034
#0641a:14
#06414:00140000
#06418:0014
#06412:00000014
#06518:14
#06514:00140000
#0651a:0014
#06512:00000014
#0661a:14
#06616:00140014
#06612:0014
#0671a:14
#06712:00140000
#06718:0014
#06714:00000014
#07014:2414
#07018:00000014
#0701a:24
#07112:14
#07118:00140000
#07114:0014
#0711a:00000014
#07212:14
#07218:00140000
#07214:0014
#0721a:00000014
#07314:14
#07318:00140000
#07312:0014
#0731a:00000014
#07412:14
#07416:00140014
#0741a:0014
#07512:14
#0751a:00140000
#07514:0014
#07518:00000014
#07618:00000014
#07714:1414
#07718:00140014
#0781a:00000014
#07810:41
#08818:14
#0881a:00003434
#08819:00340000
#08614:14
#08612:00003434
#08613:00340000
#09012:14
#09014:00003434
#09013:00340000
#0921a:14
#09218:00003434
#09219:00340000
#09412:14
#09415:0000000000000014
#0961a:14
#09617:0000000000000014
#09812:14
#09915:0014
#02714:00140014
#02718:1414
#02612:00001414
#0261a:14140000
#02514:00140014
#02518:1414
#08014:14
#08018:00140000
#08012:0014
#0801a:00000014
#08418:14
#08414:00140000
#0841a:0014
#08412:00000014
#0821a:14
#08212:00140000
#08218:0014
#08214:00000014
#04916:14
#04918:00140000
#0491a:0014
#04912:00000014
#0501a:1414
#05012:00140014
#05212:0014
#0521a:00000014
#0521f:11
#05314:1414
#05318:00140014
#05412:1414
#0541a:00140014
#05512:14
#05518:00140000
#05514:0014
#0551a:00000014
#05612:14
#0561a:00140000
#05614:0014
#05618:00000014
#05818:00140000
#05814:0014
#0581a:00000014
#05812:24
#05914:14
#05918:00140000
#05912:0014
#0591a:00000014
#0571a:0024
#05712:24
#06114:0024000000000000
#02819:00340000
#02818:0034
#02919:00340000
#0291a:0034
#03019:00340000
#03018:0034
#03119:00340000
#0311a:0034
#03213:00340000
#03214:0034
#03313:00340000
#03312:0034
#03413:00340000
#03414:0034
#03513:00340000
#03512:0034
#04018:0034
#04019:00340000
#04114:0034
#04113:00340000
#04312:0034
#04313:00340000
#0421a:0034
#04219:00340000
#0891a:34343400
#08712:34343400
#09114:34343400
#09318:34343400
#00418:00343434
#00518:34343400
#00614:00343434
#00714:34343400
#01012:00343434
#01112:34343400
#0081a:00343434
#0091a:34343400
#02152:0000000000240000
#01954:00000064
#0445a:64
#04552:54
#04658:54
#04754:64
#0625a:14
#0705a:14
#07054:14
#0685a:64
#06854:64
#06852:0054
#06858:0054
#0695a:64
#06954:64
#06952:0054
#06958:0054
#07758:00000054
#0785a:00000024
#08858:54
#08654:64
#09052:54
#0925a:64
#09452:54
#09455:0000000000000024
#0965a:64
#09657:0000000000000024
#09852:54
#09955:0064
#0575a:0014
#05752:14
#05852:14
#06154:0014000000000000
#0043a0:14
#004380:00343434
#005380:34343424
#006320:14
#006340:00343434
#007340:34343424
#008380:14
#0083a0:00343434
#0093a0:34343424
#010340:14
#010320:00343434
#011320:34343424
#019340:00000014
#021320:0000000000540000
#023340:0024
#0283a0:14
#028390:00340000
#028380:00003434
#029380:34
#029390:00340000
#0293a0:00003434
#0303a0:34
#030390:00340000
#030380:00003434
#031380:34
#031390:00340000
#0313a0:00003424
#032320:14
#032330:00340000
#032340:00003434
#033340:34
#033330:00340000
#033320:00003434
#034320:34
#034330:00340000
#034340:00003434
#035340:34
#035330:00340000
#035320:00003424
#0403a0:14
#040390:00340000
#040380:00003424
#041320:14
#041330:00340000
#041340:00003424
#042380:14
#042390:00340000
#0423a0:00003424
#043340:14
#043330:00340000
#043320:00003424
#0443a0:14
#044380:0024
#045320:14
#045340:0024
#046380:14
#0463a0:0024
#047340:14
#047320:0024
#0513a0:14
#051350:0036
#052350:26
#060320:14
#061340:3424000000000000
#0683a0:14
#068390:00340034
#068380:0034
#0693a0:34
#069390:00340034
#069380:0034
#0703a0:24
#068341:14
#068331:00340034
#068321:0034
#069341:34
#069331:00340034
#069321:0034
#070341:24
#076321:14
#076341:0024
#077381:00000014
#0783a1:00000054
#079381:00000024
#081341:14000024
#081321:00343400
#0833a1:14240000
#083321:00001424
#085381:14000024
#0853a1:00343400
#086341:14
#086331:00340000
#086321:00003434
#087321:34343424
#088381:14
#088391:00340000
#0883a1:00003434
#0893a1:34343424
#090321:14
#090331:00340000
#090341:00003434
#091341:34343424
#0923a1:14
#092391:00340000
#092381:00003434
#093381:34343424
#094321:14
#094351:0000000000000054
#095321:00000024
#0963a1:14
#096371:0000000000000054
#0973a1:00000024
#098321:14
#099351:0034
#100321:0034343434343434
#104321:23
