This file was generated by Ched 2.7.0.0.
#TITLE ""
#ARTIST ""
#DESIGNER ""
#DIFFICULTY 0
#PLAYLEVEL
#SONGID ""
#WAVE ""
#WAVEOFFSET 0
#JACKET ""
#REQUEST "ticks_per_beat 480"
#00002: 4
#BPM01: 175
#00008: 01
#TIL00: ""
#VOLUME: ""
#HISPEED 00
#MEASUREHS 00
#0081a:14
#0091a:14
#01014:14
#01114:14
#01218:14
#01318:14
#01412:14
#01512:14
#01618:16
#01816:16
#02112:14
#02218:14
#02312:14
#0321a:14
#03210:41
#03314:14
#03612:14
#03718:14
#0401a:14
#04112:14
#04218:14
#04314:14
#0441a:14
#04410:41
#04512:14
#0561a:14
#0561f:11
#0571a:14
#05814:14
#05914:14
#06018:14
#06118:14
#06212:14
#06312:14
#0641a:14
#06512:14
#07118:1616
#07212:1616
#06918:0016
#06912:16
#06712:0016
#06718:16
#06710:41
#06612:0016
#06618:26
#0661f:21
#09312:0016
#09318:16
#09118:0016
#09112:16
#09512:1616
#09618:1616
#09718:0016
#09712:16
#07318:1616
#07518:16
#07512:0016
#07712:16
#07718:0016
#07918:1616
#07910:41
#08012:1616
#08118:1616
#08418:0016
#08512:16
#08518:0016
#08718:1616
#08812:1616
#08918:16
#08912:0016
#04618:24
#04714:24
#07412:26
#09018:26
#09010:41
#05510:41
#01856:26
#01658:56
#0003a0:14
#0013a0:24
#002340:14
#003340:24
#004380:14
#005380:24
#006320:14
#007320:24
#016380:16
#018360:56
#020380:26
#0243a0:14
#0253a0:34
#0263a0:34
#0273a0:24
#028320:14
#029320:34
#030320:34
#031320:3424
#0343a0:14
#0353a0:24
#038320:14
#039320:24
#0483a0:14
#0493a0:24
#050340:14
#051340:24
#052380:14
#053380:24
#054320:14
#055320:24
#068380:1626
#070320:1626
#074320:1626
#076380:1626
#078320:1626
#082320:16
#082330:0036
#083340:36
#083330:0036
#084320:26
#086320:1626
#090380:1626
#092320:1626
#094380:1626
#098320:16
#102320:0026
