This file was generated by Ched 2.7.0.0.
#TITLE ""
#ARTIST ""
#DESIGNER ""
#DIFFICULTY 0
#PLAYLEVEL
#SONGID ""
#WAVE ""
#WAVEOFFSET 0
#JACKET ""
#REQUEST "ticks_per_beat 480"
#00002: 4
#BPM01: 175
#00008: 01
#TIL00: ""
#VOLUME: ""
#HISPEED 00
#MEASUREHS 00
#0001b:2200001200001200
#00419:1200001200001200
#00413:52
#00615:1200001200001200
#00619:52
#00918:12
#00916:0012
#00914:00000012
#01118:0012
#0111a:00000012
#01314:00000012
#01316:12
#0131a:00000012
#0131c:12
#01213:0012
#01216:12
#01219:0012
#0121c:12
#01415:0012
#01412:12
#01418:12
#0141b:0012
#01518:12
#01512:12
#01516:0022
#0151c:0022
#02015:00130000
#0201b:00000013
#02018:0000001300000000
#02012:0000000023000023
#02118:1300000000130013
#02115:0013000000000000
#02112:0023
#02816:0013
#0281c:0012
#02818:12160016
#02912:13
#02916:0013
#0291c:0012
#02918:12160016
#03012:13
#03016:0013
#0301c:0012
#03018:12160016
#03112:13
#03116:0013
#03118:12160000
#03317:0013
#03316:00130013
#03312:13
#03617:1313
#0361b:00130013
#03612:0013
#03616:00000013
#04012:13
#04017:13
#04016:0013
#04512:00130013
#04516:13
#04517:00130013
#0451b:13
#0461b:13
#04616:00130014
#0461a:0014
#04612:13
#05114:00000013
#05112:00130000
#05116:13
#05117:00130000
#0511b:13
#05119:00000013
#05312:1300000000000013
#05316:00130000
#0531b:00130000
#05317:13
#0541b:0000001300001300
#05412:0000130000000013
#05516:0000001300000013
#0551b:0013
#05517:13
#05510:41
#05718:00000013
#05715:0000000000000013
#0571b:13
#05717:00130000
#05712:00130000
#05716:13
#0601b:0013
#06017:13
#06012:24
#06014:00240024
#06016:0024
#06212:13
#06216:2413
#06218:00240000
#0621a:0024
#06116:0013
#06112:24
#0611a:0024
#06118:00000024
#0631b:00130000
#0631a:0000000000120000
#06314:00000012
#06318:1300000000000012
#06312:0023
#06315:0023000000000000
#03212:2613
#0321b:0013
#03217:00000013
#03210:41
#03416:13
#0341b:13
#03412:00130000
#03417:00130000
#03717:13
#03712:13
#03716:00130000
#03917:00130000
#0391b:1323
#03916:13
#0681b:00000013
#06812:24000013
#06816:00140000
#0741a:0014
#07412:14
#07418:26000014
#0351b:0013
#03514:00000013
#03516:0013
#03519:00000013
#03816:1313
#03812:00130013
#03817:00000013
#0381b:0013
#04216:14
#04214:00000013
#04219:00000013
#0421a:24
#04716:00140000
#04712:24
#0471a:2424
#0481b:23000013
#04816:13000013
#04817:0013
#05012:0013
#0501b:13
#05017:0013
#05216:00130013
#05212:1313
#05217:1313
#06616:00140014
#0661a:24
#06612:2424
#0661f:21
#0691b:1313
#06912:00130000
#06916:1313
#06917:00000013
#09012:26141400
#09015:0000000000000013
#09018:00000013
#0901a:14
#09010:41
#07012:23000013
#07015:00130000
#07018:00130000
#0701b:23
#07115:00130000
#07114:0013
#07113:00000013
#0711b:13
#0731b:13
#07315:00130000
#0731a:00001232
#09215:00002513
#0921a:24141400
#09218:0000000000000013
#09418:00000013
#09412:24141400
#09415:0000000000000013
#09416:0025
#0011b:0012000012525252
#00213:1200001200001200
#0021b:52
#00313:0012000012525252
#00519:0012000012525252
#00715:0012000012525252
#02218:00130000
#02212:14000013
#02215:0000001300000000
#0221b:0000000023000023
#02315:1300000000130013
#02318:0013000000000000
#0231b:0023
#0241b:0013
#02416:0012
#02412:12160016
#0241a:24
#02517:13
#0251b:0013
#02516:0012
#02512:12160016
#02617:13
#0261b:0013
#02616:0012
#02612:12160016
#02717:13
#0271b:0013
#02716:0012
#02712:12160016
#0431b:1313
#04317:00130013
#04316:1313
#04312:00130013
#0591b:00000013
#06416:12
#07218:00130000
#07219:0013
#0721a:00000013
#07212:13
#07612:00000013
#0761b:00000013
#07616:00140000
#0761a:24
#07712:1313
#0771b:00130000
#07717:1313
#07716:00000013
#07812:00130000
#0781b:00130000
#07818:23000013
#07815:23000013
#08412:0013
#0841b:13000013
#08417:0023
#08416:00000023
#08512:13000026
#0851b:00130000
#08518:0026
#08517:23
#08516:00230000
#01912:0000001c
#06516:12
#06518:12
#09118:00130000
#09112:00000014
#09115:0023
#0911b:23
#04412:0013
#04419:00000013
#04417:0013
#04414:00000013
#04410:41
#04919:13000013
#04912:0000331333000000
#04917:00131300
#04914:33000033
#08612:26000013
#08617:00000013
#08618:26
#08817:0013
#0881b:00130013
#08812:13
#08816:00130000
#08815:00000013
#08912:13
#08918:00130000
#08914:00001232
#09315:00130000
#0931a:00000014
#09318:0023
#09312:23
#09512:1414
#0951a:00240024
#09516:2424
#09712:14002424
#0971a:24241400
#05617:00130013
#0561b:1313
#05616:0013
#05612:00130013
#0561f:11
#05812:00000013
#08118:0013
#08112:00000013
#0811b:13
#08115:00130000
#08317:0013
#08314:00130013
#08312:0013
#08316:13
#08319:00130013
#08212:0013
#08219:00130013
#08217:0013
#0821b:13
#08214:00130013
#07912:00130000
#07915:0013
#0791b:13000013
#07910:41
#08015:00130000
#08012:0013
#08018:13000013
#08716:13
#08712:00130013
#0871b:0013
#08717:00000013
#08718:00130000
#0961a:1414
#09612:00240024
#09616:2424
#06718:00140000000000001400000000000000
#06719:00140000
#06717:00000000001400000000000014000000
#06716:00000000000000000014000000000000
#0671a:24
#06715:00240000
#06714:0024
#06713:00000024
#06710:41
#07514:00140000000000001400000000000000
#07513:00140000
#07515:00000000001400000000000014000000
#07516:24000000000000000014000000000000
#07512:24
#07517:00240000
#07518:0024
#07519:00000024
#09812:14
#0981a:24
#00818:24
#00815:52
#01612:2c
#0245a:14
#02456:0022
#02452:22560056
#00858:14
#01253:0052
#01256:52
#01259:0052
#0125c:52
#01452:62
#01458:62
#01455:0052
#0145b:0052
#01552:62
#01558:62
#01556:0012
#0155c:0012
#06057:53
#0605b:0023
#06252:23
#06256:0063
#06156:0063
#03957:00230000
#0395b:6343
#03956:63
#0325b:0063
#03252:16
#03257:00000023
#03352:63
#03357:0063
#03356:00230000
#0345b:63
#03456:63
#03452:00230000
#03457:00230000
#03857:00000023
#03852:00230023
#03856:6363
#0385b:0063
#03656:00000023
#0365b:00230023
#03657:6363
#03652:0063
#03757:63
#03752:6333
#03756:00230000
#0465a:0064
#04652:5333
#04656:00230024
#0465b:43
#04756:00240000
#04752:6434
#0475a:4444
#04856:53000053
#0485b:13
#05052:0053
#0505b:53
#05057:0053
#05152:00230000
#05156:5313
#05157:00230000
#0515b:5313
#05356:00230000
#05352:63
#0535b:00230000
#05357:63
#05256:00230023
#05252:6363
#05557:63
#0555b:0013
#0665a:6444
#06652:1464
#06656:00240024
#0695b:53
#06956:0053
#04057:63
#04056:0063
#07052:23001353
#07055:00630000
#07058:00530000
#0705b:2313
#0735b:53
#07355:00530000
#07356:13
#0735a:0022
#07458:16
#07452:54
#07156:13
#0715b:53
#00958:52
#01356:52
#01352:0012
#0135c:52
#01358:0012
#04256:24
#0425a:24
#0435b:6363
#04356:6363
#04352:00530053
#04357:00530053
#0445b:13
#04456:13
#03556:13
#0355b:13
#07257:13
#07252:63
#07752:63
#07757:0063
#07852:00230000
#07855:53001353
#0785b:00230000
#07858:6313
#08652:56
#08657:00000063
#08658:46
#0915b:13
#09155:0013
#0985a:14
#09852:54
#01952:0000006c
#02252:14
#06556:22
#06558:22
#04552:00230000
#04556:63
#04557:00230000
#0455b:63
#06856:14240000
#06852:64
#04952:0000002300000000
#08857:0063
#0885b:13000023
#08852:6313
#08856:00230000
#08952:63
#08958:00630000
#08954:0022
#08957:13
#0875b:1353
#08756:5313
#08752:00230000
#08757:00000023
#09052:16
#0905a:64
#09358:0013
#09352:13
#09552:6464
#09556:1414
#09752:6414
#0975a:1454
#0575b:53
#05757:00230000
#05752:00230000
#05756:53
#05657:00230023
#0565b:5353
#08552:00000036
#08558:0046
#06752:34
#06757:00000000002400000000000054000000
#06758:00240000000000005400000000000000
#06756:00000000000000000024000000000000
#0675a:54
#06759:00540000
#08158:0053
#08152:00000053
#0815b:53
#08155:13530000
#08354:00530053
#08352:0023
#08356:23
#0835b:13
#07955:0053
#0795b:53
#07952:13
#07958:0013
#08259:00530053
#08257:0023
#0825b:23
#08256:13
#0845b:13
#08456:13
#08052:1363
#08058:63
#0805b:0013
#0965a:5454
#09656:1414
#09452:14
#09456:0015
#07554:00240000000000006400000000000000
#07553:00640000
#07555:00000000002400000000000064000000
#07556:00000000000000000024000000000000
#07552:64
#0765a:54
#07656:14240000
#0925a:14
#09255:0015
#02056:14
#02556:0022
#02552:22560056
#02656:0022
#02652:22560056
#02756:0022
#02752:22560056
#0285c:0022
#02858:22560056
#0295c:0022
#02958:22560056
#0305c:0022
#03058:22560056
#03158:22560000
#008360:00000012
#009360:22
#009381:12
#0093c1:0022
#010321:12
#010341:00220000
#0103c0:00120000
#0103a0:0022
#010341:0012
#010361:00000022
#0103a0:00000012
#011380:22
#011361:1222
#012361:12
#012331:0032
#013361:32
#013321:0022
#0123c0:12
#012390:0032
#0133c0:32
#013380:0022
#014320:12
#014350:0032
#015320:32
#015360:0022
#014381:12
#0143b1:0032
#015381:32
#0153c1:0022
#016321:1c5c5c5c5c5c5c5c5c5c5c5c5c5c5c5c5c5c5c5c5c5c5c5c
#016351:005600560056005600560056005600560056005600560056005600560056005600560056005600560056005600560056
#017321:5c5c5c5c5c5c5c5c5c5c5c5c5c5c5c5c5c5c5c5c5c5c5c5c
#017351:005600560056005600560056005600560056005600560056005600560056005600560056005600560056005600560056
#018321:5c5c5c5c5c5c5c5c5c5c5c5c5c5c5c5c5c5c5c5c5c5c5c5c
#018351:005600560056005600560056005600560056005600560056005600560056005600560056005600560056005600560056
#019321:5c5c5c5c5c5c5c5c5c5c5c5c5c5c5c5c5c5c5c0000000000
#019351:005600560056005600560056005600560056005600560056005600560056005600560056000000000000000000000000
#020361:24
#0213b1:00132300
#023321:00132300
#024321:12360036
#024361:0032
#025321:32360036
#025361:0032
#026321:32360036
#026361:0032
#027321:32360036
#027361:0032
#028321:22
#028380:12360036
#0283c0:0032
#029380:32360036
#0293c0:0032
#030380:32360036
#0303c0:0032
#031380:32360000
#0313c0:0032
#0323c0:22
#0323b0:0013
#032370:00000053
#0333b0:23
#033321:1323
#033361:00530000
#033370:0013
#0333b0:00000023
#034360:1323
#034320:00530000
#0343b1:1323
#034371:00530000
#0343b1:00000013
#0353b1:23
#034360:00000013
#035360:23
#036320:1333
#036360:00000053
#037320:3323
#037360:00530000
#036371:1333
#0363b1:00530053
#037371:33
#0373b1:00530000
#0383b1:3333
#038371:00000053
#0393b1:3323
#039371:00530000
#038360:1333
#038320:00530053
#039360:33
#039320:00532300
#040370:13
#0403b0:0023
#040361:0013
#041321:23
#041360:14240000
#041321:00142400
#0413a0:00001424
#041361:00000014
#042361:34
#042321:0024
#0423a0:14
#042360:0024
#0433b0:1333
#043370:00330033
#0443b0:23
#043361:1333
#043321:00330033
#044361:23
#045361:1323
#045321:00530000
#0453b0:1323
#045370:00530000
#046320:1323
#046360:00330000
#0463a1:0014
#046361:00000034
#0473a1:24
#047320:1424
#047360:00340000
#048360:13
#048320:0023
#048360:00000013
#049340:33000033
#049320:0000335333000000
#050360:23
#0503b1:13
#050371:0033
#0513b1:3323
#051371:00530000
#050320:0013
#051360:3323
#051320:00530000
#052320:1333
#052360:00530053
#053320:3323
#053360:00530000
#053371:1323
#0533b1:00530000
#054371:13230000
#054361:00001323
#055371:13
#0553b1:0000002300000000
#0563b1:1333
#056371:00530053
#0573b1:3323
#057371:00530000
#057360:1323
#057320:00530000
#0583b0:13
#058370:00230000
#058341:00132300
#058370:0013
#0583b0:00000023
#059320:13
#059360:00230000
#059391:00132300
#059360:0013
#059320:00000023
#060370:13
#0603b0:0053
#061370:23
#061360:0013
#062320:53
#062360:0033
#063320:23
#064380:00000012
#065380:3226
#064361:00000012
#065361:32
#065321:0026
#0663a1:1424
#066361:00540000
#066320:0014
#066360:00000054
#067320:24
#0673a1:14
#067381:00540000000000003400000000000000
#067391:00340000
#067371:00000000005400000000000034000000
#067361:00000000000000000054000000540000
#068361:24
#068320:1424
#068360:00540000
#0693b0:13
#069370:00230000
#069360:0013
#069320:00000023
#0703b0:1323
#070380:00530000
#070321:1323
#070351:00530000
#070321:00000013
#071361:23
#0713b0:13
#072370:23
#072321:13
#073361:23
#0733b0:13
#073380:00230000
#073351:00130000
#073321:0023
#0733a0:00001232
#074380:26
#074321:14
#074361:0024
#075321:14
#075341:00540000000000003400000000000000
#075331:00340000
#075351:00000000005400000000000034000000
#075361:00000000000000000054000000540000
#076361:24
#0763a0:1424
#076360:00540000
#077320:13
#077360:00230000
#077370:0013
#0773b0:00000023
#078350:1323
#078320:00530000
#078381:1323
#0783b1:00530000
#078351:00000013
#079321:23
#0793b0:13
#079380:0023
#079351:0013
#080321:23
#080380:13
#0803b0:0023
#080321:0013
#081351:23
#0813b0:13
#081380:00230000
#081351:00130000
#081321:0023
#081380:0013
#0813b0:00000023
#081321:00000013
#082361:23
#0823b0:13
#082390:00530053
#082370:0053
#0833b0:23
#083361:13
#083341:00530053
#083321:0053
#084361:23
#086321:16
#086351:0026
#086371:00000013
#0873b1:23
#087360:1323
#087320:00330000
#0873b1:0013
#087371:00000033
#0883b1:23
#088320:1323
#088360:00330000
#088371:0013
#0883b1:00000033
#089371:23
#089320:13
#089350:00230000
#089381:00130000
#0893b1:0023
#089340:00001232
#090320:26
#0903a1:14
#090361:0024
#091321:13
#091351:00005353535353532300000000000000
#091341:0000000000530053005300530053005300000000000000000000000000000000
#091380:0013
#0913a0:00000000000000000000545454545454
#091390:0000000000000000000000000000000000000000005400540054005400540054
#0923a0:24
#092321:14
#092351:00005555555555552500000000000000
#092341:0000000000550055005500550055005500000000000000000000000000000000
#0933b1:13
#093381:00005353535353532300000000000000
#093391:0000000000530053005300530053005300000000000000000000000000000000
#093350:0013
#093320:00000000000000000000545454545454
#093330:0000000000000000000000000000000000000000005400540054005400540054
#094320:24
#0943a1:14
#094361:00005555555555552500000000000000
#094371:0000000000550055005500550055005500000000000000000000000000000000
#095321:14
#095361:00240000
#095321:0014
#095361:00000024
#0963a1:14
#096361:00240000
#0963a1:0014
#096361:00000024
#097321:1400005424000000
#097361:00340000
#0973a0:0000000014000054
#097360:00000034
#0983a0:24
#098321:140000000000000000000000000000000000000000000000000000000000000000000000000000000000000000000000000000000000000000000000000000000000000000000000000000000000000000000000000000000000000000000000000000000000000000000000000000000000000000000000000000000000000000000000000000000000000000000000000000000000000000000000000000000000000000000000000000000000000000000000000000000000000000000000530056530000000000000000000000000000000000000000000000000000000000000000000000000000000000530000560000530000000000000000000000000000000000000000000000000000000000000000000000000000000000530000560000530000000000000000000000000000000000000000000000000000000000000000000000000000000000530000560000530000000000000000000000000000000000000000000000000000000000000000000000000000000000530000
#099321:5653000000000000000000000000005356530000000000000000000000000053565300000000000000000000000000535653000000000000000000000000005356530000000000000000000000000053565300000000000000000000000000535553000000000000000000000000005355530000000000000000000000000053
#100321:5553000000000000000000000000005355530000000000000000000000000053555300000000000000000000000000535553000000000000000000000000005355530000000000000000000000000053555300000000000000000000000000535553000000000000000000000000005354530000000000000000000000000053
#101321:5453000000000000000000000000005354530000000000000000000000000053545300000000000000000000000000535453000000000000000000000000005354530000000000000000000000000053545300000000000000000000000000535453000000000000000000000000005354530000000000000000000000000053
#102321:5453000000000000000000000000000000000000000000000000000000000000000000000000000000000000000000000000000000000000000000000000000022000000000000000000000000000000000000000000000000000000000000000000000000000000000000000000000000000000000000000000000000000000
#0019b0:0012
#0029b0:22
#003930:0012
#004930:22
#005990:0012
#006990:22
#007950:0000000012005252
#007930:00000000000000000000000000520000
#008950:22
