This file was generated by Ched 2.7.0.0.
#TITLE ""
#ARTIST ""
#DESIGNER ""
#DIFFICULTY 0
#PLAYLEVEL
#SONGID ""
#WAVE ""
#WAVEOFFSET 0
#JACKET ""
#REQUEST "ticks_per_beat 480"
#00002: 4
#BPM01: 175
#00008: 01
#TIL00: ""
#VOLUME: ""
#HISPEED 00
#MEASUREHS 00
#0001a:2200001200001200
#00418:0000001200001200
#00416:52
#00614:0000001200001200
#00618:52
#00912:0013
#00915:00000013
#0091b:33
#01112:1313
#01115:00000013
#0111b:13
#02015:00130000
#02018:0000001300001300
#02012:0000000023000023
#0211b:13131300
#02115:00130000
#02112:0023
#03612:13
#03615:0013
#0541b:00130000
#05418:0000000013000013
#05415:0000001300000000
#05412:13000013
#05718:00000013
#05715:0000000000000013
#05712:13
#0631b:0000000000130000
#06315:00000013
#06318:0000000000000013
#03412:13
#03416:0000001300000000
#0321b:0013
#03212:26
#03210:41
#03515:00000013
#03518:0013
#03712:13
#03715:00130000
#0481b:00000013
#05515:13
#05518:0000000000000013
#05510:41
#09015:23000013
#09018:2313
#0901b:00130000
#09010:41
#0011a:0012000052525252
#00216:0000001200001200
#0021a:52
#00316:0012000052525252
#00518:0012000052525252
#00714:0012000052525252
#02218:00130000
#02215:0000001300001300
#02212:13
#0221b:0000000023000023
#02312:13131300
#02318:00130000
#0231b:0023
#02412:0016
#02512:0016
#02612:0016
#02712:0016
#0421b:00000013
#04215:23
#04318:0013
#0431b:13
#05118:13000013
#06412:13
#06512:13
#0651b:13
#04412:0013
#04418:00000013
#04410:41
#04915:00130013
#04912:0013
#04918:13
#01018:1313
#0101b:00130000
#01015:00000013
#01218:13
#0121b:0013
#01318:13
#01315:00000013
#01415:13
#01412:0013
#01515:13
#01512:0023
#03318:13
#0331b:0013
#0381b:13
#03818:0013
#0391b:1323
#03918:00130000
#04012:13
#04016:0013
#04118:00130013
#04115:0013
#04612:1414
#04616:00140000
#04614:00000034
#0471a:2414
#04716:00140000
#04718:00000034
#05315:13
#05318:0000000000000013
#05618:0013
#05615:13
#0561f:11
#0581b:1313
#05818:00130000
#05912:1313
#05915:00130000
#06915:0013
#06918:00130013
#06912:13
#07412:00000016
#07418:23
#07415:23
#07818:23000013
#07812:23
#0921b:00000013
#09212:0025
#09412:00000014
#09419:0025
#00818:00000013
#00814:62
#01913:0000001a
#02818:0016
#02918:0016
#03018:0016
#03118:0016
#04518:00000014
#04515:13
#0681b:00000013
#06812:26
#07612:00000013
#07618:26
#0771b:13
#07715:00130013
#07718:0013
#07015:23000013
#0701b:23
#08618:00000013
#08615:26
#08214:0014
#08218:13
#0821b:0013
#08318:0014
#08315:13
#08312:0013
#08718:00130000
#08712:00000013
#08715:2313
#0871b:23
#08818:00130000
#08812:00000013
#08815:2313
#0881b:23
#08918:00130000
#0891b:23
#08915:23
#07118:00130013
#07115:0013
#0711b:23
#07112:23
#07318:00130000
#0731b:23
#07312:23
#07218:00130013
#07215:0013
#0721b:23
#07212:23
#07915:00130013
#07918:0013
#07912:23
#0791b:23
#07910:41
#08115:00130013
#08118:0013
#08112:23
#0811b:23
#08015:00130013
#08018:0013
#08012:23
#0801b:23
#08518:2526
#08512:00000026
#08513:00250000
#0601a:24
#06016:00240024
#06012:0024
#06718:00260000
#06716:0026
#06714:00000026
#06712:26
#06710:41
#08418:0024
#08414:00000024
#01613:2a
#0611a:24
#06112:0024
#06116:00000024
#0621a:24
#06216:00240000
#06212:0024
#06612:26
#06618:0026
#0661f:21
#07512:00260000
#07514:0026
#07516:00000026
#07518:26
#09618:00240000
#09616:0024
#09614:00000024
#09612:24
#0961a:24
#0951a:24
#09518:00240000
#09516:0024
#09514:00000024
#09512:24
#09718:00240000
#09716:0024
#09714:00000024
#0971a:24
#09712:24
#09812:24
#02056:14
#0325b:0063
#03252:16
#03452:63
#03456:0000002300000000
#03652:63
#03655:0063
#03752:6333
#03755:00230000
#05555:63
#05552:0013
#06852:66
#01552:0013
#01555:53
#04358:0063
#0435b:63
#0445b:13
#05158:53
#08558:0016
#08552:00000016
#08655:16
#02252:13
#06552:23
#0655b:23
#0125b:0063
#01258:63
#01358:63
#0135b:0013
#01455:53
#01452:0053
#03358:53
#0335b:0053
#0385b:53
#03858:0053
#0395b:5343
#03958:00230000
#04052:53
#04056:0053
#04255:23
#04652:5454
#04656:00240000
#0475a:5464
#04756:00240000
#04856:14
#05355:63
#05752:63
#05658:0063
#05655:63
#0585b:5353
#05858:00530000
#05952:6363
#05955:00630000
#09252:0015
#00858:00000053
#00854:12
#01953:0000005a
#03552:13
#04555:53
#06652:16
#06658:0016
#06752:16
#07658:56
#07558:16
#09459:0015
#0705b:63
#07055:63
#07058:0013
#07052:0013
#09058:13
#09055:13
#07852:53
#07858:53
#07855:0013
#0785b:0013
#08258:63
#0825b:0023
#08355:53
#08352:0023
#08455:13
#07458:13
#07455:13
#008380:00000013
#0093b0:33230000
#012380:13
#0123b0:0033
#013380:33
#0133b0:0023
#014350:13
#014320:0033
#015350:33
#015320:0023
#016330:1a5a5a5a5a5a5a5a5a5a5a5a5a5a5a5a5a5a5a5a5a5a5a5a
#016340:005a0000005a0000005a0000005a0000005a0000005a0000005a0000005a0000005a0000005a0000005a0000005a0000
#016320:0000005a0000005a0000005a0000005a0000005a0000005a0000005a0000005a0000005a0000005a0000005a0000005a
#017330:5a5a5a5a5a5a5a5a5a5a5a5a5a5a5a5a5a5a5a5a5a5a5a5a
#017340:005a0000005a0000005a0000005a0000005a0000005a0000005a0000005a0000005a0000005a0000005a0000005a0000
#017320:0000005a0000005a0000005a0000005a0000005a0000005a0000005a0000005a0000005a0000005a0000005a0000005a
#018330:5a5a5a5a5a5a5a5a5a5a5a5a5a5a5a5a5a5a5a5a5a5a5a5a
#018340:005a0000005a0000005a0000005a0000005a0000005a0000005a0000005a0000005a0000005a0000005a0000005a0000
#018320:0000005a0000005a0000005a0000005a0000005a0000005a0000005a0000005a0000005a0000005a0000005a0000005a
#019330:5a5a5a5a5a5a5a5a5a5a5a5a5a5a5a5a5a5a5a0000000000
#019340:005a0000005a0000005a0000005a0000005a0000005a0000005a0000005a0000005a0000000000000000000000000000
#019320:0000005a0000005a0000005a0000005a0000005a0000005a0000005a0000005a0000005a000000000000000000000000
#020360:24
#024380:16
#0243b0:0033
#025380:36
#0253b0:0033
#026380:36
#0263b0:0033
#027380:36
#0273b0:0033
#028380:26
#028321:1633
#029321:3633
#030321:3633
#031321:3633
#032321:26
#0323b1:0013
#033381:33000023
#0333b1:0033
#034321:13000033
#034361:0000005300000000
#035321:23
#036321:13
#036351:0033
#037321:3323
#037351:00530000
#0383b1:13
#038381:0033
#0393b1:3323
#039381:00530000
#040321:13
#040361:0033
#041321:23
#042351:13
#042321:0023
#0433b1:13000033
#043381:00333300
#0443b1:23
#045351:13
#045321:0023
#046321:1434
#046361:00340000
#046341:00000034
#047361:24
#0473a0:1434
#047360:00340000
#047380:00000034
#048360:24
#050380:1323
#050351:0013
#051351:23
#051380:13
#0513b0:0023
#052350:1323
#052381:0013
#053381:23
#053350:13
#053320:0023
#055350:13
#055320:0000003323000000
#056350:13
#056320:0023
#056381:0013
#0573b1:23
#057320:13
#057350:0023
#0583b0:1333
#058380:00330023
#059320:1333
#059350:00330023
#062320:0014
#063360:24
#0643b0:00000013
#0653b0:33
#065380:0026
#064321:00000013
#065321:3326
#068321:16
#068351:0026
#0703b1:13
#070381:0023
#070350:13
#070320:0023
#073350:0013
#074350:23
#073381:00000013
#074381:23
#076381:16
#076351:0026
#078321:13
#078351:0023
#078380:13
#0783b0:0023
#082380:13
#0823b0:0033
#083380:23
#083351:13
#083321:0033
#084351:23
#089351:0013
#090351:23
#089380:00000013
#090380:23
#091320:13535353535353532300000000000000
#091330:0053005300530053005300530053005300000000000000000000000000000000
#0913a1:00000000000000001454545454545454
#091391:0000000000000000000000000000000000540054005400540054005400540054
#0923a1:24
#092320:15555555555555552500000000000000
#092330:0055005500550055005500550055005500000000000000000000000000000000
#0933b0:13535353535353532300000000000000
#0933a0:0053005300530053005300530053005300000000000000000000000000000000
#093321:00000000000000001454545454545454
#093331:0000000000000000000000000000000000540054005400540054005400540054
#094321:24
#094390:15555555555555552500000000000000
#094380:0055005500550055005500550055005500000000000000000000000000000000
#0983a0:1400000000000000000000000000000000000000000000000000000000000000000000000000000000000000000000000000000000000000000000000000000054540000000000000000000000000054005400000000000000000000000000540054000000000000000000000000005400540000000000000000000000000054
#098370:000000000000000000000000000000000000000000000000000000000000000000000000000000000000000000000000000000000000000000000000000000000000000000000000000000000000000000000000000000000000000000000000005700000000000000000000000000000000000000000000570000000000000000000000000000000000000000000000570000000000000000000000000000000000000000000000570000000000000000000000000000000000000000000000
#099370:5757575757570000
#0993a0:0054000000000000000000000000005400540000000000000000000000000054005400000000000000000000000000540054000000000000000000000000005400540000000000000000000000000054005400000000000000000000000000540054000000000000000000000000005400540000000000000000000000000054
#099380:0000000000005656
#100380:5656565656565600
#1003a0:0054000000000000000000000000005400540000000000000000000000000054005400000000000000000000000000540054000000000000000000000000005400540000000000000000000000000054005400000000000000000000000000540054000000000000000000000000005400540000000000000000000000000054
#100390:0000000000000055
#101390:5555555555555555
#1013a0:0054000000000000000000000000005400540000000000000000000000000054005400000000000000000000000000540054000000000000000000000000005400540000000000000000000000000054005400000000000000000000000000540054000000000000000000000000005400540000000000000000000000000054
#102390:55
#1023a0:0054000000000000000000000000000000000000000000000000000000000000000000000000000000000000000000000000000000000000000000000000000000000000000000000000000000000000000000000000000000000000000000000000000000000000000000000000000000000000000000000000000000000000
#1023b0:0023
#0019a0:0012
#0029a0:22
#003960:0012
#004960:22
#005980:0012
#006980:22
#007940:0012
#008940:22
