This file was generated by Ched 2.7.0.0.
#TITLE ""
#ARTIST ""
#DESIGNER ""
#DIFFICULTY 0
#PLAYLEVEL
#SONGID ""
#WAVE ""
#WAVEOFFSET 0
#JACKET ""
#REQUEST "ticks_per_beat 480"
#00002: 4
#BPM01: 175
#00008: 01
#TIL00: ""
#VOLUME: ""
#HISPEED 00
#MEASUREHS 00
#00814:0014
#0081a:24
#00918:14
#00912:0014
#01112:0014
#01118:14
#0101a:14
#01014:0014
#0121a:14
#01218:0014
#0131a:14
#01412:14
#01414:0014
#01512:14
#01916:0018
#02012:0014
#02118:14
#02112:0014
#0221a:14
#02214:0014
#0231a:14
#02314:0014
#03214:0014
#0321a:24
#03210:41
#03318:14
#03312:0014
#03512:0014
#0351a:14
#03518:00000014
#03612:14
#03614:0014
#03712:14
#0381a:14
#03818:0014
#0391a:14
#04012:14
#04018:0014
#04114:14
#0411a:0014
#0431a:0014
#04314:00000014
#04312:14
#03418:14
#03414:0014
#04214:14
#04218:0014
#0441a:14
#04412:0014
#04418:00000014
#04410:41
#04512:14
#0481a:14
#04812:0014
#04918:14
#04914:0014
#0541a:14
#05412:0014
#05518:14
#05510:41
#05614:14
#05618:0014
#0561f:11
#05712:1414
#05818:14
#05814:0014
#0591a:1414
#06012:14
#06018:0014
#06112:14
#0611a:0024
#06314:0014
#06714:00140000
#06719:0014
#06713:00000014
#0671a:24
#06710:41
#06812:00000014
#0691a:14000014
#06912:00140000
#06916:0014
#07012:14
#07014:00140000
#0701a:00000014
#07118:00140000
#07114:0014
#0711a:00000014
#07112:24
#07218:00140000
#07214:0014
#0721a:00000014
#07212:24
#07318:00140000
#07314:0014
#0731a:00000014
#07312:24
#07412:14
#0741a:00000014
#07518:00140000
#07513:0014
#07519:00000014
#07512:14
#0761a:00000014
#07712:14000014
#0771a:00140000
#07716:0014
#0781a:14
#07818:00140000
#07812:00000014
#07914:00140000
#07918:0014
#07912:00000014
#0791a:24
#07910:41
#08014:00140000
#08018:0014
#08012:00000014
#0801a:24
#08114:00140000
#08118:0014
#08112:00000014
#0811a:24
#0821a:14
#08217:0014
#0831a:14
#08317:0014
#08412:0014
#0841a:00000014
#08514:14
#08518:00140000
#08512:0014
#0851a:00000014
#0861a:00000014
#08614:24
#08718:00140014
#08712:0014
#08714:24
#0881a:00140000
#08814:2414
#08818:00000014
#08918:00140000
#08914:0014
#0891a:00000014
#08912:24
#09014:14
#09012:0024
#09010:41
#0911a:14
#09117:0014
#0921a:14
#09212:00000014
#09217:0024
#09317:14
#0931a:0014
#09417:14
#09412:00000014
#09514:00140014
#0951a:0014
#09518:24
#09612:00140000
#09618:2414
#09614:00000014
#09714:00140000
#09718:0014
#09712:00000014
#0971a:24
#01616:28
#0461a:24
#04712:24
#06214:24
#0621a:0024
#06618:26
#06612:0024
#0661f:21
#0085a:14
#0135a:54
#01258:0054
#0125a:54
#01452:64
#01454:0064
#01552:64
#01956:0058
#02058:14
#0325a:14
#03654:0024
#03652:54
#03752:54
#0385a:64
#03858:0024
#0395a:64
#04552:54
#0465a:54
#04752:64
#0485a:14
#0555a:0014
#05558:54
#06152:14
#0625a:0014
#06658:16
#07052:6414
#07054:00240000
#07452:64
#07454:0014
#0785a:5414
#07858:00240000
#0825a:54
#08257:0024
#0835a:54
#08357:0024
#08654:14
#09054:54
#09052:0014
#09257:0014
#0925a:54
#0915a:54
#09157:0054
#09357:64
#0935a:0064
#09457:64
#0945a:0014
#0003a0:1400003400003400
#0013a0:0034000024000000
#002320:1400003400003400
#003320:0034000024000000
#0043a0:1400003400003400
#0053a0:0034000024000000
#006320:1400003400003400
#007320:0034000024000000
#0123a0:14
#012380:0034
#0133a0:34
#013380:0024
#014320:14
#014340:0034
#015320:34
#015340:0024
#016360:18585858
#016370:0056005600560056
#017360:58585858
#017370:0056005600560056
#018360:58585858
#018370:0056005600560056
#019360:58585800
#019370:0056005600000000
#020380:24
#0243a0:14
#025380:34
#0263a0:34
#027380:3424
#028320:14
#029340:34
#030320:34
#031340:3424
#036320:14
#036340:0034
#037320:34
#037340:0024
#0383a0:14
#038380:0034
#0393a0:34
#039380:0024
#045320:14
#045340:0024
#0463a0:14
#046380:0024
#047320:14
#047340:0024
#0503a0:14
#050380:0034
#0513a0:34
#051380:0024
#052320:14
#052340:0034
#053320:34
#053340:0024
#055380:14
#0553a0:0024
#064390:14000034
#065390:3434
#066380:26
#068380:1424
#070320:1424
#070340:00540000
#074320:14
#074340:0024
#076340:1424
#0783a0:1424
#078380:00540000
#0823a0:14
#082370:0054
#0833a0:34
#083370:0054
#0843a0:24
#090340:14
#090320:0024
#0913a0:14
#091370:0034
#0923a0:34
#092370:0024
#093370:14
#0933a0:0034
#094370:34
#0943a0:0024
#098380:16
#1023a0:0024
