This file was generated by Ched 2.7.0.0.
#TITLE ""
#ARTIST ""
#DESIGNER ""
#DIFFICULTY 0
#PLAYLEVEL
#SONGID ""
#WAVE ""
#WAVEOFFSET 0
#JACKET ""
#REQUEST "ticks_per_beat 480"
#00002: 4
#BPM01: 190
#00008: 01
#TIL00: "0'0:1"
#VOLUME: ""
#HISPEED 00
#MEASUREHS 00
#0611f:11
#0051a:14
#00614:14
#00718:14
#00812:14
#0091a:14
#01014:14
#01118:14
#01212:14
#0131a:14
#01314:0014
#01310:41
#0141a:14
#01512:14
#01518:0014
#01612:14
#01718:14
#01714:0014
#0181a:14
#01914:14
#01918:0014
#02012:14
#0211a:14
#02110:41
#02214:14
#0231a:14
#0241a:14
#02512:14
#02618:14
#03114:14
#03118:0014
#03214:14
#03512:0016
#03518:26
#03510:41
#03618:16
#03612:0016
#03918:1616
#04012:16
#04018:0016
#03812:0016
#04218:0016
#04318:0016
#04312:16
#04310:41
#04412:16
#04418:0016
#04618:0016
#05214:14
#0511a:14
#05318:14
#05310:41
#05418:14
#05514:14
#05614:14
#05719:14
#05813:14
#07318:14
#07414:14
#07418:0026
#07518:0016
#0751f:21
#07512:26
#07612:16
#07618:0016
#07610:41
#07912:1616
#08018:16
#08012:0016
#07818:0016
#08212:0016
#08312:0016
#08318:16
#08418:16
#08412:0016
#08612:0016
#09218:14
#09114:14
#03412:26
#05919:0034
#06019:34
#027340:14
#027330:0034
#028320:24
#029380:14
#029390:0034
#0303a0:24
#032380:0014
#033380:24
#037380:1636
#038380:26
#041320:1636
#042320:26
#045320:1636
#046320:26
#047380:1636
#048380:26
#049320:1636
#050320:3626
#059390:1434
#060390:34
#060380:0026
#061320:14
#062320:34
#063320:34
#064320:24
#0653a0:14
#0663a0:34
#0673a0:34
#0683a0:24
#069340:14
#070340:34
#071340:34
#072340:24
#077320:1636
#078320:26
#081380:1636
#082380:26
#085380:1636
#086380:26
#087320:1636
#088320:26
#089380:1636
#090380:3626
#093330:1434
#094330:24
#095390:1400003400003400
#096390:0024000000000000
