This file was generated by Ched 2.7.0.0.
#TITLE ""
#ARTIST ""
#DESIGNER ""
#DIFFICULTY 0
#PLAYLEVEL
#SONGID ""
#WAVE ""
#WAVEOFFSET 0
#JACKET ""
#REQUEST "ticks_per_beat 480"
#00002: 4
#BPM01: 190
#00008: 01
#TIL00: "0'0:1"
#VOLUME: ""
#HISPEED 00
#MEASUREHS 00
#00515:00130013
#00512:2300000013000013
#00518:0013000000000000
#0051b:2300000013000013
#00612:0013000000000000
#0061b:0013
#00618:0000000000130013
#00615:00000013
#00718:00130013
#00715:0000001300130000
#00712:23000013
#0071b:23
#0081b:0013000000000013
#00812:0013
#00818:0000000000130000
#00815:00000013
#00915:0013001313000000
#00912:23000013
#00918:23000013
#0091b:0000000000000013
#0101b:0013000000000000
#01017:00000000001300000000000000000000
#01012:0000000013130013
#01018:00000013
#01118:0013000000000000
#01112:00130000
#01115:2300000000131300
#0111b:23
#01212:00001300000000001300000000000063
#01215:0000001300002300
#0121b:00532300
#01217:0053000000000000
#01219:00000053000000000000630000000000
#0121a:00000000000000000063000000000000
#01218:00000000000000000000006300000000
#01214:00000000000000000000000000630000
#01213:0000000000000063
#01315:0013000013000000
#01318:26130013
#0131b:0000000013000013
#01312:00230023
#01310:41
#01418:13130013
#01415:0013000013000000
#0141b:0000000000130000
#01412:00230023
#01515:00131313
#01512:0000001300000000
#01518:1300000000130000
#0151b:00230023
#01618:1300000013000013
#01612:0013000000130000
#01615:00130013
#0161b:00230023
#01715:13
#01718:0013000000000013
#0171b:00130023
#01712:00230013
#01714:0013
#01719:0013
#0181b:00130023
#01812:00230013
#01818:0013000000130000
#01815:1300000013000013
#01912:00130000
#01915:00000000000000130000000013000000
#01918:00000000000000000000130000000013
#0191b:00001313
#0191b:00000013
#0201b:0013000000002300
#0201b:0013000000000000
#02015:0013000000000000
#02012:0000000013000013
#02017:0000000000000013
#02016:00000023
#02112:0000001300000013
#02115:0013
#02118:0000000000130000
#0211b:00000013
#02110:41
#0221b:0000000000130000
#02218:00000013
#02215:0000000000000013
#02216:0053000000530000
#02212:0000005300000000
#02312:13
#0231b:00000013
#0231a:0013
#02319:00130000
#02318:13
#02315:0000002300230023
#02417:0000001300000000
#0241b:0000000000130000
#02415:00000013
#02418:0000000000000013
#02512:13
#0251b:00130000
#02516:0000001300000000
#02519:0013
#02514:0000000000130000
#02517:00000013
#0261b:0013000000000013
#02616:0000001300000000
#02716:13
#02712:0000001313000000
#02717:0000001313000000
#0271b:13000023
#02817:13
#0281b:0000001313000000
#02816:0000001313000000
#02812:13000023
#02819:0000000000000013
#02912:00130000
#02916:13
#0291b:00130013
#02917:0013
#02919:0000001300000000
#03014:13
#03012:0013
#03017:0013
#0301b:00000013
#03016:00000013
#03114:00130013
#03119:00130013
#0311b:0013
#03112:13
#03117:23
#03116:0023
#03212:1313
#0321b:00130013
#03217:2323
#03216:00230023
#0351b:13230013
#03518:0013000000000000
#03517:0013
#03515:0000130000000013
#03512:24000013
#03510:41
#03612:2313
#03616:00130023
#03618:13
#03617:0023
#03712:0013
#03718:0000000000000013
#0371b:00000013
#03717:2323
#03716:00230023
#03812:13230000
#03817:00130000
#03819:0013
#0381b:00000013
#03814:0023
#03816:00000023
#03917:00001313
#03919:0000000000000013
#0391b:13230000
#03918:0013000000000000
#03915:00130000
#03912:23000023
#0401b:1313
#04019:00000013
#04014:0000000000000013
#04016:2300000000130000
#04012:00230000
#04017:00230000
#04117:1313
#04116:00130000
#04112:1313
#0411b:00000013
#04212:1324
#04217:1314
#04215:00140014
#0421a:00240024
#04319:0000000000000013
#04312:13230023
#04315:0013000000000000
#04316:0013
#04318:00130000
#04317:00000013
#0431a:24
#04310:41
#04415:13
#04416:0013
#0441b:1313
#04414:0000001300000000
#04412:0000230000002313
#04512:1313
#04517:2323
#04516:00230000
#04612:1300001300000000
#0461b:13000023
#04614:0000000000130000
#04616:0000000000000013
#04617:00230000
#04619:0023
#0471b:13
#04717:00001313
#04712:0000000000000013
#04716:13
#04812:1300000000000025
#04817:13
#04816:0013
#04819:00000025
#05012:1353
#0501b:0013
#05013:00530000000000530000000000000000
#05014:0053005300000000
#05015:00000053005300000000000000000000
#05016:00530000
#0501a:00000000000000000053000000000053
#05019:0000000000530053
#05018:00000000000000000000005300530000
#05017:00000053
#04918:00130013
#04915:0013
#04919:00000000005300000000000000530000
#0491a:0000005300000053
#0491b:00000000000000530000000000000053
#04914:00000000000000000053000000000000
#04913:0000000000530000
#04912:00000000000000000000005300000000
#05118:0000001200000000
#05114:0000000000000012
#0511b:53
#0521a:0000001212000000
#05214:0012
#05318:00130013
#05315:0000001300130000
#0531a:24
#05312:24000023
#0531b:0000002300000000
#05310:41
#05418:0013000013000013
#0541b:00130000
#05415:1300001300130000
#05412:00000013
#05515:00130013
#05518:0000001300130000
#05512:2400002300000000
#0551a:24
#0551b:00000023
#05615:0013000013000013
#05612:00130000
#05618:1300001300130000
#0561b:00000013
#05718:0013002300000000
#05712:1300000000130000
#05715:00131300
#05716:0000000000000013
#0571b:23000023
#05714:00000000000000000000000000000053
#05818:00001300001300130000000000005300
#05815:0000131300530000
#05812:53001453
#0581a:000000000000000000000000000000000000140000000053
#05814:000000000000000000000000005300005300000000000000
#05816:000000000000005300000000
#05819:000000000000000000000000000000000000005300005300
#05817:000000000053
#05813:000000000000000000000000000000000053000000000000
#06012:0013
#06018:0026000000000000
#06017:0027
#0621a:12
#06217:12
#06414:12
#06417:12
#06518:0012
#0651a:12
#0661a:12
#06617:12
#06716:0012
#06714:12
#06818:12000012
#06814:00120000
#06816:0012
#0691a:12
#06916:0012000000001200
#06918:0000120000000012
#07014:12
#07016:0000001200001200
#07018:0000120000000012
#0701a:0012
#07114:12000012
#07115:00120000
#07116:0012
#07117:00000012
#07217:1224
#07212:00140000
#07213:0014
#07214:00000014
#07216:00240000
#07218:00000024
#07315:14
#07312:00000000000000000000000000140000
#0731a:00000000000000000000000000140000
#07319:24
#07317:0000002424000000
#07414:00130000000000000000000000000000
#07419:00130000000000000000000000000000
#07416:00000000001200000000000000000000
#07418:00000000001200000000000000000000
#07518:0013000000000000
#07517:00130000
#0751b:0013
#07512:25130000
#07515:0000000000000013
#07514:00000013
#07519:25000013
#0751f:21
#07616:1313
#07612:00130014
#0761b:1313
#07618:0000000000130000
#07615:0000000000000014
#07610:41
#07719:15000015
#07716:0015000000002300
#07714:00000000000000000000000000000000230000000000000000000000000000000053000000000000000000000000000000005300000000000000000000000000
#07715:00000000000000000000000000000000000000000000000000000000000000002300000000000000000000000000000000530000000000000000000000000000
#07713:00000000000000000000000000000000005300000000000000000000000000000000530000000000000000000000000000000000000000000000000000000000
#07712:0000000000000000005300000000000000000000000000000000000000000000
#07812:13000013
#07816:00130000
#07814:0013
#0781b:00230000
#07819:0023
#07817:00000023
#07915:0013000000000000
#0791b:00130000
#07917:0013
#07916:00130000
#07918:0000000000000013
#07919:25000013
#07914:00000013
#07912:25
#08012:2300000013000013
#0801b:0013
#08018:0000000000130000
#08015:00000013
#08017:23
#08016:00230000
#08116:1300000000130000
#0811b:1300000000130000
#08112:0013000013000000
#08117:0013000013000000
#0821b:13
#08216:13
#08217:00140014
#08215:0014
#08212:00240024
#0821a:0024
#08315:0013000000000000
#08316:00130000
#08312:2513
#0831b:00130000
#08318:0000000000000013
#08319:25000013
#08314:00000013
#08417:1313
#0841b:00130013
#08412:1313
#08419:0000001300000013
#08612:1400001400000000
#0861a:14000024
#08614:0000000000140000
#08616:0000240000000014
#08618:0024
#0871a:2414
#08716:24000014000000000000000014000000
#08712:0000000000000014
#08918:00000000005300000000000013000000
#08917:00130000
#08912:0013
#08919:00000000000053000000000000530000
#0891a:00000000000000530000000000005300
#0891b:00000000000000000000000000000053
#08913:00000000000000000053000000000000
#08914:0000000000530000
#08915:00000000000000000000005300000000
#09013:1300000000630000
#0901b:00230000
#09015:0053000023000000
#09017:00000023
#09014:00530000000000000063000000000000
#09016:00000053000000000000000000000000
#0901a:00000000006300000000000000000063
#09019:0000006300000063
#09018:00000000000000630000000000630000
#09012:00000000000000000000006300000000
#0911a:0000001212000000
#09116:0000000000000012
#09114:12
#0911b:63
#09216:12
#0921a:0000001200000000
#09214:00120000
#09316:00120012
#09318:0000001200120000
#09312:24
#0931a:24000023
#09313:0000002300000000
#09416:0012000012000012
#09414:00120000
#09418:1200001200120000
#0941a:00000012
#09518:00120012
#09516:0000001200120000
#0951a:2400002300000012
#09512:24
#09513:00000023
#09616:12
#09612:002c000000000000
#0611f:11
#08812:2400000014000026
#08816:24000014000000000000000000000000
#08818:00000026
#03312:2c
#03412:2525000000000000
#03419:2525000000000000
#0591a:0000002400000000
#05919:00000025
#0591b:63
#08512:23
#08517:2323
#08516:00230023
#00652:0063000000000000
#00656:0013
#0055b:0000000000000063
#00752:00000053
#0085b:0053000000000000
#00856:0013000000000000
#01057:00000000002300000000000000000000
#0105b:0063000013000000
#01358:16
#01555:00000053
#01552:13
#01952:00530000
#01955:00000000000000230000000013000000
#01958:00000000000000000000000000000023
#0195b:00000053
#0195b:00000053
#0205b:0053000000005300
#0205b:0053000000000000
#02055:0013000000000000
#02056:00000053
#02057:0000000000000023
#02052:0000000000000023
#0215a:44
#02155:44
#02355:0000000000000023
#02552:13
#02756:53
#02757:0013
#02752:0013
#0275b:53
#02857:63
#02856:0013
#0285b:0013
#02852:63
#02952:00230000
#02956:53
#0295b:00000023
#02957:0063
#02954:0013
#03059:13
#03054:13
#03352:1c
#03152:13
#0315b:0013
#0375b:00000053
#03758:0000000000000023
#03757:5313
#03756:00130013
#04157:63
#04156:00130013
#04152:0063
#0415b:00130013
#0425a:00000014
#04255:00000014
#04455:13
#0445b:6353
#04456:0013
#04557:6363
#04556:00530013
#0455b:00000013
#04552:0053
#0475b:53
#04756:13
#04757:0013
#04752:0013
#04852:6300000000000035
#04857:13
#04856:0013
#04859:00000045
#0485b:0013
#0515b:43
#05258:00000012
#05256:00000012
#05254:0052
#0525a:0052
#05358:00000063
#05458:0013
#05555:00000053
#05655:0013
#0595b:43
#0595a:0000004400000000
#05959:00000045
#06058:0046000000000000
#06057:0047
#06052:0063
#06157:12
#0625a:62
#06257:52
#06454:52
#06457:52
#06558:0022
#0655a:62
#0665a:62
#06657:62
#06756:0022
#06754:52
#07157:00000052
#07355:54
#07357:0054
#0735a:00000000000000000000000000240000
#07352:00000000000000000000000000240000
#07454:00530000000000000000000000000000
#07459:00530000000000000000000000000000
#07458:00000000002200004500000000000000
#07453:0035
#07456:00000000002200000000000000000000
#0755b:0013
#07556:0013
#07552:15630000
#07652:00130064
#0765b:53005343
#07657:00130000
#07658:0000000000230000
#07655:0000000000000024
#03555:00530000
#03557:0013
#03552:0013
#03656:00130063
#03658:63
#0365b:00130000
#03657:0053
#03957:0013
#03955:00530000
#03952:0013
#04356:0013
#04358:00630000
#0435b:0013
#0405b:53
#04057:00130000
#04056:13
#07759:55000065
#07756:0025000000000000
#07752:34
#07957:0013
#07956:00530000
#07952:0013
#07959:15
#0805b:00130000
#08056:00130000
#08057:63
#08156:6300000000230000
#0815b:6300000000230000
#08154:00430033
#08159:00430033
#08152:0023000053000000
#08157:0023000053000000
#08257:00140014
#08252:00140014
#0825a:0014
#08255:0014
#08352:0013
#0835b:00530000
#08357:0013
#08359:15
#08452:6363
#08457:1313
#08557:6363
#0855b:00130013
#08556:00530013
#08552:1313
#0875a:5414
#08756:14000024000000001400000000000000
#08858:00000046
#08852:6400000014000036
#08856:14000024000000001400000000000000
#0915b:43
#0915a:0052
#09154:62
#09256:52
#09254:00220000
#09456:0012
#09652:004c000000000000
#03252:1313
#0325b:00130013
#0053b0:0000000000000013
#006370:0023000000000000
#006321:0013000000000000
#006361:0023
#0073b1:0000001300230000
#007321:00000013
#008361:0023000000000000
#0083b0:0013000000000000
#008370:0023
#0093b0:00132300
#009350:0000000000000013
#010350:0023000000000000
#0103b1:0013000023000000
#010371:00000000005300000000000000000000
#011381:0000001300230000
#0113b1:00000013
#012371:0023000000000000
#014321:00000013
#015321:23
#015351:00000013
#016321:23
#019381:13230000
#019320:0000130000230000
#019350:00000000000000530000000000000000
#0193b0:00000013
#019380:00000000000000000000000000000053
#0203b0:0033000000000000
#020370:0023
#0203b0:00000013
#020370:0000000000000053
#0213a0:24
#020361:00000013
#020321:0000000000000053
#021351:24
#023351:0000000000000013
#024321:0000002300000000
#025321:0000000000000013
#026361:0023000000000000
#0263b1:0000001300000000
#026371:0000000000230000
#026320:0000000000130000
#026360:0000000000000023
#0273b0:13
#027370:00230000
#027361:13
#027321:00230000
#028321:13
#028361:00230000
#028370:13
#0283b0:00230000
#029360:13
#029320:00530000
#029340:0023
#029371:0013
#0293b1:00000053
#030391:23
#035351:00130000
#035321:0023
#036381:13
#0363b1:00230000
#036371:0013
#0363b1:00000023
#036360:00000013
#037320:23
#037371:13
#0373b1:00230000
#0373b1:00000013
#037381:0000000000000053
#0383b1:23
#039351:00130000
#039321:0023
#0403b1:13
#040371:00230000
#041371:13
#0413b1:00230000
#041321:0013
#041361:00000023
#043381:00130000
#0433b1:0023
#0443b1:13
#044371:00230000
#0443b1:0013
#044371:00000023
#045371:13
#0453b1:00230000
#045360:00130023
#045320:0033
#045371:0013
#0453b1:00000023
#0473b1:13
#047371:0000002300000000
#047320:0000001323000000
#048320:13
#048360:0000002300000000
#0483b1:0000001323000000
#051361:1200002200000000
#051381:0000000012000022
#052341:1232
#052361:00000022
#0523a0:0012
#052380:00000022
#053380:00000013
#0543b0:23
#055350:00000013
#056320:23
#059320:1700003600003500
#060320:0034000033000000
#061370:22
#0613a1:12
#0623a1:32
#063371:22
#062370:12
#063340:32
#064340:32
#065370:22
#064371:12
#0653a1:32
#065381:0052
#0663a1:32
#067371:22
#066370:12
#067340:32
#067360:0052
#068320:22
#069380:00001222
#071370:00000012
#0723a0:22
#073350:14
#073320:00000000005400000000000000540000
#074340:00530000000000000000000000000000
#074360:00000000005200000000000000000000
#074330:0025
#073371:0014
#0733a1:00000000000000000000000000540000
#074391:00530000000000000000000000000000
#074381:00000000005200002500000000000000
#075321:00130000
#075361:0023
#0763b1:13
#076371:00230000
#0763b1:00001323
#076381:0000000000530000
#076320:00000014
#076350:0000000000000054
#077320:24
#077391:15353535
#077361:0055000000000000
#078371:23
#079361:00130000
#079321:0023
#080371:13
#0803b1:00230000
#081361:13
#081321:0053000000000000
#081341:00230000
#0813b0:13
#081370:0053000000000000
#081390:00230000
#081370:0013
#0813b0:0000000000530000
#081390:00000023
#081321:0013
#081361:0000000000530000
#081341:00000023
#0833b1:00130000
#083371:0023
#084321:13
#084361:00230000
#084321:0013
#084361:00000023
#085371:13
#0853b1:00230000
#085360:00130000
#085320:0023
#085371:0013
#0853b1:00000023
#0873a1:1400002400000000
#087361:00000054000000000000000000000000
#087360:0000001424000000
#088320:1400002400000000
#088360:00000054000000000000000000000000
#088361:0000001424000000
#091341:12
#091361:0000522200000000
#0913a1:0012
#091381:0000000000005222
#092361:12003222
#092341:00520000
#092380:00001222
#012970:0013000000000000
#0129b0:00230000
#0129b0:0013
#012980:00000000000000000000002300000000
#012950:00000013
#012920:00000000000000000000000000000023
#021920:0000000000000013
#022960:000000000000000000000000000000000000000000000000000000000000000000000000000000000000000000000000000000000000000000000000000000000000000000000000000000000000000000000000000000000000000000000000000000000000000000000000000000000000000000000000000000000000000000000000000000000000000000000000000000000000000000000000000000000000000000000000000000000000000000000000000000000000000000000000000000000000000000000000000000000000000000000000000000000000000000000000000000000000000000000023000000000000000000000000000000000000000000000000000000000000000000000000000000000000000000000000000000000000000000000000000000000000000000000000000000000000000000000000000000000000000000000000000000000000000000000000000000000000000000000000000000000000000000000000000000000000000000000000000000000000000000000000000000000000000000000000000000000000000000000000000000000000000000000000000000000000000000000000000000000000000000000000000000000000000000000000000000000000000000000000000000000000000000000000000000000000000000000000000000000000000000000000000000000000000000000000000000000000000000000000000000000000000000000000000000000000000000000000000000000000000000000000000000000000000000000000000000000000000000000000000000000000000000000000000000000000000000000000000000000000000000000000000000000000000000000000000000000000000000000000000000000000000000000000000000000000000000000000000000000000000000000000000000000000000000000000000000000000000000000000000000000000000000000000000000000000000000000000000000000000000000000000000000000000000000000000000000000000000000000000000000000000000000000000000000000000000000000000000000000000000000000000000000000000000000000000000000000000000000000000000000000000000000000000000000000000000000000000000000000000000000000000000000000000000000000000000000000000000000000000000000000000000000000000000000000000000000000000000000000000000000000000000000000000000000000000000000000000000000000000000000000000000000000000000000000000000000000000000000000000000000000000000000000000000000000000000000000000000000000000000000000000000000000000000000000000000000000000000000000000000000000000000000000000000000000000000000000000000000000000000000000000000000000000000000000000000000000000000000000000000000000000000000000000000000000000000000000000000000000000000000000000000000000000000000000000000000000000000000000000000000000000000000000000000000000000000000000000000000000000000000000000000000000000000000000000000000000000000000000000000000000000000000000000000000000000000000000000000000000000000000000000000000000000000000000000000000000000000000000000000000000000000000000000000000000000000000000000000000000000000000000000000000000000000000000000000000000000000000000000000000000000000000000000000000000000000000000000000000000000000000000000000000000000000000000000000000000000000000000000000000000000000000000000000000000000000000000000000000000000000000000000000000000000000000000000000000000000000000000000000000000000000000000000000000000000000000000000000000000000000000000000000000000000000000000000000000000000000000000000000000000000000000000000000000000000000000000000000000000000000000000000000000000000000000000000000000000000000000000000000000000000000000000000000000000000000000000000000000000000000000000000000000000000000000000000000000000000000000000000000000000000000000000000000000000000000000000000000000000000000000000000000000000000000000000000000000000000000000000000000000000000000000000000000000000000000000000000000000000000000000000000000000000000000000000000000000000000000000000000000000000000000000000000000000000000000000000000000000000000000000000000000000000000000000000000000000000000000000000000000000000000000000000000000000000000000000000000000000000000000000000000000000000000000000000000000000000000000000000000000000000000000000000000000000000000000000000000000000000000
#022960:0013000000000000
#022920:000000000000000000000000000000000000000000000000000000000000000000000000000000000000000000000000000000000000000000000000000000000000000000000000000000000000000000000000000000000000000000000000000000000000000000000000000000000000000000000000000000000000000000000000000000000000000000000000000000000000000000000000000000000000000000000000000000000000000000000000000000000000000000000000000000000000000000000000000000000000000000000000000000000000000000000000000000000000000000000000000000000000000000000000000000000000000000000000000000000000000000000000000000000000000000000000000000000000000000000000000000000000000000000000000000000000000000000000000000000000000000000000000000000000000000000000000000000000000000000000000000000000000000000000000000000000000000000000000000000000000000000000000000000000000000000000000000000000000000000000000000000000000000000000000000000000000000000000000000000000000000000000000000000000000000000000000000000000000000000000000000000000000000000000000000000000000000000000000000000000000000000000000000000000000000000000000000000000000000000000000000000000000000000000000000000000000000000000000000000000000000000000000000000000000000000000000000000000000000000000000000000000000000000000000000000000000000000000000000000000000000000000000000000000000000000000000000000000000000000000000000000000000000000000000000000000000000000000000000000000000000000000000000000000000000000000000000000000000000000023000000000000000000000000000000000000000000000000000000000000000000000000000000000000000000000000000000000000000000000000000000000000000000000000000000000000000000000000000000000000000000000000000000000000000000000000000000000000000000000000000000000000000000000000000000000000000000000000000000000000000000000000000000000000000000000000000000000000000000000000000000000000000000000000000000000000000000000000000000000000000000000000000000000000000000000000000000000000000000000000000000000000000000000000000000000000000000000000000000000000000000000000000000000000000000000000000000000000000000000000000000000000000000000000000000000000000000000000000000000000000000000000000000000000000000000000000000000000000000000000000000000000000000000000000000000000000000000000000000000000000000000000000000000000000000000000000000000000000000000000000000000000000000000000000000000000000000000000000000000000000000000000000000000000000000000000000000000000000000000000000000000000000000000000000000000000000000000000000000000000000000000000000000000000000000000000000000000000000000000000000000000000000000000000000000000000000000000000000000000000000000000000000000000000000000000000000000000000000000000000000000000000000000000000000000000000000000000000000000000000000000000000000000000000000000000000000000000000000000000000000000000000000000000000000000000000000000000000000000000000000000000000000000000000000000000000000000000000000000000000000000000000000000000000000000000000000000000000000000000000000000000000000000000000000000000000000000000000000000000000000000000000000000000000000000000000000000000000000000000000000000000000000000000000000000000000000000000000000000000000000000000000000000000000000000000000000000000000000000000000000000000000000000000000000000000000000000000000000000000000000000000000000000000000000000000000000000000000000000000000000000000000000000000000000000000000000000000000000000000000000000000000000000000000000000000000000000000000000000000000000000000000000000000000000000000000000000000000000000000000000000000000000000000000000000000000000000000000000000000000000000000000000000000000000000000000000000000000000000000000000000000000000000000000000000000000000000000000000000000000000000000000000000000000000000000000000000000000000000000000000000000000000000000000000000000000000000000000000000000000000000000000000000000000000000000000000000000000000000000000
#022920:0000001300000000
#022960:0000000000230000
#049980:00130000
#0499b0:00000000000000230000000000000000
#049950:0013
#049920:00000000000000000000002300000000
#049980:00000013
#0499b0:00000000000000000000000000000023
#050920:1323
#050960:00530000
#0509b1:0013
#050971:00000053
#0519b1:23
#057961:0000000000000013
#058921:23
#058921:00001423
#058961:000000000000005300000000
#0589a0:00000014
#058970:000000000053
#0599b0:23
#089970:00130000
#0899a0:00000000000000230000000000000000
#089920:0013
#089950:00000000000000000000002300000000
#089980:00000013
#0899b0:00000000000000000000000000000023
#090930:13
#090960:00000023000000000000000000000000
#0909b0:00130000
#090980:00000000000000230000000000000000
#090950:0013
#090920:00000000000000000000002300000000
#090970:00000013
#0919b0:23
