This file was generated by Ched 2.7.0.0.
#TITLE ""
#ARTIST ""
#DESIGNER ""
#DIFFICULTY 0
#PLAYLEVEL
#SONGID ""
#WAVE ""
#WAVEOFFSET 0
#JACKET ""
#REQUEST "ticks_per_beat 480"
#00002: 4
#BPM01: 190
#00008: 01
#TIL00: "0'0:1"
#VOLUME: ""
#HISPEED 00
#MEASUREHS 00
#00518:00130013
#00515:0013000000000000
#00512:0013
#0051a:24
#02818:0000000000000013
#0281b:13
#02815:13000013
#0291b:13
#02912:0000001313000000
#02918:0000001313000000
#02915:13
#00815:0000000000130000
#00818:00000013
#00812:0000000000000013
#00918:0000001300001300
#00915:00130000
#00912:0013
#0091b:0013000000000000
#01018:0000000000130000
#01012:00000013
#01015:0000000000000013
#01118:1300001300000000
#01115:00130000
#0111b:00000013
#01315:0013000000000000
#01318:00130000
#01312:0013
#0131b:00000013
#0131a:24
#01310:41
#01515:00130000
#0151b:5300001300000000
#01512:0000000000130000
#01615:0000000000130000
#01618:00000013
#01612:0000000000000013
#01718:0013000000001300
#01715:0000130000000013
#0181b:0013000000000000
#01812:0000000000130000
#01818:00000013
#01815:0000000000000013
#0191b:13000013
#01912:00130000
#01918:00000000000013000000000000000013
#01915:0000000000130000
#0221b:0013000000130000
#02215:0000001300001300
#02218:0000000000000013
#02312:13
#02319:0053
#02318:0000005300000000
#0231a:0000000000530000
#0231b:0000000000005353
#02317:00530000
#02412:0000001300000000
#0241b:0000000000130013
#02415:00000013
#02515:13
#02518:00131313
#02512:0000001300130013
#0261b:0000001300000000
#02615:0000000000000013
#02712:13
#02718:13
#03012:0014
#03016:00000014
#03116:00140014
#0311a:24
#03112:0024
#03612:00000013
#03615:0023
#03715:13
#03718:0024
#03714:00000024
#03812:00130000
#03815:0013
#03818:00000013
#0381a:24
#03915:0013000000000000
#03918:0000000000000013
#03912:00000013
#0391b:23
#0401b:0013
#04015:0000000000130000
#04012:2300000000000013
#04018:00000013
#04118:13
#04115:0013
#04212:00130000
#04214:0013
#04216:00000013
#04217:00230000
#04219:0023
#0421b:00000023
#04612:00131300
#04617:0000001300000000
#0461b:00000013
#04616:0000000000000013
#0471b:13
#04717:0000000000000013
#04712:00000023
#04812:13
#0481b:00000023
#05212:13
#05218:0023
#05318:0013000000001300
#05315:2300130000000013
#0531b:0000001300000000
#05312:0000000000130000
#05310:41
#05418:13
#05412:0013000000000000
#0541b:0000001300000000
#05415:0013
#05515:0013000000001300
#05518:2300130000000013
#05512:0000001300000000
#0551b:0000000000130000
#05615:13
#05612:0000001313000000
#05618:00000000000000130000000000000000
#0561b:0023000000000000
#0571b:13
#05716:0013000000000000
#05719:00130013
#05714:0000001300000013
#05717:0013
#05712:0000000000130000
#0581b:13131300
#05816:0013001300000000
#05812:00000013
#05915:13
#05918:2300001400002500
#05913:00000015
#05914:0000002400000000
#06018:0016000000000000
#06012:0026000000000000
#06014:0023
#06019:0023
#06116:1212
#0611a:00120000
#06118:00000012
#0611f:11
#06216:0012
#0621a:00000012
#06214:12
#06218:00120000
#06318:1212
#06316:00120000
#06314:00000012
#06814:00120000
#06816:0012
#06818:00000012
#07116:00120000
#07118:0012
#0711a:00000012
#07114:12
#07315:0000001313000000
#07318:0013
#0731b:23
#07515:0013000000001300
#07518:2300000000000013
#07512:00131300
#0751b:00131300
#0751f:21
#0781b:00130000
#07819:0013
#07817:00000013
#07816:00130000
#07814:0013
#07812:24000013
#08215:00130000
#08218:0013
#0821b:00230023
#08212:00002323
#08318:0013000000001300
#08315:2300000000000013
#08312:00131300
#0831b:00131300
#0841a:14
#08415:0000130000000013
#08418:0000001300001300
#08412:0014
#0861a:00141400
#08616:0000001400000014
#08612:00000014
#08712:14
#08716:0000000000000014
#0871a:00000024
#07612:13131300
#0761b:13130013
#07618:0013
#07615:00000013
#07610:41
#07712:1313
#07718:1313
#07715:00130000
#0771b:00130000
#07915:0013000013000000
#07918:0000000000000013
#07912:00000013
#0791b:23131300
#08012:13130000
#0801b:0013
#08016:0000000000130000
#08014:0000000000000013
#08019:00000013
#08018:00130000
#08117:13
#08116:0013
#03515:0013000000001300
#03518:2300000000000013
#03510:41
#04318:0013000000001300
#04315:2300000000000013
#04310:41
#0441b:13
#04415:0000130000000013
#04418:0000001300001300
#04412:0013
#0881a:14
#08812:00000024
#08512:13002323
#0851b:23230013
#08515:00130000
#08518:0013
#09118:0000001212000000
#09116:0000000000000012
#09112:53
#09218:0000001200000000
#09315:0000000000130000
#0931b:53
#0931a:0053000000000000
#09319:0000530000000053
#09318:0000005300005300
#09518:0000000000130000
#09512:53
#09513:0053000000000000
#09514:0000530000000053
#09515:0000005300005300
#00715:00130000
#0071b:0000001300000000
#00712:0000000000130000
#00718:53
#06418:0012
#0641a:00120000
#06416:00000012
#06514:1212
#06518:00120000
#0651a:00000012
#06616:12000012
#0661a:00120000
#06614:0012
#06718:1212
#06716:00120000
#0671a:00000012
#0691a:12121200
#06918:0000000000000012
#06914:00000012
#06916:0012000000000000
#07018:0000000000000012
#07014:12000012
#0701a:00121200
#07016:0000001200000000
#02015:00000023
#0201b:00000023
#0321a:2424
#03212:00240024
#03318:26
#03412:2424000000000000
#0341a:2424000000000000
#04515:00230000
#04518:0023
#0451b:23000023
#04512:23
#07212:00230000
#07215:0023
#07218:00000023
#02110:41
#02113:0053
#02114:0000000000530000
#02115:0000000000005353
#02112:0000005300000000
#01419:00000053
#0141a:0000000000000053
#01418:0000000000530000
#04912:00000000535353535300000000000000
#04918:00000000000000005353535353000000
#04915:00000000000000000000000053535353
#05015:53
#0501a:00530000000000000000530000000000
#05019:00005300000000000053000000000000
#05018:00000053535353535300000000000000
#0501b:53000000000000000000005353535353
#0511b:53
#0891a:00000000005300000000000000000053
#08919:0000005300000053
#0891b:00530000
#08918:00000000000000530000000000530000
#08917:00000000000000005353535353000000
#09013:00530000000000000000005300000000
#09014:0053000000530000
#09012:53000000000000000000000053535353
#09015:00000053000000000053000000000000
#09016:00000000535353535300000000000000
#0901b:53
#0061a:00000053
#00619:0000000000000053
#0061b:0000000000530000
#09613:53
#09612:0063000000000000
#0941a:53530000
#0941b:0053000000000000
#09419:0000005300000000
#09418:0053
#01215:00000000000000006363636363636363
#0295b:53
#02952:0063
#02958:0063
#02955:53
#00655:0013000000000000
#01055:0013000000000000
#01158:0000006300000000
#0115b:00000053
#01358:00130000
#01352:0013
#01455:0013000000000000
#01658:0013000000000000
#0155b:0000001300000000
#01752:0013
#01755:00530000
#0185b:0013000000000000
#0195b:13000053
#01958:00000000000013000000000000000023
#0205b:0013000000000000
#02155:0000000000000013
#0225b:0013000000000000
#02255:0000001300000000
#0235b:0000000000000013
#02552:0000000000000063
#0265b:0000005300000000
#02755:0013
#02752:53
#02758:53
#0275b:0013
#0285b:63
#02855:63
#02858:0013
#02852:0013
#03055:13
#0305b:13
#03358:16
#03752:00140000
#03755:53
#03758:0014
#03754:00000014
#03652:00130053
#0365b:00130000
#03655:0053
#03552:0013
#0355b:0013
#0395b:0013
#04052:00130000
#0415b:00130000
#04158:53
#04155:0063
#04152:00000013
#0455b:00000013
#0475b:53
#04757:0013
#04852:63
#04856:0013
#04858:0000000000000013
#0485b:00000063
#0515b:13
#05252:13
#05258:0013
#05455:0013
#05652:0013
#0585b:0013
#06354:00000012
#0715a:00000012
#0745b:0013
#07452:0013
#07355:0063
#07358:0063
#0845a:14
#08452:0014
#08752:64
#08755:0014
#08552:00000013
#08855:0000000000000014
#0885a:54
#08857:0014
#08852:00000064
#07552:0013
#0755b:0013
#07652:00130000
#0765b:00130000
#0775b:00530013
#07755:00530013
#07758:0063
#07752:0063
#07955:0013
#0795b:0013
#08052:00130000
#08058:00130000
#08157:53
#08156:0063
#0815b:00130000
#08152:00000013
#0445b:13
#04452:0013
#04352:0013
#0435b:0013
#08352:0013
#0835b:0013
#09152:13
#01258:0013000000000000
#00858:0013000000000000
#09652:0013000000000000
#09458:0013
#06054:0013
#06059:0013
#0675a:00000012
#005350:0000000000000013
#006350:0023000000000000
#007380:00000013
#008380:0023000000000000
#009350:0000000000000013
#010350:0023000000000000
#011380:0000001300000000
#0113b0:0000000000333300
#012380:0023000000000000
#013350:0000000000000013
#014350:0023000000000000
#015380:00000013
#016380:0023000000000000
#017350:00130000
#017320:0023
#0193b0:00000013
#019380:00000000000000000000000000000053
#0203b0:0023000000000000
#0203b0:00000013
#021380:23
#020351:00000013
#021321:23
#025321:0000000000000013
#026351:0023000000000000
#0263b1:0000001300000000
#026381:0000000000230000
#027321:13
#027351:0000003323000000
#027380:13
#0273b0:0000003323000000
#0283b0:13
#028380:0000003323000000
#028351:13
#028321:0000003323000000
#0293b1:13
#029381:00230000
#029350:13
#029320:00230000
#029320:0013
#030350:23
#029381:0013
#0303b1:23
#034321:0014340034002400
#0343a0:0014340034002400
#035320:00132300
#0353b1:00132300
#036321:13230000
#0363b0:13230000
#036350:0013
#036320:00000033
#037350:33
#037320:00240000
#0393b0:00132300
#040320:13230000
#041380:13
#0413b0:00230000
#041350:0013
#041320:00000023
#043320:00132300
#0433b1:00132300
#0473b1:13
#047371:0000003323000000
#048321:13
#048361:0000003323000000
#0483b1:00000013
#048381:0000000000000023
#0733b1:13
#073381:00533300
#0743b1:0023
#073350:0013
#074320:0023
#077350:00130023
#077320:0033
#0773b1:00130023
#077381:0033
#081371:13
#0813b1:00230000
#081361:0013
#081321:00000023
#087321:14
#087351:0000003424000000
#0883a1:14
#088371:0000003424000000
#088321:00000014
#088351:0000000000000024
#092361:12000022
#092380:00001222
#0069b0:0000000000130000
#007980:23
#012950:00000000000000001300000000000023
#014980:0000000000130000
#0159b0:23
#021920:0000001300000000
#021950:0000000000005323
#023970:00130000
#0239b0:0000000000005323
#049920:00132300
#049981:00001323
#049950:00000013
#050950:23
#0509b1:13000000000000000000005300000000
#050981:00000053000000005300000000000000
#0519b1:23
#0899b1:00130000
#089971:00005353
#0909b1:23
#090920:13000000000000000000000053000053
#090960:00535300
#091920:23
#0939b0:13
#093980:0000002300000000
#093980:00000013
#0949b0:0053000000000000
#094980:0023
#095920:13
#095950:0000002300000000
#095950:00000013
#096920:0023000000000000
