This file was generated by Ched 2.7.0.0.
#TITLE ""
#ARTIST ""
#DESIGNER ""
#DIFFICULTY 0
#PLAYLEVEL
#SONGID ""
#WAVE ""
#WAVEOFFSET 0
#JACKET ""
#REQUEST "ticks_per_beat 480"
#00002: 4
#BPM01: 190
#00008: 01
#TIL00: "0'0:1, 61'0:10000, 64'0:0.5, 65'0:10000, 68'0:1, 60'960:0.5"
#VOLUME: ""
#HISPEED 00
#MEASUREHS 00
#00516:0014140000000000
#00512:25130013
#00517:00000013
#0051b:0000000013000013
#00519:25
#00712:25130013
#00716:00000000140014000000130000000013
#00719:25
#00918:0013000000000000
#00912:00130013
#00917:00000013
#0091b:2300000000000013
#00916:2413
#01019:0013000000000000
#0101b:0000000000130013
#01016:00000013
#00612:0000000000130000
#00618:00000013
#00615:0000000000000013
#0061b:0013000000000000
#00617:00000000001300000000000000000000
#01119:0013000000000000
#01114:00130000
#0111b:0000001300130000
#01112:23000013
#01116:24
#01312:0014000014000014
#0131b:00130000
#01317:0013
#01316:28230023
#01310:41
#01418:14
#0141b:00130013
#01412:0014000000000000
#01414:0000000013130000
#01417:00000000000000000013000000000000
#01416:00230023
#0231a:14000013
#02318:0013
#02316:00130000
#02312:2400000000000014
#02317:0000001300000000
#02319:0000000000130000
#0231b:0000000000000013
#0271b:0000001313000000
#02716:1400001414000000
#02712:13000024
#02714:0000000000000014
#02718:00000023
#03516:0013130000140000
#0351a:24140024
#03517:0000000013000013
#03512:2414
#03510:41
#04717:0000001300001400
#04712:0000001300001300
#0471b:2313
#04715:2400000000000013
#05318:0012000000002400
#05316:0000120000000012
#05314:0000001200000000
#05315:0000000000120000
#05313:00000012
#0531a:24
#05312:24
#05319:0000002400000000
#05310:41
#05418:0012000000001200
#0541a:0000120000120000
#05416:0000001200000012
#05414:12
#05412:0012000014000000
#0541c:0012
#07914:0000000000000013
#0791b:13
#07918:0013000000002600
#0791a:00130000
#07917:0000001300000000
#07919:0013
#07915:0000000000150000
#07912:26252413
#08012:0000000014000014
#08017:0013
#0801a:0000000000141400
#08016:23000013
#0801b:23
#08212:13240000
#0821a:00140000
#08218:00000000000013000013001300130013
#08215:0013000023132313
#01212:00001300000000000000000000000023
#01216:0000001300000000
#0121a:0024
#01219:00000053000000000000240000000000
#01218:00000024
#01217:0053000000000024
#01215:00000000000000000023000000000000
#01214:00000000000000000000002300000000
#01213:00000000000000000000000000230000
#0121b:00530000
#01512:00130013
#01514:0014
#0151a:2400001400140000
#01517:00230023
#01614:14
#01612:00130013
#01619:0000001313000000
#0161a:0014000000140014
#01616:00000000000000130013000000000000
#01617:00230023
#0171a:00141424
#01718:0014000000000013
#01716:2414
#01712:00240000
#0181a:00140024
#01812:00240014
#01815:1300001313000000
#01818:00001300000000130000130000001300
#0191a:14141414
#01916:00000000000014000000140000000014
#01912:24140014
#01915:0013000000000000
#02016:0013000000120000
#02017:0000001300000000
#02018:00000000000000000000001200130014
#02015:00000013
#02014:00000053000000000000000000001400
#02012:00530000
#02019:00000000000000530000000000000000
#0201b:0053
#00817:0000000000130000
#00819:0000000000000013
#00814:00000013
#00812:0013
#0211b:0000130000130000
#02112:2c130000
#02115:0000001300001300
#02118:0013
#02110:41
#02212:0000000000000000000000000000000000000000000000000000000000000000000000000000000000000000000000000000000000000000000000000000000000000000000000000000000000000000000000000000000000000000000000000000000000000000000000000000000000000000000000000000000000000000000000000000000000000000000000000000000000000000000000000000000000000000000000000000000000000000000000000000000000000000000000000000000000000000000000000000000000000000000000000000000000000000000000000000000000000000000000001c7300000000000000000000000000000000000000000000000000000000000000000000000000000000000000000000000000000000000000000000000000000000000000000000000000000000000000000000000000000000000000000000000000000000000000000000000000000000000000000000000000000000000000000000000000000000000000000000000000000000000000000000000000000000000000000000000000000000000000000000000000000000000000000000000000000000000000000000000000000000000000000000000000000000000000000000000000000000000000000000000000000000000000000000000000000000000000000000000000000000000000000000000000000000000000000000000000000000000000000000000000000000000000000000000000000000000000000000000000000000000000000000000000000000000000000000000000000000000000000000000000000000000000000000000000000000000000000000000000000000000000000000000000000000000000000000000000000000000000000000000000000000000000000000000000000000000000000000000000000000000000000000000000000000000000000000000000000000000000000073190000000000000000000000000000000000000000000000000000000000000000000000000000000000000000000000000000000000000000000000000000000000000000000000000000000000000000000000000000000000000000000000000000000000000000000000000000000000000000000000000000000000000000000000000000000000000000000000000000000000000000000000000000000000000000000000000000000000000000000000000000000000000000000000000000000000000000000000000000000000000000000000000000000000000000000000000000000000000000000000000000000000000000000000000000000000000000000000000000000000000000000000000000000000000000000000000000000000000000000000000000000000000000000000000000000000000000000000000000000000000000000000000000000000000000000000000000000000000000000000000000000000000000000000000000000000000000000000000000000000000000000000000000000000000000000000000000000000000000000000000000000000000000000000000000000000000000000000000000000000000000000000000000000000000000000000000000000000000000000000000000000000000000000000000000000000000000000000000000000000000000000000000000000000000000000000000000000000000000000000000000000000000000000000000000000000000000000000000000000000000000000000000000000000000000000000000000000000000000000000000000000000000000000000000000000000000000000000000000000000000000000000000000000000000000000000000000000000000000000000000000000000000000000000000000000000000000000000000000000000000000000000000000000000000000000000000000000000000000000000000000000000000000000000000000000000000000000000000000000000000000000000000000000000000000000000000000000000000000000000000000000000000000000000000000000000000000000000000000000000000000000000000000000000000000000000000000000000000000000000000000000000000000000000000000000000000000000000000000000000000000000000000000000000000000000000000000000000000000000000000000000000000000000000000000000000000000000000000000000000000000000000000000000000000000000000000000000000000000000000000000000000000000000000000000000000000000000000000000000000000000000000000000000000000000000000000000000000000000000000000000000000000000000000000000000000000000000000000000000000000000000000000000000000000000000000000000000000000000000000000000000000000000000000000000000000000000000000000000000000000000000000000000000000000000000000000000000000000000000000000000000000000000000000000000000000000000000000000000000000000000000000000000000000000000000000000000000000000000000000
#02215:0000000000130013
#02218:000000000000000000000000000000000000000000000000000000000000000000000000000000000000000000000000000000000000000000000000000000000000000000000000000000000000000000000000000000000000000000000000000000000000000000000000000000000000000000000000000000000000000000000000000000000000000000000000000000000000000000000000000000000000000000000000000000000000000000000000000000000000000000000000000000000000000000000000000000000000000000000000000000000000000000000000000000000000000000000000000000000000000000000000000000000000000000000000000000000000000000000000000000000000000000000000000000000000000000000000000000000000000000000000000000000000000000000000000000000000000000000000000000000000000000000000000000000000000000000000000000000000000000000000000000000000000000000000000000000000000000000000000000000000000000000000000000000000000000000000000000000000000000000000000000000000000000000000000000000000000000000000000000000000000000000000000000000000000000000000000000000000000000000000000000000000000000000000000000000000000000000000000000000000000000000000000000000000000000000000000000000000000000000000000000000000000000000000000000000000000000000000000000000000000000000000000000000000000000000000000000000000000000000000000000000000000000000000000000000000000000000000000000000000000000000000000000000000000000000000000000000000000000000000000000000000000000000000000000000000000000000000000000000000000000000000000000000000000000000000007300000000000000000000000000000000000000000000000000000000000000000000000000000000000000000000000000000000000000000000000000000000000000000000000000000000000000000000000000000000000000000000000000000000000000000000000000000000000000000000000000000000000000000000000000000000000000000000000000000000000000000000000000000000000000000000000000000000000000000000000000000000000000000000000000000000000000000000000000000000000000000000000000000000000000000000000000000000000000000000000000000000000000000000000000000000000000000000000000000000000000000000000000000000000000000000000000000000000000000000000000000000000000000000000000000000000000000000000000000000000000000000000000000000000000000000000000000000000000000000000000000000000000000000000000000000000000000000000000000000000000000000000000000000000000000000000000000000000000000000000000000000000000000000000000000000000000000000000000000000000000000000000000000000000000000000000000000000000000000000000000000000000000000000000000000000000000000000000000000000000000000000000000000000000000000000000000000000000000000000000000000000000000000000000000000000000000000000000000000000000000000000000000000000000000000000000000000000000000000000000000000000000000000000000000000000000000000000000000000000000000000000000000000000000000000000000000000000000000000000000000000000000000000000000000000000000000000000000000000000000000000000000000000000000000000000000000000000000000000000130000000000000000000000000000000000000000000000000000000000000000000000000000000000000000000000000000000000000000000000000000000000000000000000000000000000000000000000000000000000000000000000000000000000000000000000000000000000000000000000000000000000000000000000000000000000000000000000000000000000000000000000000000000000000000000000000000000000000000000000000000000000000000000000000000000000000000000000000000000000000000000000000000000000000000000000000000000000000000000000000000000000000000000000000000000000000000000000000000000000000000000000000000000000000000000000000000000000000000000000000000000000000000000000000000000000000000000000000000000000000000000000000000000000000000000000000000000000000000000000000000000000000000000000000000000000000000000000000000000000000000000000000000000000000000000000000000000000000000000000000000000000000000000000000000000000000000000000000000000000000000000000000000000000000000000000000000000000000000000000
#0221b:000000000000000000000000000000000000000000000000000000000000000000000000000000000000000000000000000000000000000000000000000000000000000000000000000000000000000000000000000000000000000000000000000000000000000000000000000000000000000000000000000000000000000000000000000000000000000000000000000000000000000000000000000000000000000000000000000000000000000000000000000000000000000000000000000000000000000000000000000000000000000000000000000000000000000000000000000000000000000000000073000000000000000000000000000000000000000000000000000000000000000000000000000000000000000000000000000000000000000000000000000000000000000000000000000000000000000000000000000000000000000000000000000000000000000000000000000000000000000000000000000000000000000000000000000000000000000000000000000000000000000000000000000000000000000000000000000000000000000000000000000000000000000000000000000000000000000000000000000000000000000000000000000000000000000000000000000000000000000000000000000000000000000000000000000000000000000000000000000000000000000000000000000000000000000000000000000000000000000000000000000000000000000000000000000000000000000000000000000000000000000000000000000000000000000000000000000000000000000000000000000000000000000000000000000000000000000000000000000000000000000000000000000000000000000000000000000000000000000000000000000000000000000000000000000000000000000000000000000000000000000000000000000000000000000000000000000000000000000000000000000000000000000000000000000000000000000000000000000000000000000000000000000000000000000000000000000000000000000000000000000000000000000000000000000000000000000000000000000000000000000000000000000000000000000000000000000000000000000000000000000000000000000000000000000000000000000000000000000000000000000000000000000000000000000000000000000000000000000000000000000000000000000000000000000000000000000000000000000000000000000000000000000000000000000000000000000000000000000000000000000000000000000000000000000000000000000000000000000000000000000000000000000000000000000000000000000000000000000000000000000000000000000000000000000000000000000000000000000000000000000000000000000000000000000000000000000000000000000000000000000000000000000000000000000000000000000000000000000000000000000000000000000000000000000000000000000000000000000000000000000000000000000000000000000000000000000000000000000000000000000000000000000000000000000000000000000000000000000000000000000000000000000000000000000000000000000000000000000000000000000000000000000000000000000000000000000000000000000000000000000000000000000000000000000000000000000000000000000000000000000000000000000000000000000000000000000000000000000000000000000000000000000000000000000000000000000000000000000000000000000000000000000000000000000000000000000000000000000000000000000000000000000000000000000000000000000000000000000000000000000000000000000000000000000000000000000000000000000000000000000000000000000000000000000000000000000000000000000000000000000000000000000000000000000000000000000000000000000000000000000000000000000000000000000000000000000000000000000000000000000000000000000000000000000000000000000000000000000000000000000000000000000000000000000000000000000000000000000000000000000000000000000000000000000000000000000000000000000000000000000000000000000000000000000000000000000000000000000000000000000000000000000000000000000000000000000000000000000000000000000000000000000000000000000000000000000000000000000000000000000000000000000000000000000000000000000000000000000000000000000000000000000000000000000000000000000000000000000000000000000000000000000000000000000000000000000000000000000000000000000000000000000000000000000000000000000000000000000000000000000000000000000000000000000000000000000000000000000000000000000000000000000000000000000000000000000000000000000000000000000000000000000000000000000000000000000000000000000000000000
#0241b:0013001300000000
#02416:00130000
#02414:0013
#02419:0000000000130000
#02412:00000013
#02417:0000000000000013
#02512:1400140000000014
#0251a:1400140000140014
#02518:0000001300000000
#02515:0013
#02516:00000014
#02612:0014000013000013
#0261a:0000000000140000
#02616:1400001400000014
#02812:0000001313000000
#02816:1400001414000000
#0281b:13
#02818:0000000000000014
#02815:00000023
#0281a:00000024
#02916:14130014
#02912:1313
#02914:0000001300000000
#03112:23132313
#0311b:53231323
#03115:0013000000000000
#03118:0000001300000000
#03116:0000000000130000
#03117:0000000000000013
#0321a:14240000
#03216:0014000000000000
#03212:24000000140000000000002500000025
#03215:0000001600000000
#03219:00002525
#03214:00000000000000000025000000250000
#03217:0000000000250025
#03617:13
#03612:1424
#03616:0000131400000000
#0361a:00140024
#03717:0013
#03716:14530013
#03712:1300000000000000005300000000000024000000000000000053000000000000
#0371a:00000024
#03714:00000000000000000000000000000000005300000000000000000000000000000000000000000000000000000000000000530000000000000000000000000000
#03719:00000000000000000000000000000000000000000000000000000000000000000053000000000000000000000000000000000000000000000000000000000000
#0371b:0000000000000000000000000000000000530000000000000000000000000000
#03016:0013
#03012:53000000130000000000005300000000
#03014:0055000000000000000000001300000000005300000000000000000000000000
#0301b:00000000130000000000000000000053
#03019:0065000000000000000000000000130000000000000000000000530000000000
#03017:23000013
#03013:00540000000000000000000000000000000000000000000000000000000000000000000000000000530000000000000000000000000000000000000000000000
#0301a:0000000000000053
#03018:00640000000000000000000000000000000000000000000000000000000000000000000000000000000000000000000000000000000000000000000000000000
#03812:13
#0381a:00141414
#03817:1300000000130000
#03818:0000001300000000
#03816:0000000000000013
#03815:00240000
#03814:0024
#03813:00000024
#03917:0013130000000000
#03912:24140024
#03916:0000000013140013
#0391a:0014
#0401a:14
#04012:0000140000000013
#04016:2300001400000000
#0401b:00001313
#04018:0000000000130000
#04015:00000013
#04017:00230000
#04115:13000000000000520000000000005200
#0411b:13000000000000000000005200000000
#04118:0012
#04112:00120000
#04117:00000012
#04119:00000000000000000052000000000000
#0411a:0000000000520000
#04113:00000000005200000000000000000000
#04114:00000000000052000000000000000052
#04116:00000000000000000000000000520000
#04217:12230023
#04216:0023
#04218:00520000000000000063000000000000
#04219:0052000000000000
#0421a:00000052000000000000630000000000
#04215:00000000006300000000000000630000
#04213:0000006300000063
#04212:00000000000000630000000000000063
#0421b:00000000000000000000006300000000
#04312:0013000014000000
#04316:0000130000140000
#0431a:00140000
#04317:0013
#04319:0000000000000013
#0431b:00000023
#04315:29
#04310:41
#04419:0000001300000013
#04416:14141414
#0441b:00230023
#04412:2323
#04616:0000001300000000
#04617:1400000000130000
#04618:0000230000000013
#0461b:13
#04613:0024
#04614:00000024
#04619:0023
#0461a:00000023
#04816:0000001300002800
#04812:2300000013000028
#0481b:0000001300000000
#04817:24
#0491b:00130013
#04912:0013
#04919:0000005200000052
#04914:00000000000000000052000000000000
#04915:0000000000520000
#04916:00000000000000000000005200000000
#0491a:00000000005200000000000000520000
#04918:00000000000000520000000000000052
#05012:14000013
#0501a:0014
#0501b:00130000
#05014:00540000000000540000000000000000
#05017:00000054545400000000000000000000
#05016:0054005400540054
#05018:00000000000000000054000000000054
#05015:00000000000000000000005454540000
#05516:0012000000000000
#05518:0000120000000012
#0551a:2400001200000000
#05519:0000000000120000
#0551b:00000012
#05512:24
#05513:0000002400000000
#05514:00000024
#05614:00000000120000240000120000000000
#0561a:1224
#05616:0022000000001200
#05618:0000002400000012
#05612:0012
#0561c:0022000000000000
#05718:0013000000130012
#05715:00131300
#05716:00000000000000000000000000000012
#0571a:2400002400002400
#05712:2400002400002400
#05818:120000120000000052000000
#05814:000000000000120000000000000000120000000000000000000000000000000000000000000000005200000000000000
#0581a:000000000000000000120000000052000000000000000000
#05816:000000000000000000000000000000000000000000120000000000000000000000000000000000000000000052000000
#0581c:0012
#05812:00000012
#0581b:000000000000000000000000005200000000000000000000
#05819:0000000000520000
#05817:000000000000000000000000000000000052000000000052
#05813:000000000000000000000000000000000000005200000000
#05815:0000000000000052
#05912:001a190018170016
#0591a:24
#05918:0000002600000000
#05916:00000028
#06012:150014132c000000
#06014:002a000000000000
#0451a:00000013
#04519:0013
#04518:00130000
#04517:13
#04515:00000024
#04514:0024
#04513:00240000
#04512:24
#07212:00160000
#07214:0014
#07216:54000012
#07218:00222426
#07316:140000000000000000000000000000000000000000000000000000000000000000000000000000000000000000000000000000000000000000000000000000000000000000000000000000000000000000000000000000000000000000000000000000000000000000000000000000000000000000000000000000000000000000000000000000000000000000000000000000000000000000000000000000000000000000000000000000000000000000000000000000000000000000000000000000000000000000000000000000000000000000000000000000000000000000000000000000000000000000000000000000000000000000000000000000000000000000000000000000000000000000000000000000000000000000000000000000000000000000000000000000000000000000000000000000000000000000000000000000000000000000000000000000000000000000000000000000000000000000000000140000000000000000000000000000000000000000000000000000000000000000000000000000000000000000000000000000000000000000000000000000000000000000000000000000000000000000000000000000000000000000000000000000000000000000000000000000000000000000000000000000000000000000000000000000000000000000000000000000000000000000000000000000000000000000000000000000000000000000000000000000000000000000000000000000000000000000000000000000000000000000000000000000000000000000000000000000000000000000000000000000000000000000000000000000000000000000000000000000000000000000000000000000000000000000000000000000000000000000000000000000000000000000000000000000000000000000000000000000000000000000000000000000000000000000000000000000000000000000000000000000000000000000000000000000000000000000000000000000000000000000000000000000000000000000000000000000000000000000000000000000000000000000000000000000000000000000000000000000000000000000000000000000000000000000000000000000000000000000000000000000000000000000000000000000000000000000000000000000000000000000000000000000000000000000000000000000000000000000000000000000000000000000000000000000000000000000000000000000000000000000000000000000000000000000000000000000000000000000000000247400000000000000000000000000000000000000000000000000000000000000000000000000000000000000000000000000000000000000000000000000000000000000000000000000000000000000000000000000000000000000000000000000000000000000000000000000000000000000000000000000000000000000000000000000000000000000000000000000000000000000000000000000000000000000000000000000000000000000000000000000000000000000000000000000000000000000000000000000000000000000000000000000000000000000000000000000000000000000000000000000000000000000000000000000000000000000000000000000000000000000000000000000000000000000000000000000000000000000000000000000000000000000000000000000000000000000000000000000000000000000000000000000000000000000000000000000000000000000000000000000000000000000000000000000000000000000000000000000000000000000000000000000000000000000000000000000000000000000000000000000000000000000000000000000000000000000000000000000000000000000000000000000000000000000000000000000000000000000000000000000000000000000000000000000000000000000000000000000000000000000000000000000000000000000000000000000000000000000000000000000000000000000000000000000000000000000000000000000000000000000000000000000000000000000000000000000000000000000000000000000000000000000000000000000000000000000000000000000000000000000000000000000000000000000000000000000000000000000000000000000000000000000000000000000000000000000000000000000000000000000000000000000000000000000000000000000000000000000000000000000000000000000000000000000000000000000000000000000000000000000000000000000000000000000000000000000000000000000000000000000000000000000000000000000000000000000000000000000000000000000000000000000000000000000000000000000000000000000000000000000000000000000000000000000000000000000000000000000000000000000000000000000000000000000000000000000000000000000000000000000000000000000000000000000000000000000000000000000000000000000000000000000000000000000000000000000000000000000000000
#0731a:0000001400000000
#07312:14
#07412:13
#0741b:13
#07512:13000026
#07515:0013000000000000
#07513:00130000
#07516:0000001300150000
#07514:0013
#0751b:00000013
#07518:2600000000000013
#07519:00250000
#0751a:0024
#0751f:21
#0761a:13
#07617:0013001300000000
#07619:00130013
#07614:0013
#07616:0000000000140000
#07615:0000000000000015
#07612:25240000
#07610:41
#07818:0014
#07816:00240014
#07812:14000024
#07814:0024
#08112:00140063
#0811a:00000014
#08117:0000000000000063000000000000000000000000000000000000000000000000
#08119:00000000000000000000000000000063000000000000000000000000000000000000000000000000000000000000000000000000000000000000000000000000
#0811b:00630000
#08116:0000000000000000000000000000000000000000000000630000000000000000
#08114:00000000000000000000000000000000000000000000000000000000000000000000000000000000000000000000006300000000000000000000000000000000
#0831b:13
#08318:0013000000002600
#0831a:00130000
#08317:0000001300000000
#08319:0013
#08315:0000000000150013
#08312:26252413
#08413:1313
#08416:0014001400140014
#0841a:00130013
#08419:2525
#08412:00250025
#08612:14
#08617:1400001400000000
#08616:0000000000140000
#08615:0000240000000014
#08619:0024
#08618:00000024
#08614:0024
#08613:00000024
#0861a:00240000
#08712:2400001300002300
#08716:00141424
#08717:2400001300000000
#0871b:00000013000000000000000000000000
#08718:0000000000000014
#0881b:0000001300000000
#08816:0000141314000000
#08816:0000001300000000
#08812:00000013000000000000000000002a00
#0881a:24
#08814:0000002a
#08815:24
#08917:00131300
#08915:0000005200001300
#0891b:00000000130000000000005200000000
#08919:00000000000000000052000000000000
#0891a:0000000000520000
#08914:00000000000000520000000000520000
#08913:0000000000000052
#08912:00000000000000000000000000000052
#08916:00000000005200000000000000000000
#07714:13000000000000000000000000000000000000000000000000000000000000000053000000000000000000000000000000000000000000000000000000000000
#07716:0000000015000000005400000000000000540000000000000054000000000000
#07718:0026
#07712:00262326
#0771b:00230023
#07719:00000000000000000000000000000000005300000000000000000000000000000000000000000000000000000000000000530000000000000000000000000000
#09015:00130000000000000013000000000000
#09014:00000013000000000000001300000000
#09013:00000000001300000000000000130000
#09012:00000000000000130000000000000013
#0901a:2424
#09018:00240024
#09019:0024000000240000
#09017:0000002400000024
#09117:12
#0911c:0012
#09118:0000001200000000
#09114:0000000052000012
#09112:00000012
#09116:00000000000000520000000000000000
#09216:1212
#09218:0000001212130000
#09215:0000000000130000
#09318:0012000000002400
#09316:0000120000000012
#09314:0000001200000000
#09315:0000000000120000
#09313:00000012
#0931a:24
#09312:24
#09319:0000002400000000
#0941c:0012000012000000
#09419:12120000
#09416:0012001200000012
#09412:0014
#0941a:0000000000120000
#09418:00000012
#09516:0012000000000000
#09518:26120000
#0951a:0000001200000000
#09519:0000000000120000
#09517:0000000000000012
#0951b:00000012
#09512:24
#09513:0000002400000000
#09514:00000024
#09615:12
#09619:12
#09618:0026000000000000
#09612:0026000000000000
#05116:1200000000000012
#05112:00120000
#05118:0000001200000000
#0511a:54
#05216:0000001200000000
#05212:14
#05218:12
#0521c:00120000
#0611f:11
#06119:65
#06112:65
#06916:1400001400000000
#0691c:1252520052005252
#07116:1400001400000000
#07112:12525252
#03419:0025000000000000
#03412:0025000000000000
#03312:2c
#08519:25
#08512:2424
#0851a:00240000
#0851b:00000023
#08513:00640000000000000000000000000000000000000000000000000000000000000000000000000000000000000000000000000000000000000000000000000000
#08514:0064000000000000000000000000000000000000000000000000000000000000
#08516:0000000000000000006400000000000000000000000000000000000000000000
#08518:00000000000000000000000000000000006400000000000000000000000000000000640000000000000000000000000000000000000000000000000000000000
#08515:00000000000000000000000000000000000000000000000000000000000000000064000000000000000000000000000000000000000000000000000000000000
#0701c:5200525252005252
#07016:54
#0651b:63
#06512:63
#00752:00000053
#00756:00000000000000000000000000000023
#01059:0063000000000000
#01052:0013
#02756:6414
#02752:63
#04856:00000048
#04852:1300000013000038
#0485b:0000005300000000
#04857:5413
#08252:00140000
#0825a:00140000
#08257:43
#0065b:0063000043000000
#00657:00000000002300000000000000000000
#00552:00530000
#00852:0033000000000000
#0095b:0000000000000013
#00952:00130000
#0115b:0000001300000000
#01152:00000013
#0135b:00130013
#01357:0063
#0145b:00130013
#01552:00130013
#01652:00130013
#0175a:00140000
#01752:00000014
#01756:0054
#0185a:00140000
#01852:00000014
#0195a:00440054
#01956:00000000000024000000000000000024
#01952:00640034
#0205a:0044000000000000
#02152:1c
#0245b:0000001300000000
#02552:1400000000000014
#0255a:0000000000000054
#02656:2400005400140000
#02652:0023
#0265a:0000001400140000
#02856:5414
#0285b:53
#02956:64000024
#0295b:0013
#02952:0053
#03054:0045000000000000000000000000000000000000000000000000000000000000
#03059:0045000000000000000000000000000000000000000000000000000000000000
#03152:00130013
#0315b:1313
#0325a:14
#03252:00140000
#03456:14
#03459:0045000000000000
#03452:0035000000000000
#03556:0000130000240000
#03557:0013
#03552:00005434
#0355a:14
#03657:13
#03656:0000132400000000
#0365a:00640054
#03652:0064
#0375a:00140014
#03756:54
#03752:5314
#03352:6c
#0385a:00545454
#03853:00000034
#03854:0034
#03855:00340000
#03857:6300000000230000
#03858:0000002300000000
#03856:0000000000000023
#03952:34
#03957:00130000
#03956:0000000013240000
#0395a:00006444
#04056:1300002400000000
#04052:00540000
#04057:00130000
#0415b:63
#04357:0013
#04352:00005434
#04356:0000130000240000
#04355:19
#04456:14141414
#0475b:1313
#04755:64
#04752:0000006300000000
#04756:0013
#05452:0014
#0565a:0014
#0595a:44
#05958:0000004600000000
#05956:00000048
#06054:004a000000000000
#06052:004c
#0515a:44
#05156:52
#05152:00220000
#0455a:00000043
#04559:0043
#04558:00430000
#04557:43
#04555:00000054
#04657:24
#02352:0000000000000054
#0235b:0000000000000013
#07352:54
#07356:140000000000000000000000000000000000000000000000000000000000000000000000000000000000000000000000000000000000000000000000000000000000000000000000000000000000000000000000000000000000000000000000000000000000000000000000000000000000000000000000000000000000000000000000000000000000000000000000000000000000000000000000000000000000000000000000000000000000000000000000000000000000000000000000000000000000000000000000000000000000000000000000000000000000000000000000000000000000000000000000000000000000000000000000000000000000000000000000000000000000000000000000000000000000000000000000000000000000000000000000000000000000000000000000000000000000000000000000000000000000000000000000000000000000000000000000000000000000000000000000240000000000000000000000000000000000000000000000000000000000000000000000000000000000000000000000000000000000000000000000000000000000000000000000000000000000000000000000000000000000000000000000000000000000000000000000000000000000000000000000000000000000000000000000000000000000000000000000000000000000000000000000000000000000000000000000000000000000000000000000000000000000000000000000000000000000000000000000000000000000000000000000000000000000000000000000000000000000000000000000000000000000000000000000000000000000000000000000000000000000000000000000000000000000000000000000000000000000000000000000000000000000000000000000000000000000000000000000000000000000000000000000000000000000000000000000000000000000000000000000000000000000000000000000000000000000000000000000000000000000000000000000000000000000000000000000000000000000000000000000000000000000000000000000000000000000000000000000000000000000000000000000000000000000000000000000000000000000000000000000000000000000000000000000000000000000000000000000000000000000000000000000000000000000000000000000000000000000000000000000000000000000000000000000000000000000000000000000000000000000000000000000000000000000000000000000000000000000000000000000545400000000000000000000000000000000000000000000000000000000000000000000000000000000000000000000000000000000000000000000000000000000000000000000000000000000000000000000000000000000000000000000000000000000000000000000000000000000000000000000000000000000000000000000000000000000000000000000000000000000000000000000000000000000000000000000000000000000000000000000000000000000000000000000000000000000000000000000000000000000000000000000000000000000000000000000000000000000000000000000000000000000000000000000000000000000000000000000000000000000000000000000000000000000000000000000000000000000000000000000000000000000000000000000000000000000000000000000000000000000000000000000000000000000000000000000000000000000000000000000000000000000000000000000000000000000000000000000000000000000000000000000000000000000000000000000000000000000000000000000000000000000000000000000000000000000000000000000000000000000000000000000000000000000000000000000000000000000000000000000000000000000000000000000000000000000000000000000000000000000000000000000000000000000000000000000000000000000000000000000000000000000000000000000000000000000000000000000000000000000000000000000000000000000000000000000000000000000000000000000000000000000000000000000000000000000000000000000000000000000000000000000000000000000000000000000000000000000000000000000000000000000000000000000000000000000000000000000000000000000000000000000000000000000000000000000000000000000000000000000000000000000000000000000000000000000000000000000000000000000000000000000000000000000000000000000000000000000000000000000000000000000000000000000000000000000000000000000000000000000000000000000000000000000000000000000000000000000000000000000000000000000000000000000000000000000000000000000000000000000000000000000000000000000000000000000000000000000000000000000000000000000000000000000000000000000000000000000000000000000000000000000000000000000000000000000000000000000000000000000
#0745b:23
#07452:2336
#07458:0046
#07556:0000000000250000
#07554:0053
#07558:46
#07559:00450000
#0755a:0044
#07552:00000036
#07659:00630063
#07657:0000002300000000
#07652:35340000
#07654:0053
#07656:0000000000240000
#07653:00000035
#07658:0044
#07655:0000000000000025
#07959:0063
#07955:0000000000250000
#07952:36353400
#07958:00000046
#07858:0044
#07856:00000044
#0785a:00440000
#08052:00330000
#08057:00330000
#08056:23
#0805b:23
#08152:00640033
#0815a:00000054
#0815b:00430000
#08359:0063
#08355:0000000000250000
#08352:36353400
#08358:00000046
#08459:4545
#08452:00350035
#08559:45
#08558:00000033
#0855b:00000033
#08554:00340000
#08556:0044
#08756:0014
#08757:5400005300000000
#0875b:00000023000000001300000000000000
#08752:14
#0885a:14
#08854:0000004a
#08852:00000023000000001300000000003a00
#08856:0000006314000000
#08856:0000006300000000
#08855:64
#07758:4646
#07752:00360036
#07754:53
#07756:0000000025000000002400000000000000240000000000000024000000000000
#0915c:0022
#09157:62
#09256:6222
#09258:0000000022530000
#09255:0000000000530000
#09452:0014
#09658:0046000000000000
#09652:0036000000000000
#05258:62000012
#0525c:00220000
#05256:00000012
#07056:14
#07256:14
#005320:00130000
#005360:0023
#005360:0000000000000013
#006360:0023
#0063b1:0013000023000000
#006371:00000000005300000000000000000000
#0073b1:0000001300230000
#007321:00000013
#007361:00000000000000000000000000000053
#008321:0023000000000000
#007370:00000013
#008370:0023
#009370:00130000
#0093b0:0023
#009360:0000000000000013
#010360:0023
#010391:0013000000000000
#010321:0023
#011361:0000001300230000
#011371:00000013
#012371:0023000000000000
#013371:0013
#0133b1:00000023
#014361:00000013
#014321:0000000000000033
#015361:23
#017361:0014
#017321:00000024
#019321:00142400
#019361:0000005400000000
#0193a1:00000014
#019361:00000000000000000000000000000054
#0203a1:0024000000000000
#0213b1:0000000000000013
#0223b1:000000000000000000000000000000000000000000000000000000000000000000000000000000000000000000000000000000000000000000000000000000000000000000000000000000000000000000000000000000000000000000000000000000000000000000000000000000000000000000000000000000000000000000000000000000000000000000000000000000000000000000000000000000000000000000000000000000000000000000000000000000000000000000000000000000000000000000000000000000000000000000000000000000000000000000000000000000000000000000000023000000000000000000000000000000000000000000000000000000000000000000000000000000000000000000000000000000000000000000000000000000000000000000000000000000000000000000000000000000000000000000000000000000000000000000000000000000000000000000000000000000000000000000000000000000000000000000000000000000000000000000000000000000000000000000000000000000000000000000000000000000000000000000000000000000000000000000000000000000000000000000000000000000000000000000000000000000000000000000000000000000000000000000000000000000000000000000000000000000000000000000000000000000000000000000000000000000000000000000000000000000000000000000000000000000000000000000000000000000000000000000000000000000000000000000000000000000000000000000000000000000000000000000000000000000000000000000000000000000000000000000000000000000000000000000000000000000000000000000000000000000000000000000000000000000000000000000000000000000000000000000000000000000000000000000000000000000000000000000000000000000000000000000000000000000000000000000000000000000000000000000000000000000000000000000000000000000000000000000000000000000000000000000000000000000000000000000000000000000000000000000000000000000000000000000000000000000000000000000000000000000000000000000000000000000000000000000000000000000000000000000000000000000000000000000000000000000000000000000000000000000000000000000000000000000000000000000000000000000000000000000000000000000000000000000000000000000000000000000000000000000000000000000000000000000000000000000000000000000000000000000000000000000000000000000000000000000000000000000000000000000000000000000000000000000000000000000000000000000000000000000000000000000000000000000000000000000000000000000000000000000000000000000000000000000000000000000000000000000000000000000000000000000000000000000000000000000000000000000000000000000000000000000000000000000000000000000000000000000000000000000000000000000000000000000000000000000000000000000000000000000000000000000000000000000000000000000000000000000000000000000000000000000000000000000000000000000000000000000000000000000000000000000000000000000000000000000000000000000000000000000000000000000000000000000000000000000000000000000000000000000000000000000000000000000000000000000000000000000000000000000000000000000000000000000000000000000000000000000000000000000000000000000000000000000000000000000000000000000000000000000000000000000000000000000000000000000000000000000000000000000000000000000000000000000000000000000000000000000000000000000000000000000000000000000000000000000000000000000000000000000000000000000000000000000000000000000000000000000000000000000000000000000000000000000000000000000000000000000000000000000000000000000000000000000000000000000000000000000000000000000000000000000000000000000000000000000000000000000000000000000000000000000000000000000000000000000000000000000000000000000000000000000000000000000000000000000000000000000000000000000000000000000000000000000000000000000000000000000000000000000000000000000000000000000000000000000000000000000000000000000000000000000000000000000000000000000000000000000000000000000000000000000000000000000000000000000000000000000000000000000000000000000000000000000000000000000000000000000000000000000000000000000000000000000000000000000000000000000000000000000000000000000000000000000000000000000000000000000000000000000000000000000000000000000000000000000000000000000000000
#022321:000000000000000000000000000000000000000000000000000000000000000000000000000000000000000000000000000000000000000000000000000000000000000000000000000000000000000000000000000000000000000000000000000000000000000000000000000000000000000000000000000000000000000000000000000000000000000000000000000000000000000000000000000000000000000000000000000000000000000000000000000000000000000000000000000000000000000000000000000000000000000000000000000000000000000000000000000000000000000000000000001300000000000000000000000000000000000000000000000000000000000000000000000000000000000000000000000000000000000000000000000000000000000000000000000000000000000000000000000000000000000000000000000000000000000000000000000000000000000000000000000000000000000000000000000000000000000000000000000000000000000000000000000000000000000000000000000000000000000000000000000000000000000000000000000000000000000000000000000000000000000000000000000000000000000000000000000000000000000000000000000000000000000000000000000000000000000000000000000000000000000000000000000000000000000000000000000000000000000000000000000000000000000000000000000000000000000000000000000000000000000000000000000000000000000000000000000000000000000000000000000000000000000000000000000000000000000000000000000000000000000000000000000000000000000000000000000000000000000000000000000000000000000000000000000000000000000000000000000000000000000000000000000000000000000000000000000000000000000000000023000000000000000000000000000000000000000000000000000000000000000000000000000000000000000000000000000000000000000000000000000000000000000000000000000000000000000000000000000000000000000000000000000000000000000000000000000000000000000000000000000000000000000000000000000000000000000000000000000000000000000000000000000000000000000000000000000000000000000000000000000000000000000000000000000000000000000000000000000000000000000000000000000000000000000000000000000000000000000000000000000000000000000000000000000000000000000000000000000000000000000000000000000000000000000000000000000000000000000000000000000000000000000000000000000000000000000000000000000000000000000000000000000000000000000000000000000000000000000000000000000000000000000000000000000000000000000000000000000000000000000000000000000000000000000000000000000000000000000000000000000000000000000000000000000000000000000000000000000000000000000000000000000000000000000000000000000000000000000000000000000000000000000000000000000000000000000000000000000000000000000000000000000000000000000000000000000000000000000000000000000000000000000000000000000000000000000000000000000000000000000000000000000000000000000000000000000000000000000000000000000000000000000000000000000000000000000000000000000000000000000000000000000000000000000000000000000000000000000000000000000000000000000000000000000000000000000000000000000000000000000000000000000000000000000000000000000000000000000000000000000000000000000000000000000000000000000000000000000000000000000000000000000000000000000000000000000000000000000000000000000000000000000000000000000000000000000000000000000000000000000000000000000000000000000000000000000000000000000000000000000000000000000000000000000000000000000000000000000000000000000000000000000000000000000000000000000000000000000000000000000000000000000000000000000000000000000000000000000000000000000000000000000000000000000000000000000000000000000000000000000000000000000000000000000000000000000000000000000000000000000000000000000000000000000000000000000000000000000000000000000000000000000000000000000000000000000000000000000000000000000000000000000000000000000000000000000000000000000000000000000000000000000000000000000000000000000000000000000000000000000000000000000000000000000000000000000000000000000000000000000000000000000000000000000000000000000000000000000000000000000000000000000000000000000000000000000000000000000000000000
#022381:000000000000000000000000000000000000000000000000000000000000000000000000000000000000000000000000000000000000000000000000000000000000000000000000000000000000000000000000000000000000000000000000000000000000000000000000000000000000000000000000000000000000000000000000000000000000000000000000000000000000000000000000000000000000000000000000000000000000000000000000000000000000000000000000000000000000000000000000000000000000000000000000000000000000000000000000000000000000000000000000000000000000000000000000000000000000000000000000000000000000000000000000000000000000000000000000000000000000000000000000000000000000000000000000000000000000000000000000000000000000000000000000000000000000000000000000000000000000000000000000000000000000000000000000000000000000000000000000000000000000000000000000000000000000000000000000000000000000000000000000000000000000000000000000000000000000000000000000000000000000000000000000000000000000000000000000000000000000000000000000000000000000000000000000000000000000000000000000000000000000000000000000000000000000000000000000000000000000000000000000000000000000000000000000000000000000000000000000000000000000000000000000000000000000000000000000000000000000000000000000000000000000000000000000000000000000000000000000000000000000000000000000000000000000000000000000000000000000000000000000000000000000000000000000000000000000000000000000000000000000000000000000000000000000000000000000000000000000000000000000001300000000000000000000000000000000000000000000000000000000000000000000000000000000000000000000000000000000000000000000000000000000000000000000000000000000000000000000000000000000000000000000000000000000000000000000000000000000000000000000000000000000000000000000000000000000000000000000000000000000000000000000000000000000000000000000000000000000000000000000000000000000000000000000000000000000000000000000000000000000000000000000000000000000000000000000000000000000000000000000000000000000000000000000000000000000000000000000000000000000000000000000000000000000000000000000000000000000000000000000000000000000000000000000000000000000000000000000000000000000000000000000000000000000000000000000000000000000000000000000000000000000000000000000000000000000000000000000000000000000000000000000000000000000000000000000000000000000000000000000000000000000000000000000000000000000000000000000000000000000000000000000000000000000000000000000000000000000000000000000230000000000000000000000000000000000000000000000000000000000000000000000000000000000000000000000000000000000000000000000000000000000000000000000000000000000000000000000000000000000000000000000000000000000000000000000000000000000000000000000000000000000000000000000000000000000000000000000000000000000000000000000000000000000000000000000000000000000000000000000000000000000000000000000000000000000000000000000000000000000000000000000000000000000000000000000000000000000000000000000000000000000000000000000000000000000000000000000000000000000000000000000000000000000000000000000000000000000000000000000000000000000000000000000000000000000000000000000000000000000000000000000000000000000000000000000000000000000000000000000000000000000000000000000000000000000000000000000000000000000000000000000000000000000000000000000000000000000000000000000000000000000000000000000000000000000000000000000000000000000000000000000000000000000000000000000000000000000000000000000000000000000000000000000000000000000000000000000000000000000000000000000000000000000000000000000000000000000000000000000000000000000000000000000000000000000000000000000000000000000000000000000000000000000000000000000000000000000000000000000000000000000000000000000000000000000000000000000000000000000000000000000000000000000000000000000000000000000000000000000000000000000000000000000000000000000000000000000000000000000000000000000000000000000000000000000000000000000000000000000
#023321:1400000000000034
#024361:0023000000000000
#0253a1:0000000000000014
#026361:54
#0263a1:0034002400000000
#026360:0000001400240000
#026320:0053
#027320:13
#0273b0:00230000
#027361:14240000
#0283b1:13
#028321:00230000
#028360:14240000
#029360:14
#0293b0:0023
#029321:0013
#029361:00000054
#030321:23
#033321:1c
#034361:24
#035321:00001424
#035361:0000000000540000
#0363a1:00142400
#036361:0000005400000000
#036320:0014
#036360:00000024
#0363a1:00000014
#037361:34
#0373a1:00240000
#037320:13
#037360:00230000
#038370:1300000000530000
#0383a0:00343434
#038380:0000005300000000
#038360:0000000000000053
#0393a0:24
#0393a0:00001424
#039360:0000000000540000
#040320:00142400
#040360:0000005400000000
#0413b0:13
#041370:00220000
#043320:00001424
#043360:0000000000540000
#045350:00000014
#046370:54
#046320:00240000
#047350:14
#047320:0000003300000000
#047360:0023
#048370:1423
#0483b0:0000003300000000
#051360:12003222
#051320:00520000
#051381:00001222
#052381:12003222
#0523c1:00520000
#052360:00001222
#073320:1400002400000000
#073360:00000054000000000000000000000000
#073360:0014
#074320:53
#074380:0026
#073361:000000000000000000000000000000000000000000000000000000000000000000000000000000000000000000000000000000000000000000000000000000000000000000000000000000000000000000000000000000000000000000000000000000000000000000000000000000000000000000000000000000000000000000000000000000000000000000000000000000000000000000000000000000000000000000000000000000000000000000000000000000000000000000000000000000000000000000000000000000000000000000000000000000000000000000000000000000000000000000000000000000000000000000000000000000000000000000000000000000000000000000000000000000000000000000000000000000000000000000000000000000000000000000000000000000000000000000000000000000000000000000000000000000000000000000000000000000000000000000000000000000000000000000000000000000000000000000000000000000000000000000000000000000000000000000000000000000000000000000000000000000000000000000000000000000000000000000000000000000000000000000000000000000000000000000000000000000000000000000000000000000000000000000000000000000000000000000000000000000000000000000000000000000000000000000000000000000000000000000000000000000000000000000000000000000000000000000000000000000000000000000000000000000000000000000000000000000000000000000000000000000000000000000000000000000000000000000000000000000000000000000000000000000000000000000000000000000000000000000000000000000000000000000000000000000000000000000000000000000000000000000000000000000000000000000000000000000000000000000000000000000000000000000000000000000000000000000000000000000000000000000000000000000000000000000000000000000000000000000000000000000000000000000000000000000000000000000000000000000000000000000000000000000000000000000000000000000000000000000000000000000000000000000000000000000000000000000000000000000000000000000000000000000000000000000000000000000000000000000000000000000000000000000000000000000000000000000000000000000000000000000000000000000000000000000000000000000000000000000000000001400000000000000000000000000000000000000000000000000000000000000000000000000000000000000000000000000000000000000000000000000000000000000000000000000000000000000000000000000000000000000000000000000000000000000000000000000000000000000000000000000000000000000000000000000000000000000000000000000000000000000000000000000000000000000000000000000000000000000000000000000000000000000000000000000000000000000000000000000000000000000000000000000000000000000000000000000000000000000000000000000000000000000000000000000000000000000000000000000000000000000000000000000000000000000000000000000000000000000000000000000000000000000000000000000000000000000000000000000000000000000000000000000000000000000000000000000000000000000000000000000000000000000000000000000000000000000000000000000000000000000000000000000000000000000000000000000000000000000000000000000000000000000000000000000000000000000000000000000000000000000000000000000000000000000000000000000000000000000000000000000000000000000000000000000000000000000000000000000000000000000000000000000000000000000000000000000000000000000000000000000000000000000000000000000000000000000000000000000000000000000000000000000000000000000000000000000000000000000000000000000000000000000000000000000000000000000000000000000000000000000000000000000000000000000000000000000000000000000000000000000000000000000000000000000000000000000000000000000000000000000000000000000000000000000000000000000000000000000000000000000000000000000000000000000000000000000000000000000000000000000000000000000000000000000000000000000000000000000000000000000000000000000000000000000000000000000000000000000000000000000000000000000000000000000000000000000000000000000000000000000000000000000000000000000000000000000000000000000000000000000000000000000000000000000000000000000000000000000000000000000000000000000000000000000000000000000000000000000000000000000000000000000000000000000000000000000000000000000000000
#0743b1:53
#074321:0026
#075341:0013
#075361:0000000000550000
#075321:00000026
#076391:00130000
#076371:0000005300000000
#076381:0024
#076340:0013
#076360:0000000000540000
#076330:00000025
#076391:00000013
#076351:0000000000000055
#077381:26
#077340:13
#077360:0055000000000000
#077320:00260000
#077360:0000000000000000001400000000000000000000000000000000000000000000
#077380:0026
#077360:0000000000000000000000000000000000140000000000000000000000000000
#077320:00000026
#077360:0000000000000000000000000000000000000000000000000014000000000000
#0783a0:00240000
#079390:0013
#079350:0000000000550000
#079380:00000026
#080360:13
#080320:00230000
#0803b1:13
#080371:00230000
#081321:14340000
#081361:00000000000000000000000000000000000000530000000000000000000000003300000000000000000000000000230000000000000000000000000000000000
#081370:1300000000000023000000000000000000000000000000000000000000000000
#0813a0:00001434
#081370:00000000000000000000000000000000000000000000000000000000000000000000000000000000000000000000000000000053000000000000000000000000
#082370:23
#083390:0013
#083350:0000000000550000
#083380:00000026
#085340:0014000000000000240000000000000000000000000000000000000000000000
#085360:0000000000000000001400000000000024000000000000000000000000000000
#085380:000000000000000000000000000000000000000000000000000000000000000000000000000000000000000000000000000000000000000000000000000000000000000000000000000000000000000000000000000000000000000000000000000000000000000000000000000000000000000000000000000000000000000000000000000000000000000000000000000000000000000000000000000000000000000000000000000000000000000000000000000000000000000000000000000000000000000000000000000000000000000000000000000000000000000000000000000000000000000000000000000000000000000000000000000000000000000000000000000000000000000000000000000000000000000000000000000000000000000000000000000000000000000000000000000000000000000000000000000000000000000000000000000000000000000000000000000000000000000000000000000000000000000000000000000000000000000000000000000000000000000000000000000000000000000000000000000000000000000000000000000000000000000000000000000000000000000000000000000000000000000000000000000000000000000000000000000000000000000000000000000000000000000000000000000000000000000000000000000000000000000000000000000000000000000000000000000000000000000000000000000000000000000000000000000000000000000000000000000000000000000000000000000000000000000000000000000000000000000000000000000000000000000000000000000000000000000000000000000000000000000000000000000000000000000000000000000000000000000000000000000000000000000000000000000000000000000000000000000000000000000000000000000000000000000000000000000000000000000000000000000000000000000000000000000000000000000000000000000000000000000000000000000000000000000000000000000000000000000000000000000000000000000000000000000000000000000000000000000000000000000000000000000000000000000000000000000000000000000000000000000000000000000000000000000000000000000000000000000000000000000000000000000000000000000000000000000000000000000000000000000000000000000000000000000000000000000000000000000000000000000000000000000000000000000000000000000000000000000000000000000000000000000000000000000000000000000000000000000000000000000000000000000000000000000000000000000000000000000000000000140000000000000000000000000000000000000000000000000000000000000000000000000000000000000000000000000000000000000000000000000000000000000000000000000000000000000000000000000000000000000000000000000000000000000000000000000000000000000000000000000000000000000000000000000000000000000000000000000000000000000000000000000000000000000000000000000000000000000000000000000000000000000000000000000000000000000000000000000000000000000000000000000000000000000000000000000000000000000000000000000000000000000000000000000000000000000000000000000000000000000000000000000000000000000000000000000000000000000000000000000000000000000000000000000000000000000000000000000000000000000000000000000000000000000000000000000000000000000000000000000000000000000000000000000000000000000000000000000000000000000000000000000000000000000000000000000000000000000000000054230000000000000000000000000000000000000000000000000000000000000000000000000000000000000000000000000000000000000000000000000000000000000000000000000000000000000000000000000000000000000000000000000000000000000000000000000000000000000000000000000000000000000000000000000000000000000000000000000000000000000000000000000000000000000000000000000000000000000000000000000000000000000000000000000000000000000000000000000000000000000000000000000000000000000000000000000000000000000000000000000000000000000000000000000000000000000000000000000000000000000000000000000000000000000000000000000000000000000000000000000000000000000000000000000000000000000000000000000000000000000000000000000000000000000000000000000000000000000000000000000000000000000000000000000000000000000000000000000000000000000000000000000000000000000000000000000000000000000000000000000000000000000000000000000000000000000000000000000000000000000000000000000000000000000000000000000000000000000000000000
#087370:1400003300000000
#0873b0:00000053000000002300000000000000
#088350:14
#088320:00000053000000002300000000000000
#088360:0000003300000000
#091370:12
#0913c0:0052
#092380:22
#092361:12003222
#092381:0000000000530000
#092380:00001222
#092350:0000000000530000
#000920:00000011
#002920:000000000000000000000000005c0000
#0049d0:0000000000000021
#0009d1:00000011
#002921:000000000000000000000000000000000000000000000000000000000000000000000000000000000000000000000000000000000000000000000000000000000000000000000000000000000000000000000000000000000000000000000000000000000000000000000000000000000000000000000000000000000000000000000000000000000000000000000000000000000000000000000000000000000000000000000000000000000000000000000000000000000000000000000000000000000000000000000000000000000000000000000000000000000000000000000000000000000000000000000000000000000000000000000000000000000000000000000000000000000000000000000000000000000000000000000000000000000000000000000000000000000000000000000000000000000000000000000000000000000000000000000000000000000000000000000000000000000000000000000000000000000000000000000000000000000000000000000000000000000000000000000000000000000000000000000000000000000000000000000000000000000000000000000000000000000000000000000000000000000000000000000000000000000000000000000000000000000000000000000000000000000000000000000000000000000000000000000000000000000000000000000000000000000000000000000000000000000000000000000000000000000000000000000000000000000000000000000000000000000000000000000000000000000000000000000000000000000000000000000000000000000000000000000000000000000000000000000000000000000000000000000000000000000000000000000000000000000000000000000000000000000000000000000000000000000000000000000000000000000000000000000000000000000000000000000000000000000000000000000000000000000000000000000000000000000000000000000000000000000000000000000000000000000000000000000000000000000000000000000000000000000000000000000000000000000000000000000000000000000000000000000000000000000000000000000000000000000000000000000000000000000000000000000000000000000000000000000000000000000000000000000000000000000000000000000000000000000000000000000000000000000000000000000000000000000000000000000000000000000000000000000000000000000000000000000000000000000000000000000000000000000000000000000000000000000000000000000000000000000000000000000000000000000000000000000000000000000000000000000000000000000000000000000000000000000000000000000000000000000000000000000000000000000000000000000000000000000000000000000000000000000000000000000000000000000000000000000000000000000000000000000000000000000000000000000000000000000000000000000000000000000000000000000000000000000000000000000000000000000000000000000000000000000000000000000000000000000000000000000000000000000000000000000000000000000000000000000000000000000000000000000000000000000000000000000000000000000000000000000000000000000000000000000000000000000000000000000000000000000000000000000000000000000000000000000000000000000000000000000000000000000000000000000000000000000000000000000000000000000000000000000000000000000000000000000000000000000000000000000000000000000000000000000000000000000000000000000000000000000000000000000000000000000000000000000000000000000000000000000000000000000000000000000000000000000000000000000000000000000000000000000000000000000000000000000000000000000000000000000000000000000000000000000000000000000000000000000000000000000000000000000000000000000000000000000000000000000000000000000000005c00000000000000000000000000000000000000000000000000000000000000000000000000000000000000000000000000000000000000000000000000000000000000000000000000000000000000000000000000000000000000000000000000000000000000000000000000000000000000000000000000000000000000000000000000000000000000000000000000000000000000000000000000000000000000000000000000000000000000000000000000000000000000000000000000000000000000000000000000000000000000000000000000000000000000000000000000000000000000000000000000000000000000000000000000000000000000000000000000000000000000000000000000000000000000000000000000000000000000000000000000000000000000000000000000000000000000000000000000000000000000000000000000000000000000000000000000000000000000000000
#004921:0000000000000021
#061991:15
#0649d1:21
#061920:15
#064920:21
#0659b0:13
#0689d0:21
#065921:13
#068921:21
#0699c1:12
#0709c1:0000000000000022
#069960:0000001400000000
#070960:24
#071921:12000022
#071960:0000001400000000
#072960:24
