This file was generated by Ched 2.7.0.0.
#TITLE ""
#ARTIST ""
#DESIGNER ""
#DIFFICULTY 0
#PLAYLEVEL
#SONGID ""
#WAVE ""
#WAVEOFFSET 0
#JACKET ""
#REQUEST "ticks_per_beat 480"
#00002: 4
#BPM01: 190
#00008: 01
#TIL00: "0'0:1"
#VOLUME: ""
#HISPEED 00
#MEASUREHS 00
#0611f:11
#0051a:14
#00514:0014
#00712:14
#00718:0014
#00918:14
#00914:0014
#01114:14
#01118:0014
#01312:0014
#0131a:24
#01310:41
#01418:14
#01414:0014
#0151a:14
#01512:0014
#01618:14000014
#01614:0014
#0171a:0014
#01712:14
#01814:14
#01818:0014
#01912:14
#0191a:0014
#02014:1414
#02018:00140014
#0211a:0014
#02112:24
#02110:41
#0231a:14
#02312:0014
#02512:1414
#0261a:1414
#02912:14
#02918:14
#03014:0014
#03018:00000014
#03112:14
#03118:00140000
#03114:0014
#0311a:00000014
#03212:14
#03218:00140000
#03214:0014
#0321a:00000014
#03514:00140000
#0351a:2414
#03512:00000014
#03510:41
#03618:14000034
#03612:00140000
#0361a:0014
#03718:00140000
#0371a:0034
#03814:00140014
#03818:0014
#0391a:14
#03914:00140000
#03918:0014
#03912:00000014
#0401a:14000054
#04014:00140000
#04019:0000000000540000
#04018:0054
#04114:14240000
#04118:00001424
#04212:14
#04218:00140000
#04214:0014
#0421a:00000014
#04318:00140000
#04312:2414
#0431a:00000014
#04310:41
#04414:14
#0441a:00140000
#04412:0014
#04418:00000014
#04618:00140014
#04614:0014
#04712:14
#0481a:14
#04812:00000026
#0491a:00140000
#04914:0014
#04918:00000014
#05012:14
#05018:00140000
#05014:0014
#0501a:00000014
#05212:0014
#0521a:24
#05318:00000014
#05310:41
#05514:00000014
#0691a:14
#06914:0014
#0701a:14
#07112:14
#07118:0014
#07212:14
#07518:00140000
#07512:2414
#0751a:00000014
#0751f:21
#07614:14000034
#0761a:00140000
#07612:0014
#07610:41
#07714:00140000
#07712:0034
#07818:00140014
#07814:0014
#07912:14
#07918:00140000
#07914:0014
#0791a:00000014
#08012:14000054
#08018:00140000
#08013:0000000000540000
#08014:0054
#08118:14140000
#08114:00001414
#0821a:14
#08214:00140000
#08218:0014
#08212:00000014
#08314:00140000
#0831a:2414
#08312:00000014
#08418:14
#08412:00140000
#0841a:0014
#08414:00000014
#08614:00140014
#08618:0014
#0871a:14
#08718:00140000
#08812:14
#08814:00140000
#08818:00000026
#08912:00140000
#08918:0014
#08914:00000014
#0901a:14
#09014:00140000
#09018:0014
#09012:00000014
#09314:00000014
#03312:24
#05112:24
#05913:2400003400003400
#07319:24
#0911a:24
#09617:0024000000000000
#06013:0034000000000000
#04512:54
#04513:00540000
#04514:00005454
#0851a:54
#08519:00540000
#08518:00005454
#01252:0014
#03054:14
#0305a:14
#02952:54
#02958:54
#03452:14
#0375a:00000014
#03758:00540000
#0365a:0054
#04554:00000014
#04752:54
#0485a:54
#04852:00000016
#05358:00000064
#0545a:0014
#0585a:0014
#05554:00000054
#05652:0014
#06052:0016
#07453:0014
#07459:0014
#07652:0064
#07754:00640000
#07752:00000014
#0875a:64
#08758:00240000
#08852:64
#08854:00240000
#08858:00000016
#08558:00000014
#0915a:64
#09354:00000054
#09452:0014
#09657:0014000000000000
#006380:1424
#008340:1424
#0103a0:1424
#012320:1424
#022340:14
#022320:0024
#024380:14
#0243a0:0024
#027320:1424
#027381:1424
#0283a1:1424
#028340:1424
#029380:14
#0293a0:0034
#0303a0:24
#029321:14
#029341:0034
#030341:24
#033321:14
#034321:24
#0363a1:0014
#036381:00000034
#037381:34340000
#0373a1:00003424
#047321:14
#047341:0024
#0483a1:14
#048381:0024
#0533a1:14
#053381:0000003400003400
#0543a1:0024
#055321:14
#055341:0000003400003400
#056321:0024
#0573a1:14
#057381:0000003400003400
#0583a1:0034000024000000
#059331:1400003400003400
#060331:0034000000000000
#060321:0026
#0613a1:14
#0623a1:24
#063341:14
#064341:24
#065381:14
#066381:24
#067321:14
#068321:24
#073331:14
#074331:0024
#073390:14
#074390:0024
#076320:0014
#076340:00000034
#077340:34340000
#077320:00003424
#0873a0:1424
#087380:00540000
#088320:1424
#088340:00540000
#0913a0:14
#092370:3424
#093320:14
#093340:0000003400003400
#094320:0024
#0953a0:14
#095390:0000003400000000
#095380:00000034
#096370:0024000000000000
#040980:0014
#0409a0:00000024
#045920:14
#045940:00005424
#080940:0014
#080920:00000024
#0859a0:14
#085980:00005424
