This file was generated by Ched 2.7.0.0.
#TITLE ""
#ARTIST ""
#DESIGNER ""
#DIFFICULTY 0
#PLAYLEVEL
#SONGID ""
#WAVE ""
#WAVEOFFSET 0
#JACKET ""
#REQUEST "ticks_per_beat 480"
#00002: 4
#BPM01: 140
#00008: 01
#TIL00: ""
#VOLUME: ""
#HISPEED 00
#MEASUREHS 00
#00513:14
#01414:14
#01514:14
#01618:14
#01718:14
#01812:14
#01912:14
#01112:14
#01018:14
#00914:14
#0121a:14
#01210:41
#0131a:14
#02818:2616
#02810:41
#03012:2616
#03218:2616
#04618:14
#04714:14
#04818:14
#05314:14
#05318:0014
#05414:14
#05418:0014
#0581a:14
#0601a:14
#06118:0014
#06114:24
#06218:0014
#06214:24
#06312:14
#0631a:0014
#06518:0016
#06512:26
#0651f:21
#08318:14
#08314:0014
#08418:14
#08414:0014
#00619:14
#00713:14
#0081a:14
#03312:2616
#03418:16
#03412:0016
#03612:2616
#03610:41
#03818:2616
#04012:2616
#04118:2616
#04212:16
#04218:0016
#04312:16
#04318:0016
#06712:0016
#06718:26
#06918:0016
#06912:26
#07018:0016
#07012:26
#07318:0016
#07312:26
#07512:0016
#07518:26
#07718:0016
#07712:26
#07818:0016
#07812:26
#0571f:11
#05912:24
#06412:24
#0641a:0024
#08112:26
#06610:41
#04510:41
#07910:41
#000390:14
#004390:24
#0203a0:14
#0213a0:24
#022340:14
#023340:24
#024380:14
#025380:24
#026320:14
#027320:24
#029380:1626
#031320:1626
#035380:1626
#037320:1626
#039380:1626
#044320:16
#045320:26
#049320:14
#050320:24
#0513a0:14
#0523a0:24
#055320:14
#056320:34
#057320:24
#066320:1626
#068380:1626
#071320:1626
#072380:1626
#074320:1626
#076380:1626
#079320:1626
#080380:1626
#081320:16
#082320:26
#0853a0:14
#087380:34
#0893a0:24
