This file was generated by Ched 2.7.0.0.
#TITLE ""
#ARTIST ""
#DESIGNER ""
#DIFFICULTY 0
#PLAYLEVEL
#SONGID ""
#WAVE ""
#WAVEOFFSET 0
#JACKET ""
#REQUEST "ticks_per_beat 480"
#00002: 4
#BPM01: 140
#00008: 01
#TIL00: ""
#VOLUME: ""
#HISPEED 00
#MEASUREHS 00
#00412:1212000000000000
#00414:00000000120012000000000000120000
#00418:00120012000000000000000000000000
#0041a:00000000001200000000000012001200
#0041c:0000000012120000
#00416:00000000000000000012001200000000
#04616:14
#0461a:0014
#05414:0013
#05413:00130000
#05415:00000013
#05418:0013000000000000
#05419:0000001300000000
#0541a:0000000000130000
#0541b:0000000000000013
#05412:23
#05819:12
#05815:12
#06015:12
#06019:12
#00816:00130000000000000000000000000000
#00812:0000131313001300
#0081b:23001300000000130000000000130000
#00818:00000000001300000013001300000013
#00815:0000000000130013
#05612:1400340034003400340034003400340000343434343434343434343434343434
#05612:0000000000000000000000000000000000343400000000000000000000000000
#05616:0014
#08716:14
#08712:0000000000120012
#0851a:14
#08512:0000000000120012
#00618:0013001300000000
#00619:0000000000130013
#00614:00002313
#00615:23130000
#0121b:13001313
#01215:0013001300001313
#01218:00130000
#01212:13131300
#01210:41
#01315:0000130000130000
#01312:0000001300001300
#01318:0013000013000000
#0131b:1300130000000013
#01412:13130000
#01418:0000001300000000
#01415:0013000013000013
#0141b:00131313
#01515:00000000130000000013000000001300
#01512:0000001300001300
#0151b:1300130000130000
#01518:0013000013001300
#01618:0013130013000000
#01615:0000001300001300
#0161b:1300000000130013
#01612:0000130000130000
#0171b:00130013
#01718:0000001300130000
#01712:0013000013000000
#01715:1300130000000013
#01812:0000001300001300
#01815:00131300
#01818:0013000000130013
#0181b:13131300
#02012:1313000000001300
#0201b:0000001313000013
#02015:0000000000130000
#02016:0014000014000000
#02018:00000000000000000000001300000000
#02116:1313000000000000
#02117:0000001313000000
#02118:00000000000000000000001300000000
#0211b:0000000000000013
#0211a:0014000000000000
#02112:00001413
#02115:0000000000130000
#0221b:0000001300000013
#02218:0013000000001300
#02212:0013
#02215:0000000000130000
#02315:00000000000013000000001300000000
#02318:0000000000131300
#02615:0013000000000000
#02617:00130000
#02614:0000001300000013
#02619:0000001300000013
#02618:0000000000130000
#02616:00000013
#02612:2424
#0261a:2424
#02716:0014001400000000
#02712:24000000240000002400000000000023
#0271a:24242400
#0271b:00000023
#02718:00000000000000000000000000230000
#02715:0000000000000023
#0281b:1313000000000000
#02815:00130000001300000000000000000013
#02818:0000131300000013
#02812:00000013000000130000240000130000
#0281a:0024
#02810:41
#0291b:1313
#02916:00130000000000000000000000000000
#02912:0000132400000000
#02917:00000000001300000000000000000000
#02915:00000000000000000013001300000000
#02918:0000000000130000
#0291a:0024000000002400
#04512:0014
#04510:41
#04816:1414
#04912:13131313
#04918:0013000013001300
#0491b:0000130000130000
#04915:0000001300000013
#0501b:13130000
#05018:0013000024000000
#05012:13132400
#05015:0000001300000000
#05014:00000024
#0501a:00000024
#05318:0013000000000000
#05313:00130000
#05319:0000001300000000
#05314:0013
#0531a:0000000000130000
#05315:00000013
#0531b:0000000000000013
#05312:23
#06415:0000000000001313
#06418:00000000000000000000000000130000
#06412:0000000024240000
#0641a:2400000024240000
#0071a:00130013000000000000000000000000
#00713:2313000000000000
#0071b:00000000001300130000000000000000
#00712:0000000000000000230000001300000000333333333333332300000000000000
#00715:0013
#00918:00130013001300000000000000000000
#00915:0013001300000000
#00912:23131300
#0091b:00000000000000130000000013000000
#00919:0000000000130000
#00914:0000000000000013
#00916:00000000000000000033333300000000
#00917:00000000000000000000000000333333
#0241b:1313000000001300
#02412:0000001313000013
#02418:0000000000130000
#02416:0014000014000000
#02415:00000000000000000000001300000000
#02517:1313000000000000
#02516:0000001313000000
#02515:00000000000000000000001300001300
#02512:0014000000000000
#0251a:0014
#02518:0000000000130000
#0251b:00000013
#03012:1313000024000000
#03018:00130000001300000000000000000013
#03015:0000131300000013
#0301b:00000013000000130000000000130000
#0301a:0000000000240000
#0321b:1313000000000000
#03215:00130000001300000000000000001300
#03218:00000000130013000000000000130013
#03212:00000013000000130000240000000000
#0321a:0024
#03312:1313000024000000
#03318:00130000001300000000000000000000
#03315:0000131300000000
#0331b:00000013000000130000000000000000
#0331a:0000000000240000
#03415:13001300000000000013000000001300
#03418:00000000130013001300130000000013
#03412:00000000000000130000001300000000
#0341b:00000013
#0351b:00130000000000130000001300000000
#03518:00000013001300000013000000000000
#03515:0013001300130000
#03512:2300230023000013
#0361b:13001300000000000000000000000013
#03615:00130000001300000000000000001300
#03618:00000000130013000000000000130000
#03612:00000013000000130000240000000000
#0361a:0024
#03610:41
#03712:00001324
#03718:00002300000000000013001300000000
#03715:1300002300130000
#0371b:00000000130000130000000000000000
#03713:00330000000000000000000000000000
#03812:13001300000000002400000000000013
#03818:00130000001300000000000000001300
#03815:00000000130013000000000000130000
#0381b:00000013000000130000000000000000
#0381a:0000000000240000
#04716:13
#04717:0013
#0471b:13
#0511b:13131313
#05115:0013000013001300
#05112:1300130000130000
#05118:0000001300000013
#05212:13130024
#05215:0013000000000000
#0521b:13130000
#05218:0000001300002400
#0521a:0024
#05214:0024
#05518:00130013000000000000000000000000
#05512:2313000000000000
#05519:00000000001300130000000000000000
#05513:0000231300000000
#0551a:00000000000000000013001300000000
#05514:0000000023130000
#0551b:00000000000000000000000000130013
#05515:0000000000002313
#06318:00001300000000000013000000001300
#06312:00132313
#0631b:23000000000000130000001300000000
#06315:00000000000013000000130000000013
#06515:00130000001300000000000000001300
#0651b:23001300000000000000000000000013
#06518:00000000130013000000000000130000
#06512:00000013000000130000240000000000
#0651a:0024
#0651f:21
#06617:00130000000000000000000000000000
#06615:00000000000000000013000000000000
#06618:0000000000130000
#0661b:00000000230000000000001300000000
#06616:00000000001300000000000000000000
#06612:2324000023002400
#0661a:0000002400000000
#06610:41
#06918:00130000001300000000000000001300
#06912:2313000024000000
#06915:00000000130013000000000000130013
#0691b:00000013000000130000000000000000
#0691a:0000000000240000
#07115:00001300130000001300130000000013
#07112:1300001300001300
#0711b:13000000000000130000001300000000
#07118:00000000130000000013000000001300
#07212:00130000001300000000001300000000
#07215:00000013000000130000130000000000
#07218:00001300000013000013000000000000
#0721b:2300230023000023
#07216:0000000000000023
#07318:00130000001300000000000000001300
#07312:23001300000000002400000000000013
#07315:00000000130013000000000000130000
#0731b:00000013000000130000000000000000
#0731a:0000000000240000
#07718:00130000001300000000000000001300
#07712:23001300000000002400000000000013
#07715:00000000130013000000000000130000
#0771b:00000013000000130000000000000000
#0771a:0000000000240000
#08614:00000000000000000000121200001200
#01017:00130000000000000000000000000000
#0101b:0000131313001300
#01012:23001300000000130000000000130000
#01015:00000000001300000013001300000013
#01018:0000000000130013
#01115:00130013001300000023002300000000
#01118:0013001323230000
#0111b:2300000000000000130000000000000000000000000000002363636363000000
#01112:00000000000000130000000000000000
#08212:00130000000000130000000013000000
#08218:0013001300000000
#08215:00000013001300000000000000000000
#0821b:00131300
#08214:0000000000130000
#08219:0000000000000013
#08217:00000000000000000033333300000000
#08216:00000000000000000000000000333333
#08315:00130000001300000013001300000013
#0831b:2300131313001300
#08318:0013000000130013
#08312:00000013000000130000000000130000
#08415:00130000001300000023002300000000
#08418:0013001323230000
#08412:00000013000000130000000000230000
#0841b:1300130000002323
#07415:00002300000023000013000000000000
#07418:1300000000130000
#0741b:00000000130000130000001300000000
#07412:00232326
#0741a:00330000000000000000000000000000
#00512:1212000000000000
#00514:00000000120012000000000000120000
#00518:00120012000000000000000000000000
#0051a:00000000001200000000000012001200
#0051c:0000000012120000
#00516:00000000000000000012001200000000
#03112:1324000013002400
#03117:00130000000000000000000000000000
#0311b:00130000
#03116:00000000001300000000000000000000
#03118:00000000000000000013001300000000
#03115:0000000000130000
#0311a:0000002400000000
#0391b:0013
#03915:00002300000000000013001300000000
#03918:1300002300130000
#03912:00000000130000130000000000000000
#0391a:00330000000000000000000024000000
#04012:1313000024000000
#04018:00130000001300000000000000001300
#04015:00000000130013000000000000130013
#0401b:00000013000000130000000000000000
#0401a:0000000000240000
#0411b:1313000000000000
#04115:00130000001300000000000000000000
#04118:0000131300000000
#04112:00000013000000130000240000000000
#0411a:0024
#04312:00130000000000130000000000000000
#04315:00000013001300000000000000000000
#04318:0013001300240024
#0431a:0024
#0431b:23230000
#04316:00000024
#04314:0000000000000024
#04412:00000000000000140000000000000000
#0441a:00000000000000140000000000000000
#06114:00130013
#06116:0013
#0611b:0013
#06112:23
#06117:23
#06219:00130013
#06217:0013
#06212:2313
#0621b:23
#06718:00130000001300000000000000001300
#06712:23001300000000002400000000000013
#06715:00000000130013000000000000130000
#0671b:00000013000000130000000000000000
#0671a:0000000000240000
#06816:00130000000000000000000000000000
#06818:00000000000000000013000000000000
#06815:0000000000130000
#06812:00000000230024000000001300000000
#06817:00000000001300000000000000000000
#0681a:0024000000002400
#0681b:2323
#07015:00130000001300000000000000000000
#0701b:2313000000000000
#07018:0000131300000000
#07012:00000013000000130000240000000000
#0701a:0024
#04215:00000000130013001300130000000013
#04218:13001300000000000013000000001300
#0421b:00000000000000130000001300000000
#04212:00000013
#07515:00130000001300000000000000001300
#0751b:23001300000000000000000000000013
#07518:00000000130013000000000000130000
#07512:00000013000000130000240000000000
#0751a:0024
#07618:00002300000023000013000026000000
#07615:1300000000130000
#07612:00330000133300130000001300000000
#0761b:00232300
#07815:00130000001300000000000000000000
#0781b:2313000000000000
#07818:0000131300000000
#07812:00000013000000130000240000000000
#0781a:0024
#07918:00001300130000001300130000000013
#0791b:1300001300001300
#07912:13000000000000130000001300000000
#07915:00000000130000000013000000001300
#07910:41
#0801b:00130000001300000000000000000000
#08018:00000013000000130000000000002400
#08015:0013001300000000
#08012:23232400
#08014:0000000000240024
#08016:00000024
#0811a:00000000000000140000000000000000
#08112:00000000000000140000000000000000
#08815:00000000000000000000003313000000
#08812:0000000000000013
#00019:12000012000012000000000000000000
#01915:2313000023130000
#01918:0000231300002313
#0191b:2323
#01912:00230023
#0571f:11
#05712:24
#0571a:24
#0591a:24
#05912:24
#08915:73
#0891a:74
#05652:64
#05656:0024
#08756:24
#0855a:64
#01255:0000000000000053
#01252:0013
#0125b:0013
#01358:0063
#0135b:0000000000000053
#01455:0000000013000053
#0145b:0013
#0165b:0000000000000053
#01752:0063
#01755:0000000000000053
#01555:0000000000000063
#02355:0000006300000000
#02358:00000013
#04856:6454
#0355b:00000000000000000000005300000000
#03552:0000000000000013
#04756:53
#04757:0063
#07252:00000000000000000000005300000000
#0725b:0000000000000013
#07256:0000000000000013
#0275a:0044
#02752:0034
#06452:0000000034340000
#0645a:4400000044440000
#0295a:0044000000004400
#02952:0000003400000000
#03752:00000034
#03755:63
#0375b:00530000
#06652:0034000000003400
#0665a:0000004400000000
#07352:0064
#07356:0000000000140000
#0735a:0000000000140000
#07452:00000036
#07458:53
#0745b:00530000
#07455:0013001300000000
#07752:0064
#07756:0000000000140000
#0775a:0000000000140000
#07158:00530000
#0715b:53
#00952:0053
#0095b:00000063
#0825b:0063
#08252:00000053
#03152:0034000000003400
#0315a:0000004400000000
#03652:0000000000140000
#0335a:0000000000140000
#03252:0000000000140000
#0305a:0000000000140000
#02852:0000000000140000
#03958:53
#03952:00630000
#0395a:00000044
#0405a:0000000000140000
#04152:0000000000140000
#04452:00000000000000240000000000000000
#0445a:00000000000000240000000000000000
#04354:0000000000000054
#04358:0000000000000054
#06552:0000000000140000
#0655a:0000000000140000
#0685a:0044000000004400
#06852:0000003400000000
#0675a:0000000000140000
#06752:0000000000140000
#06952:0000000000140000
#0695a:0000000000140000
#07052:0000000000140000
#0705a:0000000000140000
#07655:63
#07652:00630000
#07658:0013001300004600
#0755a:0054
#07552:0000000000140000
#07556:0000000000140000
#0785a:0054
#07852:0000000000140000
#07856:0000000000140000
#07955:00630000
#07952:63
#0815a:00000000000000240000000000000000
#08152:00000000000000240000000000000000
#08058:0000000000000064
#08054:0000000000000064
#08852:0000000000000053
#08855:00000053
#02052:00000013
#02152:00000013
#0245b:00000013
#0255b:00000013
#05752:34
#0575a:44
#0595a:44
#05952:34
#00059:22000022000022000000000000000000
#0385a:0000000000140000
#00752:00000013
#00755:0063
#000390:12000032000032000000000000000000
#000360:000000000000000000000000000000000000000000000000000000000000000000000000000000000000000000000000000000000000000000000000000000000000000000000000000000000000000000000000000000000000000000000000000000000000000000000000000000000000000000000000000000000000000000000000000000000000000000000000000000000000000000000000000000000000000000000000000000000000000000000000000000000000000000000000000000000000000000000000000000000000000000000000000000000000000000000000000000000000000000000000000000000000000000000000000000000000000000000000000000000000000000000000000000000000000000000000000000000000000000000000000000000000000000000000000000000000000000000000000000000000000000000000000000000000000000000000000000000000000000000058000000000000000000000000000000000000000000000000000000000000000000000000000000000000000000000000000000000000000000000000000000000000000000000000000000000000000000000000000000000000000000000000000000000000000000000000000000000000000000000000000000000000000000000000000000000000000000000000000000000000000000000000000000000000000000000000000000000000000000000000000000000000000000000000000000000000000000000000000000000000000000000000000000000000000000000000000000000000000000000000000000000000000000000000000000000000000000000000000000000000000000000000000000000000000000000000000000000000000000000000000000000000000000000000000000000000000000000000000000000000000000000000000000000000000000000000000000000000000000000058000000000000000000000000000000000000000000000000000000000000000000000000000000000000000000000000000000000000000000000000000000000000000000000000000000000000000000000000000000000000000000000000000000000000000000000000000000000000000000000000000000000000000000000000000000000000000000000000000000000000000000000000000000000000000000000000000000000000000000000000000000000000000000000000000000000000000000000000000000000000000000000000000000000000000000000000000000000000000000000000000000000000000000000000000000000000000000000000000000000000000000000000000000000000000000000000000000000000000000000000000000000000000000000000000000000000000000000000000000000000000000000000000000000000000000000000000000000000000000000000000000000000000000000000000000000000000000000000000000000000000000000000000000000000000000000000000000000000000000000000000000000000000000000000000000000000000000000000000000000000000000000000000000000000000000000000000000000000000000000000000000000000000000000000000000000000000000000000000000000000000000000000000000000000000000000000000000000000000000000000000000000000000000000000000000000000000000000000000000000000000000000000000000000000000000000000000000000000000000000000000000000000000000000000000000000000000000000000000000000000000000000000000000000000000000000000000000000000000000000000000000000000000000000000000000000000000000000000000000000000000000000000000000000000000000000000000000000000000000000000000000000000000000000000000000000000000000000000000000000000000000000000000000000000000000000000000000000000000000000000000000000000000000000000000000000000000000000000000000000000000000000000000000000000000000000000000000000000000000000000000000000000000000000000000000000000000000000000000000000000000000000000000000000000000000000000000000000000000000000000000000000000000000000000000000000000000000000000000000000000000000000000000000000000000000000000000000000000000000000000000000000000000000000000000000000000000000000000000000000000000000000000000000000000000000000000000000000000000000000000000000000000000000000000000000000000000000000000000000000000000000000000000000000000000000000000000000000000000000000000000000000000000000000000000000000000000000000000000000000000000000000000000000000000000000000000000000000000000000000000000000000000000000000000000000000000000000000000000000000000000000000000000000000000000000000000000000000000000000000000
#004360:28
#007350:0013
#007320:0000000000000000000000000000000000333333333333332300000000000000
#009320:0013
#009360:00000000000000000033333323000000
#0093b1:00000013
#009371:00000000000000000000000000333333
#010371:23
#012351:0000000000000013
#013321:0023000000000000
#013381:0013
#0133b1:00000023
#0133b1:0000000000000013
#014381:0023000000000000
#014351:0000000000000013
#015321:0023000000000000
#015351:0000000000000013
#016321:0023000000000000
#0163b1:0000000000000013
#017381:0023000000000000
#017321:0013
#017351:00000023
#017351:0000000000000013
#018321:0023000000000000
#022321:1323000000000000
#022351:0000132300000000
#023381:1323000000000000
#023350:0013230000000000
#023381:0000132300000000
#023350:0000001300000000
#023320:0000000000230000
#0283a0:0000000014240000
#030320:0000000014240000
#0323a0:0000000014240000
#033320:0000000014240000
#0343b0:1323000000000000
#034320:0000132300000000
#0353b0:00000000000000000000001300000000
#035370:0000000000000023
#0363a0:0000000014240000
#037350:13
#037330:00330000000000000000000000000000
#037320:0023000000000000
#0373b0:00130000
#037380:0000002300000000
#038320:0000000014240000
#039380:13
#0393a0:00330000000000000000000000000000
#0393b0:0023000000000000
#039320:00130000
#039350:0000002300000000
#040320:0000000014240000
#0413a0:0000000014240000
#042320:1323000000000000
#0423b0:0000132300000000
#043340:0000000000000014
#044320:00000000000000540000000000000000
#045340:24
#043381:0000000000000014
#0443a1:00000000000000540000000000000000
#045381:24
#047361:13
#047321:0023
#047370:0013
#0483b0:23
#048361:14
#048321:0024
#048360:0014
#0493a0:24
#056320:1400340034003400340034003400340000343434343434343434343434343434
#056360:0034
#057320:24
#063320:1323000000000000
#0633b0:0000132300000000
#0653a0:0000000014240000
#067320:0000000014240000
#069320:0000000014240000
#0703a0:0000000014240000
#0713b0:13
#071380:0023000000000000
#071380:00130000
#0713b0:0000002300000000
#072320:00000000000000000000001300000000
#072360:0000000000000023
#073320:0014
#073360:0000000000240000
#074380:13
#0743a0:00330000000000000000000000000000
#0743b0:0023000000000000
#0743b0:00130000
#074380:0000002300000000
#0753a0:0014
#075360:0000000000240000
#076350:13
#076320:00332300000000000000000000000000
#076320:00000000133300000000000000000000
#076350:0000002300000000
#077320:0014
#077360:0000000000240000
#0783a0:0014
#078360:0000000000240000
#079320:13
#079350:0023000000000000
#079350:00130000
#079320:0000002300000000
#080380:0000000000000014
#0813a0:00000000000000540000000000000000
#082380:24
#080341:0000000000000014
#081321:00000000000000540000000000000000
#082341:24
#0823b1:0013
#082371:00000000000000000033333323000000
#082320:00000013
#082360:00000000000000000000000000333333
#083360:23
#0853a0:14
#087360:54
#0893a0:24
#088321:00000000000000001300330000533300
#088351:00000000000000000000003333000053
#089351:23
#0119b0:0000000000001323
