This file was generated by Ched 2.7.0.0.
#TITLE ""
#ARTIST ""
#DESIGNER ""
#DIFFICULTY 0
#PLAYLEVEL
#SONGID ""
#WAVE ""
#WAVEOFFSET 0
#JACKET ""
#REQUEST "ticks_per_beat 480"
#00002: 4
#BPM01: 140
#00008: 01
#TIL00: ""
#VOLUME: ""
#HISPEED 00
#MEASUREHS 00
#00512:14141414
#00518:14
#04616:14
#0461a:0014
#04716:14
#04712:0014
#05412:23131313
#0541b:0013001300130013
#06016:14
#06118:24141414
#06112:24
#06214:24141414
#0621a:24
#0041a:00141414
#0071a:14
#00718:0000000000003400340034003400340034343434343434342400000000000000
#00719:00343400000000000000000000000000
#00818:0013000000001300
#00812:2313
#00815:0000130000130013
#0081b:0000001300000000
#00912:0000001300000000
#0091b:2313
#00915:0013000000001300
#00918:0000130000130013
#01112:23130000
#0111b:0013001300000000
#01115:0000000023232300
#01118:00000000000000000023002300000000
#01015:0000130000130013
#01018:0013000000001300
#0101b:0000001300000000
#01012:2313
#01318:0000001300000013
#01315:00131300
#08718:14
#0851a:14
#00615:0013001300130013
#00618:23131313
#0121b:1313
#01215:0013001300000000
#01218:0000130000000013
#01212:00000013
#01210:41
#01415:0013001300000000
#0141b:00130000
#01418:0000000013000013
#01412:00000013
#01515:00130000
#01518:0000001300000000
#01512:0013
#0151b:0000000000000013
#01718:0000000000000013
#01715:00131300
#0171b:0000001300000000
#01615:00131300
#0161b:0000001300000000
#01612:00000013
#01618:0000000000130013
#01815:0013000000130000
#01818:00131300
#01812:0000001300000013
#0181b:00000013
#0201b:13
#02015:0013000000000000
#02018:0000001300130000
#02012:0000000013000013
#02118:1300000013000013
#02115:0013000000130000
#0211b:0000001300000000
#02112:0000000000000013
#0221b:0013000000000000
#02215:0013000000130000
#02212:0000001300000013
#02218:00001313
#0231b:13
#02315:0013000000000000
#02318:0000131300000000
#02312:0000001300000000
#02614:0014001400001400
#02618:0000140000140014
#02612:2424
#0261a:2424
#02716:0014001400000000
#02712:24242400
#0271a:24242400
#02812:1324
#02815:0013000000000000
#02818:0000130000240000
#0281b:0000001300000000
#02810:41
#02912:13002300000000000000003323000000
#02918:00130000000000000000000000000000
#0291b:0000132300000000
#02915:00000000001300001300000000000000
#02913:0000000000330000
#02914:00000000000000000033000000000000
#03212:1324
#03218:0013000000000000
#03215:00130000
#0321b:0000001300000000
#0321a:0000000000240000
#0331b:13
#03315:0013000000000000
#03318:00130000
#03312:0000001300240000
#0331a:0024
#0341b:0013
#03418:0000000000130013
#03415:00000013
#03515:00001300000013000013001300000000
#03518:0000230023130000
#0351b:23
#03512:23
#04512:0014
#04510:41
#0481a:14
#04912:0013000000000013
#04915:00130013
#04918:0000001300130000
#0491b:0013
#05018:13
#05015:0013000000000000
#0501b:00130000
#05012:0000001300000000
#05019:0024
#05013:00000024
#05315:23131313
#05318:0013001300130013
#05816:14
#06318:24140000
#06314:00002414
#06312:24
#0631a:0024
#06515:0013000000000000
#06518:00130000
#0651b:2300001300000000
#06512:2324
#0651a:0000000000240000
#0651f:21
#06618:00130000000013000000000000000000
#06615:00001300001300001300000000000000
#06612:23000000000000000000003323000000
#0661b:00230000
#06614:00000000000000000033000000000000
#06613:0000000000330000
#06610:41
#06912:13132400
#06915:0013000000000000
#0691b:13130000
#06918:0000001300000000
#0691a:0000000000240000
#0711b:1313
#07118:0000000000130013
#07115:00000013
#07112:00130000
#07218:00000000230000000013001300000000
#07215:0013000023130000
#0721b:2300001300000000
#07212:23
#08218:00140000
#08214:0014
#0821a:00000014
#08318:00140014
#08314:2414
#08412:14140000
#0841a:00001400000014000000000000230000
#08415:0000000023230000
#08418:00000000000000000023002300000000
#08413:0000000000002323
#01915:0013000000000000
#0191b:0013000000000000
#02412:13
#02418:0013000000000000
#02415:0000001300130000
#0241b:0000000013000013
#02515:1313
#02518:0013000000130000
#02512:0000001300000014
#0251a:0000000000000014
#0301b:13
#03018:0013000000000000
#03015:00130000
#03012:0000001300000000
#0301a:0024
#03014:0000000000240000
#0311b:13002300000000000000003323000000
#03115:00130000000000000000000000000000
#03112:0000132300000000
#03118:00000000001300001300000000000000
#0311a:0000000000330000
#03119:00000000000000000033000000000000
#03612:1324
#03615:0013000000000000
#03618:0000130000240000
#0361b:1300001300000000
#03610:41
#03718:00130000000000000000000000000000
#03715:00000000001300001300000000000000
#03712:13002300000000000000003323000000
#0371b:0000132300000000
#03713:0000000000330000
#03714:00000000000000000033000000000000
#0381b:13
#03818:0013000000000000
#03815:00130000
#03812:1300001300000000
#0381a:0024
#03814:0000000000240000
#0401b:13
#04015:0013000000000000
#04018:00130000
#04012:1300001300000000
#0401a:0024
#04014:0000000000240000
#04112:1324
#04118:0013000000240000
#04115:00130000
#0411b:1300001300000000
#04212:0013
#04215:0000000000130013
#04218:00000013
#04318:0013001300002300
#04312:2323
#04315:0000230000230000
#0431b:2300000000000023
#04418:00000000000000130000000000000000
#0511b:0013000000000013
#05118:00130013
#05115:0000001300130000
#05112:0013
#05215:13
#05218:0013000000000000
#05212:00130000
#0521b:0000001300000000
#05213:0024
#05219:00000024
#05512:14
#05618:14
#05614:14
#06718:0013000000000000
#06715:00130000
#06712:2300001300240000
#0671a:0024
#0671b:23
#0701b:13130000
#07018:0013000000000000
#07012:1300130000240000
#07015:0000001300000000
#0701a:0024
#07318:0013000000000000
#07315:00130000
#07312:2300001300240000
#0731a:0024
#0731b:23
#07718:0013000000000000
#07712:2300130000240000
#07715:0000001300000000
#0771b:23130000
#0771a:0024
#07515:0013000000000000
#07518:00130000
#0751b:2300001300000000
#07512:2324
#0751a:0000000000240000
#07812:13132400
#07815:0013000000000000
#0781b:13130000
#07818:0000001300000000
#0781a:0000000000240000
#07912:1313
#07915:0000000000130013
#07918:00000013
#0791b:00130000
#07910:41
#08018:0013000000230000
#08012:2300001300000023
#0801b:2323
#08015:00230023
#08115:00000000000000130000000000000000
#03915:00130000000000000000000000000000
#03918:00000000001300001300000000000000
#03912:0000132300000000
#0391b:13002300000000000000003323000000
#0391a:0000000000330000
#03919:00000000000000000033000000000000
#06815:00130000000013000000000000000000
#06818:00001300001300001300000000000000
#0681b:23000000000000000000003323000000
#06812:00230000
#06819:00000000000000000033000000000000
#0681a:0000000000330000
#07415:00130000000013000000000000000000
#07418:00001300001300001300000000000000
#0741b:23000000000000000000003323000000
#07412:00230000
#07419:00000000000000000033000000000000
#0741a:0000000000330000
#07618:00130000000013000000000000000000
#07615:00001300001300001300000000000000
#07612:23000000000000000000003323000000
#0761b:00230000
#07614:00000000000000000033000000000000
#07613:0000000000330000
#00017:12000012000012000000000000000000
#0571f:11
#05712:24
#0571a:24
#05912:24
#0591a:24
#06412:2400000024240000
#0641a:2400000024240000
#0891a:74
#0075a:54
#00758:00000014
#08758:24
#0855a:64
#01258:0000000000000063
#01355:0053
#01458:0000000000000063
#01552:0053
#0155b:0000000000000063
#01658:0000000000000063
#01755:0053
#01852:0000000000000063
#02358:0000005300000000
#02352:0000005300000000
#0485a:54
#06655:0053
#06652:00000013
#0715b:63
#07152:00530000
#06452:14
#0645a:14
#01955:0053000000000000
#0195b:0053000000000000
#0275a:0014
#02752:0014
#02955:0053
#02952:00000013
#03158:0063
#0315b:00000013
#0325a:0000000000140000
#03352:0000000000140000
#03755:0053
#03752:00000013
#04054:0000000000140000
#04158:0000000000140000
#04458:00000000000000230000000000000000
#05658:54
#05654:54
#05552:54
#0575a:14
#05752:14
#06552:0014
#0655a:0000000000140000
#0675a:0014
#06752:0000000000140000
#06952:0014
#0695a:0000000000140000
#0705a:0014
#07052:0000000000140000
#0735a:0014
#07352:0000000000140000
#0775a:0014
#07752:0000000000140000
#07552:0014
#0755a:0000000000140000
#07852:0014
#0785a:0000000000140000
#07952:53
#0795b:00630000
#08155:00000000000000230000000000000000
#03958:0063
#0395b:00000013
#06858:0063
#0685b:00000013
#07458:0063
#0745b:00000013
#07655:0053
#07652:00000013
#00057:22000022000022000000000000000000
#0435b:0000000000000053
#08052:0000000000000053
#000370:12000032000032000000000000000000
#000340:000000000000000000000000000000000000000000000000000000000000000000000000000000000000000000000000000000000000000000000000000000000000000000000000000000000000000000000000000000000000000000000000000000000000000000000000000000000000000000000000000000000000000000000000000000000000000000000000000000000000000000000000000000000000000000000000000000000000000000000000000000000000000000000000000000000000000000000000000000000000000000000000000000000000000000000000000000000000000000000000000000000000000000000000000000000000000000000000000000000000000000000000000000000000000000000000000000000000000000000000000000000000000000000000000000000000000000000000000000000000000000000000000000000000000000000000000000000000000000000058000000000000000000000000000000000000000000000000000000000000000000000000000000000000000000000000000000000000000000000000000000000000000000000000000000000000000000000000000000000000000000000000000000000000000000000000000000000000000000000000000000000000000000000000000000000000000000000000000000000000000000000000000000000000000000000000000000000000000000000000000000000000000000000000000000000000000000000000000000000000000000000000000000000000000000000000000000000000000000000000000000000000000000000000000000000000000000000000000000000000000000000000000000000000000000000000000000000000000000000000000000000000000000000000000000000000000000000000000000000000000000000000000000000000000000000000000000000000000000000058000000000000000000000000000000000000000000000000000000000000000000000000000000000000000000000000000000000000000000000000000000000000000000000000000000000000000000000000000000000000000000000000000000000000000000000000000000000000000000000000000000000000000000000000000000000000000000000000000000000000000000000000000000000000000000000000000000000000000000000000000000000000000000000000000000000000000000000000000000000000000000000000000000000000000000000000000000000000000000000000000000000000000000000000000000000000000000000000000000000000000000000000000000000000000000000000000000000000000000000000000000000000000000000000000000000000000000000000000000000000000000000000000000000000000000000000000000000000000000000000000000000000000000000000000000000000000000000000000000000000000000000000000000000000000000000000000000000000000000000000000000000000000000000000000000000000000000000000000000000000000000000000000000000000000000000000000000000000000000000000000000000000000000000000000000000000000000000000000000000000000000000000000000000000000000000000000000000000000000000000000000000000000000000000000000000000000000000000000000000000000000000000000000000000000000000000000000000000000000000000000000000000000000000000000000000000000000000000000000000000000000000000000000000000000000000000000000000000000000000000000000000000000000000000000000000000000000000000000000000000000000000000000000000000000000000000000000000000000000000000000000000000000000000000000000000000000000000000000000000000000000000000000000000000000000000000000000000000000000000000000000000000000000000000000000000000000000000000000000000000000000000000000000000000000000000000000000000000000000000000000000000000000000000000000000000000000000000000000000000000000000000000000000000000000000000000000000000000000000000000000000000000000000000000000000000000000000000000000000000000000000000000000000000000000000000000000000000000000000000000000000000000000000000000000000000000000000000000000000000000000000000000000000000000000000000000000000000000000000000000000000000000000000000000000000000000000000000000000000000000000000000000000000000000000000000000000000000000000000000000000000000000000000000000000000000000000000000000000000000000000000000000000000000000000000000000000000000000000000000000000000000000000000000000000000000000000000000000000000000000000000000000000000000000000000000000000000000000000000000000
#004330:2a
#0073a0:14
#007390:00343400000000000000000000000000
#007380:0000000000003400340034003400340034343434343434342400000000000000
#012380:0000000000000013
#0133b0:0023000000000000
#013350:0013
#013320:00000023
#014380:0000000000000013
#0153b0:0023000000000000
#015320:0013
#015350:00000023
#0153b0:0000000000000013
#016380:0023000000000000
#016380:0000000000000013
#0173b0:0023000000000000
#017350:0013
#017320:00000023
#018320:0000000000000013
#019350:0033000000000000
#019320:00000023
#0193b1:0013000000000000
#019381:00000023
#023381:0000001300000000
#0233b1:00000023
#023320:0000001300000000
#023350:00000023
#029350:0013
#029340:00000000000000000033000000000000
#029330:0000000000330000
#029320:00000000000000000000003323000000
#031380:0013
#031390:00000000000000000033000000000000
#0313a0:0000000000330000
#0313b0:00000000000000000000003323000000
#0343b0:1323000000000000
#034350:0000132300000000
#037350:0013
#037340:00000000000000000033000000000000
#037330:0000000000330000
#037320:00000000000000000000003323000000
#039380:0013
#039390:00000000000000000033000000000000
#0393a0:0000000000330000
#0393b0:00000000000000000000003323000000
#042320:1323000000000000
#042380:0000132300000000
#0433b0:0000000000000013
#044380:00000000000000530000000000000000
#0453b0:23
#0483a0:14
#048360:0024
#055320:14
#056340:34
#057320:24
#056381:14
#0573a1:24
#066351:0013
#066341:00000000000000000033000000000000
#066331:0000000000330000
#066321:00000000000000000000003323000000
#068381:0013
#068391:00000000000000000033000000000000
#0683a1:0000000000330000
#0683b1:00000000000000000000003323000000
#0713b1:13
#071381:0023000000000000
#071321:00130000
#071351:0000002300000000
#074381:0013
#074391:00000000000000000033000000000000
#0743a1:0000000000330000
#0743b1:00000000000000000000003323000000
#076351:0013
#076341:00000000000000000033000000000000
#076331:0000000000330000
#076321:00000000000000000000003323000000
#079321:13
#079351:0023000000000000
#0793b1:00130000
#079381:0000002300000000
#080321:0000000000000013
#081351:00000000000000530000000000000000
#082321:23
#0853a1:14
#087381:54
#0893a1:24
