This file was generated by Ched 2.7.0.0.
#TITLE ""
#ARTIST ""
#DESIGNER ""
#DIFFICULTY 0
#PLAYLEVEL
#SONGID ""
#WAVE ""
#WAVEOFFSET 0
#JACKET ""
#REQUEST "ticks_per_beat 480"
#00002: 4
#BPM01: 140
#00008: 01
#TIL00: ""
#VOLUME: ""
#HISPEED 00
#MEASUREHS 00
#05817:12
#05815:0012
#05819:0012
#00818:00130000001300130000130000130000
#00815:00001300000013000013000000001300
#0081b:23000000130000001300001300000013
#00812:00001313
#00616:0014001400140014
#0061b:0000131300001313
#00612:2313000013130000
#0121b:13001313
#01215:0013000000001313
#01217:00130000
#01219:0000001300000000
#01212:13130000
#01218:0000000000130013
#01214:0000001300000000
#01210:41
#01312:0000130013000013
#0131b:0000001300000013
#01318:1313
#01317:00130000
#01316:0000001300000000
#01315:0000000000130000
#01412:0000130000131300
#01418:0000001300000013
#01415:0000000013000013
#0141b:13130013
#01516:00130000
#01512:0000001300001300
#01515:0000000013130013
#0151b:0000130013000013
#01518:13000000000000000013000013000000
#01517:0000001300000000
#0161b:0000130000130013
#01618:1300001300001300
#01612:0000001313000000
#01615:0000130000130013
#0171b:0000131300130013
#01712:1300001313000000
#01715:0000130000000013
#01718:0013
#0201b:1300000013000013
#02012:00131313
#02018:00000000000000000000131300000000
#02016:1318000000000013
#02019:0000001200000000
#02015:0000001200000000
#02312:1400001400001300
#02318:0000140000130000
#02315:00000000000000000000001300000000
#02314:0014000000000013
#0231a:14
#0231b:00001313
#02319:0000000000000013
#02616:00001414140000000000141414000000
#02614:0000001300000013
#02619:0000001300000013
#02612:2424
#0261a:2424
#02716:0014001400000000
#02712:24242423
#0271a:24242400
#02715:00000000000000000000000000230000
#02718:0000000000000023
#0271b:00000000000000000000000000000023
#02816:00140000140000140000000000000000
#02812:1313001313240000
#0281b:00000013001300000000000000130000
#02818:0000000000000013
#02815:00000000000000000000000000000013
#0281a:0024
#02810:41
#0291a:14140000000000001400000024000000
#02916:00000000141400000000120000000000
#02918:00000000000000000012001200000000
#02912:0024002414001400
#04618:0000121212121200
#04616:00120012000000000000000000000000
#0461c:1212000000000000
#04612:00000000001200120000000000000000
#04617:00000000000000000012001200000000
#04918:0012000000000000
#04912:13131313
#04917:00001313
#0491a:0000000000120000
#04916:0000001200000012
#0491b:13130000
#05315:0000121200000000
#0531a:00140000
#05312:1212000014000000
#05319:0000000012120000
#05314:00000014
#0531c:0000000000001212
#05318:24
#05715:0012
#05719:0012
#0571f:11
#05712:24
#05716:28
#06418:0000000000001212
#06416:00000000000000000000280000120000
#06412:2400000028240000
#0641a:2424
#00418:00120000000012000000000012000000
#00414:00001200000000000000001200000000
#00416:00000000120000000012000000001200
#0041c:00000000001200001200000000000000
#0041a:00000012000000000000120000000000
#00412:12000000000000000000000000120000
#00712:13132300
#00715:0000130000001300000000001300000000333333333333330000000000001300
#00718:0000000013000000000013000000130000333333333333330000000013000000
#0071b:13132300
#03215:00130000001300000000000000130013
#03218:0013001300000013
#0321b:00000013000000130000000000000000
#03212:13132400
#0321a:0000000000240000
#03318:00130000001300000000000000000000
#03315:0013001300000000
#0331b:13130000
#03312:00000013000000130000240000000000
#0331a:0024
#03418:00001300000012000000000000000013
#03415:00000000000000130000000016001300
#0341b:13000000000000001313000000000000
#03412:13000000130000000000131300000000
#03416:0012000000000000
#03516:00140014001400140000000022002200
#03514:0000001200000000
#03515:00000000000000000013000000000000
#03518:00000000000000000000130000220022
#03512:14241300
#0351a:2412140024000000
#0351b:00000000000000000000001300000000
#05515:00120000000000000000000000000000
#05517:00001200000000000012000000000000
#05519:00000012000000000000120000000000
#05516:00000000001200000000000000000000
#05518:00000000000012000000000000120000
#0551a:00000000000000120000000000001200
#0551b:00000000000000000000001200000000
#0551c:00000000000000000000000000000012
#05512:23242526
#06118:00130000001300000000000000000000
#06115:0013130000000000
#0611b:2300001300000000
#06112:00000013000000130000240000000000
#06116:0024
#06316:00001400000014000000000000001414
#06312:2313130000001300
#0631b:2300131300001300
#06318:00000000000000000013001300000000
#06315:0000000023130000
#08215:00130000001300130000003300001300
#0821b:2300131313001300
#08218:00001300000000000033000000130000
#08212:13000013000000001300130000000013
#08318:00130013000013000013001300001300
#08312:00131313
#08315:00001300001300130000130000130013
#0831b:23001313
#08614:00000000000000000000121200001200
#0851c:0000000000120012
#08512:2c
#08718:0000000000120012
#01818:1300001313001300
#01815:0000130000130013
#0181b:00130000
#01812:00001313
#0431a:1400241200140000
#04318:0000000000001313
#04316:00140014001400140000000000000000
#04312:2400140024240000
#0431b:0013
#04314:0012000000000000
#04315:0000000000002323
#0501b:13
#05017:0013000000000000
#05012:00132400
#05016:0000001314001400
#0501a:00000024
#05212:13000024
#05216:0013000014001400
#05217:0000001300000000
#0521b:00130000
#0521a:0024
#08018:00000012000012000000140000000000
#08016:00141200001400140000000024002400
#0801a:14241400
#08012:24142400
#08014:0000000000240000
#00915:00130013000013000033000000130000
#00918:00001300001300130000003300001300
#0091b:00000000130000001300130000000013
#00912:23001313
#01015:00130000001300130000130000130000
#01018:00001300000013000013000000001300
#01012:23000000130000001300001300000013
#0101b:00001313
#01118:00130000000013000000000000000000
#01115:0000000013000000000013000000000026002600260026002666666666000000
#01112:00130000
#0111b:23000013000000130000000000000000
#02117:13
#02112:1318000013000013
#0211b:00131313
#02115:00000000000012000000131300000000
#02119:0000001200000000
#02412:1318000013000013
#0241b:00131313
#02415:00000000000012000000131300000000
#02417:1300000000000013
#02419:0000001200000000
#02516:1318000000000013
#0251b:1300000013000013
#02512:00131313
#02518:00000000000000000000131300000000
#02519:0000001200000000
#02515:0000001200000000
#05415:0000121200000000
#0541a:00140000
#05412:1212000014000000
#05419:0000000012120000
#05414:00000014
#0541c:0000000000001212
#05418:24
#08412:13132329
#0841b:13001300000013000000002300230000
#08416:0024
#08415:00330000003300000023000000002600
#08418:00000033000000330000230000000000
#04512:00120012001200000000000000000000
#04518:00001200120000120000001200001200
#04514:00000000000012000012000000000000
#04516:00000000000000000000120000120012
#0451a:0012
#04510:41
#0471c:00120012000000000000000000000000
#04716:12001200120000120000000000120000
#0471a:00000000001200000000000000000012
#04718:00000000000012000012001200001200
#04714:0000000012121200
#04818:00120000000000000000001200001200
#04815:0012000000000000
#0481b:00000012000000000000000000000000
#04819:00000000001200000000000000000000
#04816:00000000000012000012000012000000
#0481c:00000000000000120000000000000012
#04814:0000000000120000
#0481a:00000000000000000000000000120000
#04812:1212
#04813:00120000
#00018:12000012000012000000120000120000
#00118:00001200001200000000120000120000
#00218:00001200001200000000120000120000
#00318:00001200001200000000120000120000
#00516:00120000120000000000001200001200
#00514:00001200000000000000000000120000
#00518:00000012000012000012000012000000
#0051a:00000000001200000000120000000000
#00512:12
#0051c:0012
#01914:0013000000130000
#01919:0000001300000013
#01916:24242424
#0191b:2323
#01912:00230023
#02216:1300001300000000
#0221b:0013000000001300
#02217:0000130000130000
#02212:0013
#02214:0000000000000013
#02219:0000000000000013
#03016:00140000140000140000000000000000
#0301b:1313001313000000
#03012:00000013001300002400000000130000
#03015:0000000000000013
#03018:00000000000000000000000000000013
#0301a:0000000000240000
#03112:14140000000000001400000024000000
#03116:00000000141400000012001200000000
#03118:0000000000120000
#0311a:0024002414001400
#03612:13181300000013181300240000000000
#03616:00180000
#0361b:00000013001300000000000000130000
#03618:0000000000000013
#03615:00000000000000000000000000000013
#0361a:0024
#03610:41
#0371a:14001424
#03716:00180000140000000000120000000000
#03712:00002400001824001400000014000000
#03718:00000000000000000012001200000000
#03816:00180000000000180000000000000000
#0381b:1313001313000000
#03812:00000013181300002400000000130000
#03815:0000000000000013
#03818:00000000000000000000000000000013
#0381a:0000000000240000
#03912:14180000000000001400000024000000
#03916:00000000141800000012001200000000
#03918:0000000000120000
#0391a:0024002414001400
#04012:13160000131600002400000000000000
#04018:00001316000013160000000000001300
#04015:00000000000000000000000000130013
#0401a:0000000000240000
#04118:00160000001600000000000000000000
#04115:0013001300000000
#0411b:13130000
#04112:00000016000000160000240000000000
#0411a:0024
#04215:00001300000000000000000016000013
#04212:13000000000000001313000000000000
#0421b:13000000130000000000131300000000
#04218:00001200000000130000000000001300
#04216:0000001200000000
#04418:00131313
#0441b:00130000000000000000000000000000
#04412:00130000000000000000000000000000
#04415:00131313
#04413:0000000000130000
#0441a:0000000000130000
#04416:000000000000000000000000000000000000000000000000000000000000000000000000000000000000000000000000000000000000000000000000000000000000000000000000000000000000000000000000000000000000000000000000000000000000000000000000000000000000000000000000000000000000000000000000000000000000000000000013000000000000000000000000000000000000000000000000000000000000000000000000000000000000000000000000000000000000000000000000000000000000000000000000000000000000000000000000000000000000000000000000000000000000000000000000000000000000000000000000000000000000000000000000000000000000000000000000000000000000000000000000000000000000000000000000000000000000000000000000000000000000000000000013000000000000000000000000000000000000000000000000000000000000000000000000000000000000000000000000
#04417:0000001300000013
#05116:0012000013001300
#0511b:13131313
#05114:0000000000120000
#05118:0000001200000012
#05112:13130000
#05612:1400340034003400340034003400340000343434343434343434343434343434
#05612:0000000000000000000000000000000000343400000000000000000000000000
#0561a:0014
#06017:12
#06019:0012
#06015:0012
#05919:0012
#05915:0012
#05912:28
#0591a:24
#06215:00130000001300000000000000000000
#06218:0013130000000000
#06212:2300001300000000
#0621b:00000013000000130000000000000000
#06216:0024
#0621a:0000000000240000
#06516:00140000141800140000000000000000
#06512:2418001418240000
#0651a:00000014000000002400000000000000
#06518:0000000000000013
#0651b:00000000000000000000000000130000
#06515:00000000000000000000000000000013
#0651f:21
#06616:28140000001400000014120000000000
#06618:00000000000000000000001200000000
#06612:0024282414001400
#0661a:00002424
#06610:41
#06716:00141800140000141800000000000000
#0671a:2400001400240000
#06712:00000014001800002400000000130000
#06715:0000000000000013
#06718:00000000000000000000000000000013
#06816:00140000281400000014001200000000
#06818:0000000000120000
#0681a:0024002414001400
#06812:28002424
#06915:00131600001316000000000000130013
#06918:00000013000000130000000000001300
#06912:26162400
#0691a:0000000000240000
#07018:26130000161300000000000000000000
#07015:00001613000016130000000000000000
#07012:0000000000240000
#0701a:0024
#07116:00001214000000140000000014000000
#0711a:0014
#07118:00000000000012000014000000000013
#07112:1300130000140000
#07114:00000000000000000000001400000000
#07115:0000000000000013
#0711b:13130000
#07216:00140012001412000000000022002200
#07215:00000000000000000013000000000000
#07218:00001200000000120000130000000000
#07212:14241300
#0721a:24142400
#0721b:00000000000000000000001300000000
#07217:00000000000000000000000000220022
#0731a:00140000000000002400000000000000
#07312:2818141818240000
#07316:00000018001800140000000000000000
#07318:0000000000000013
#0731b:00000000000000000000000000130000
#07315:00000000000000000000000000000013
#07416:28140000001400000014120000000000
#07418:00000000000000000000001200000000
#07412:0028282814001400
#0741a:00002424
#07515:0000000000000013
#07512:00140018001800002400000000130000
#07518:00000000000000000000000000000013
#07516:28001800000018141800000000000000
#0751a:0000140000240000
#07616:00142800281428000014001200000000
#07618:0000000000120000
#0761a:00001414
#07612:28002424
#07718:26130000161300000000000000130013
#07712:00001913000019130000240000000000
#07715:0000000000000013
#0771a:0024
#07815:00131900001319000000000000000000
#0781b:00000013000000130000000000000000
#07812:26162400
#0781a:0000000000240000
#07916:00000014000012140000000014000000
#07912:13131400
#07914:00000000000000000014000000000000
#0791a:0000000000140000
#07918:00001200000000000000001400001300
#07915:00000000000000000000000000000013
#0791b:13130000
#07910:41
#08818:00000000000000000000131300001300
#08812:0013
#08815:00000013
#0881b:0013
#08912:73
#0891b:73
#01255:0000000000000053
#0125b:0013
#01358:5363
#01352:0000000000000063
#01355:0000000000630000
#01455:0000000013000053
#0145b:63
#0165b:0000630000000053
#01658:5300002300000000
#01652:0053
#01655:0000000000230000
#01752:5363
#01755:0000000000000053
#0175b:0000000000630000
#01555:0000000000000063
#01558:53
#01858:5353
#01855:00630000
#0235a:24
#02354:0024000000000000
#02358:00240000
#02352:0000002400000000
#0345b:53
#03452:00530000
#03458:0053000000000000
#03455:00000016
#02652:3434
#0265a:4444
#02752:34343400
#0275a:44444400
#06452:3400000038340000
#0645a:4444
#06456:0000000000480000
#02952:0034003400000000
#0295a:00000044
#08552:1c
#00755:00000013
#00752:0063
#0075b:0053
#00758:00000013
#00952:0053
#0095b:0000000000630000
#02056:0048000000000000
#02052:00000013
#02152:0038000000000000
#0215b:00000013
#02452:0038000000000000
#0245b:00000013
#02556:0048000000000000
#02552:00000013
#0285a:0054
#02852:0000000000140000
#03252:0054
#0325a:0000000000140000
#0335a:0064
#03352:0000000000140000
#0355a:4444
#03552:00340000
#05052:0034
#0505a:00000044
#0525a:0044
#05252:00000034
#0825b:0063
#08252:0000000000530000
#08452:53530019
#0845b:0063006300000000
#08456:0014
#04658:00000012
#00058:22000022000022000000220000220000
#00158:00002200002200000000220000220000
#00258:00002200002200000000220000220000
#00358:00002200002200000000220000220000
#00855:0013000000000000
#01058:0013000000000000
#0195b:1313
#01952:00130013
#02256:13
#02257:00130000
#02252:0013
#0225b:00000013
#03052:0064
#0305a:0000000000140000
#0315a:0044004400000000
#03152:00000034
#0365a:0054
#03652:0000000000140000
#03752:0034003400000000
#0375a:00000044
#03852:0064
#0385a:0000000000140000
#0395a:0044004400000000
#03952:00000034
#0405a:0000000000140000
#04052:0054
#04152:0000000000140000
#0415a:0064
#04255:0063000000001600
#04252:63
#0425b:00630000
#04352:34
#0435a:00440000
#04358:0000000000000053
#04355:0000000000000053
#04458:00535353
#04455:00535353
#04457:0000002300000023
#04456:000000000000000000000000000000000000000000000000000000000000000000000000000000000000000000000000000000000000000000000000000000000000000000000000000000000000000000000000000000000000000000000000000000000000000000000000000000000000000000000000000000000000000000000000000000000000000000000023000000000000000000000000000000000000000000000000000000000000000000000000000000000000000000000000000000000000000000000000000000000000000000000000000000000000000000000000000000000000000000000000000000000000000000000000000000000000000000000000000000000000000000000000000000000000000000000000000000000000000000000000000000000000000000000000000000000000000000000000000000000000000000000023000000000000000000000000000000000000000000000000000000000000000000000000000000000000000000000000
#04453:0000000000230000
#0445a:0000000000230000
#0445b:00230000000000000000000000000000
#04452:00230000000000000000000000000000
#05652:64
#0565a:0024
#05752:34
#05756:48
#0595a:44
#05952:38
#0615a:0000000000140000
#06156:0054
#06152:0000000000140000
#06256:0064
#0625a:0000000000140000
#06252:0000000000140000
#0655a:0054
#06552:0000000000140000
#06556:0000000000140000
#06652:0034003400000000
#0665a:00000044
#06752:0064
#0675a:0000000000140000
#06756:0000000000140000
#0685a:0044004400000000
#06852:00000034
#0695a:0000000000140000
#06952:0054
#06956:0000000000140000
#07052:0000000000140000
#0705a:0064
#07056:0000000000140000
#07156:00000014
#0715b:53
#07152:00530000
#0725a:4444
#07252:00340000
#0735a:0054
#07352:0000000000140000
#07356:0000000000140000
#07452:0038003800000000
#0745a:00000044
#07656:0048004800000000
#07652:00000034
#07752:0000000000140000
#0775a:0064
#07756:0000000000140000
#0785a:0000000000140000
#07852:0054
#07856:0000000000140000
#07956:00000014
#07952:63
#0795b:00630000
#08052:34
#0805a:00440000
#08056:0000000000000024
#08852:0053
#08855:00000053
#08858:0000000000000053
#07552:0064
#0755a:0000000000140000
#07556:0000000000140000
#000380:12000032000032000000320000320000
#000350:000000000000000000000000000000000000000000000000000000000000000000000000000000000000000000000000000000000000000000000000000000000000000000000000000000000000000000000000000000000000000000000000000000000000000000000000000000000000000000000000000000000000000000000000000000000000000000000000000000000000000000000000000000000000000000000000000000000000000000000000000000000000000000000000000000000000000000000000000000000000000000000000000000000000000000000000000000000000000000000000000000000000000000000000000000000000000000000000000000000000000000000000000000000000000000000000000000000000000000000000000000000000000000000000000000000000000000000000000000000000000000000000000000000000000000000000000000000000000000000058000000000000000000000000000000000000000000000000000000000000000000000000000000000000000000000000000000000000000000000000000000000000000000000000000000000000000000000000000000000000000000000000000000000000000000000000000000000000000000000000000000000000000000000000000000000000000000000000000000000000000000000000000000000000000000000000000000000000000000000000000000000000000000000000000000000000000000000000000000000000000000000000000000000000000000000000000000000000000000000000000000000000000000000000000000000000000000000000000000000000000000000000000000000000000000000000000000000000000000000000000000000000000000000000000000000000000000000000000000000000000000000000000000000000000000000000000000000000000000000058000000000000000000000000000000000000000000000000000000000000000000000000000000000000000000000000000000000000000000000000000000000000000000000000000000000000000000000000000000000000000000000000000000000000000000000000000000000000000000000000000000000000000000000000000000000000000000000000000000000000000000000000000000000000000000000000000000000000000000000000000000000000000000000000000000000000000000000000000000000000000000000000000000000000000000000000000000000000000000000000000000000000000000000000000000000000000000000000000000000000000000000000000000000000000000000000000000000000000000000000000000000000000000000000000000000000000000000000000000000000000000000000000000000000000000000000000000000000000000000000000000000000000000000000000000000000000000000000000000000000000000000000000000000000000000000000000000000000000000000000000000000000000000000000000000000000000000000000000000000000000000000000000000000000000000000000000000000000000000000058000000000000000000000000000000000000000000000000000000000000000000000000000000000000000000000000000000000000000000000000000000000000000000000000000000000000000000000000000000000000000000000000000000000000000000000000000000000000000000000000000000000000000000000000000000000000000000000000000000000000000000000000000000000000000000000000000000000000000000000000000000000000000000000000000000000000000000000000000000000000000000000000000000000000000000000000000000000000000000000000000000000000000000000000000000000000000000000000000000000000000000000000000000000000000000000000000000000000000000000000000000000000000000000000000000000000000000000000000000000000000000000000000000000000000000000000000000000000000000000058000000000000000000000000000000000000000000000000000000000000000000000000000000000000000000000000000000000000000000000000000000000000000000000000000000000000000000000000000000000000000000000000000000000000000000000000000000000000000000000000000000000000000000000000000000000000000000000000000000000000000000000000000000000000000000000000000000000000000000000000000000000000000000000000000000000000000000000000000000000000000000000000000000000000000000000000000000000000000000000000000000000000000000000000000000000000000000000000000000000000000000000000000000000000000000000000000000000000000000000000000000000000000000000000000000000000000000000000000000000000000000000000000000000000000000000000000000000000000000000000
#001350:000000000000000000000000000000000000000000000000000000000000000000000000000000000000000000000000000000000000000000000000000000000000000000000000000000000000000000000000000000000000000000000000000000000000000000000000000000000000000000000000000000000000000000000000000000000000000000000000000000000000000000000000000000000000000000000000000000000000000000000000000000000000000000000000000000000000000000000000000000000000000000000000000000000000000000000000000000000000000000000058000000000000000000000000000000000000000000000000000000000000000000000000000000000000000000000000000000000000000000000000000000000000000000000000000000000000000000000000000000000000000000000000000000000000000000000000000000000000000000000000000000000000000000000000000000000000000000000000000000000000000000000000000000000000000000000000000000000000000000000000000000000000000000000000000000000000000000000000000000000000000000000000000000000000000000000000000000000000000000000000000000000000000000000000000000000000000000000000000000000000000000000000000000000000000000000000000000000000000000000000000000000000000000000000000000000000000000000000000000000000000000000000000000000000000000000000000000000000000000000058000000000000000000000000000000000000000000000000000000000000000000000000000000000000000000000000000000000000000000000000000000000000000000000000000000000000000000000000000000000000000000000000000000000000000000000000000000000000000000000000000000000000000000000000000000000000000000000000000000000000000000000000000000000000000000000000000000000000000000000000000000000000000000000000000000000000000000000000000000000000000000000000000000000000000000000000000000000000000000000000000000000000000000000000000000000000000000000000000000000000000000000000000000000000000000000000000000000000000000000000000000000000000000000000000000000000000000000000000000000000000000000000000000000000000000000000000000000000000000000000000000000000000000000000000000000000000000000000000000000000000000000000000000000000000000000000000000000000000000000000000000000000000000000000000000000000000000000000000000000000000000000000000000000000000000000000000000000000000000000000000000000000000000000000000000000000000000000000000000000000000000000000000000000000000000000000000000000000000000000000000000000000000000000000000000000000000000000000000000000000000000000000000000000000000000000000000000000000000000000058000000000000000000000000000000000000000000000000000000000000000000000000000000000000000000000000000000000000000000000000000000000000000000000000000000000000000000000000000000000000000000000000000000000000000000000000000000000000000000000000000000000000000000000000000000000000000000000000000000000000000000000000000000000000000000000000000000000000000000000000000000000000000000000000000000000000000000000000000000000000000000000000000000000000000000000000000000000000000000000000000000000000000000000000000000000000000000000000000000000000000000000000000000000000000000000000000000000000000000000000000000000000000000000000000000000000000000000000000000000000000000000000000000000000000000000000000000000000000000000058000000000000000000000000000000000000000000000000000000000000000000000000000000000000000000000000000000000000000000000000000000000000000000000000000000000000000000000000000000000000000000000000000000000000000000000000000000000000000000000000000000000000000000000000000000000000000000000000000000000000000000000000000000000000000000000000000000000000000000000000000000000000000000000000000000000000000000000000000000000000000000000000000000000000000000000000000000000000000000000000000000000000000000000000000000000000000000000000000000000000000000000000000000000000000000000000000000000000000000000000000000000000000000000000000000000000000000000000000000000000000000000000000000000000000000000000000000000000000000000000
#001380:00003200003200000000320000320000
#002350:000000000000000000000000000000000000000000000000000000000000000000000000000000000000000000000000000000000000000000000000000000000000000000000000000000000000000000000000000000000000000000000000000000000000000000000000000000000000000000000000000000000000000000000000000000000000000000000000000000000000000000000000000000000000000000000000000000000000000000000000000000000000000000000000000000000000000000000000000000000000000000000000000000000000000000000000000000000000000000000058000000000000000000000000000000000000000000000000000000000000000000000000000000000000000000000000000000000000000000000000000000000000000000000000000000000000000000000000000000000000000000000000000000000000000000000000000000000000000000000000000000000000000000000000000000000000000000000000000000000000000000000000000000000000000000000000000000000000000000000000000000000000000000000000000000000000000000000000000000000000000000000000000000000000000000000000000000000000000000000000000000000000000000000000000000000000000000000000000000000000000000000000000000000000000000000000000000000000000000000000000000000000000000000000000000000000000000000000000000000000000000000000000000000000000000000000000000000000000000000058000000000000000000000000000000000000000000000000000000000000000000000000000000000000000000000000000000000000000000000000000000000000000000000000000000000000000000000000000000000000000000000000000000000000000000000000000000000000000000000000000000000000000000000000000000000000000000000000000000000000000000000000000000000000000000000000000000000000000000000000000000000000000000000000000000000000000000000000000000000000000000000000000000000000000000000000000000000000000000000000000000000000000000000000000000000000000000000000000000000000000000000000000000000000000000000000000000000000000000000000000000000000000000000000000000000000000000000000000000000000000000000000000000000000000000000000000000000000000000000000000000000000000000000000000000000000000000000000000000000000000000000000000000000000000000000000000000000000000000000000000000000000000000000000000000000000000000000000000000000000000000000000000000000000000000000000000000000000000000000000000000000000000000000000000000000000000000000000000000000000000000000000000000000000000000000000000000000000000000000000000000000000000000000000000000000000000000000000000000000000000000000000000000000000000000000000000000000000000000000058000000000000000000000000000000000000000000000000000000000000000000000000000000000000000000000000000000000000000000000000000000000000000000000000000000000000000000000000000000000000000000000000000000000000000000000000000000000000000000000000000000000000000000000000000000000000000000000000000000000000000000000000000000000000000000000000000000000000000000000000000000000000000000000000000000000000000000000000000000000000000000000000000000000000000000000000000000000000000000000000000000000000000000000000000000000000000000000000000000000000000000000000000000000000000000000000000000000000000000000000000000000000000000000000000000000000000000000000000000000000000000000000000000000000000000000000000000000000000000000058000000000000000000000000000000000000000000000000000000000000000000000000000000000000000000000000000000000000000000000000000000000000000000000000000000000000000000000000000000000000000000000000000000000000000000000000000000000000000000000000000000000000000000000000000000000000000000000000000000000000000000000000000000000000000000000000000000000000000000000000000000000000000000000000000000000000000000000000000000000000000000000000000000000000000000000000000000000000000000000000000000000000000000000000000000000000000000000000000000000000000000000000000000000000000000000000000000000000000000000000000000000000000000000000000000000000000000000000000000000000000000000000000000000000000000000000000000000000000000000000
#002380:00003200003200000000320000320000
#003350:000000000000000000000000000000000000000000000000000000000000000000000000000000000000000000000000000000000000000000000000000000000000000000000000000000000000000000000000000000000000000000000000000000000000000000000000000000000000000000000000000000000000000000000000000000000000000000000000000000000000000000000000000000000000000000000000000000000000000000000000000000000000000000000000000000000000000000000000000000000000000000000000000000000000000000000000000000000000000000000058000000000000000000000000000000000000000000000000000000000000000000000000000000000000000000000000000000000000000000000000000000000000000000000000000000000000000000000000000000000000000000000000000000000000000000000000000000000000000000000000000000000000000000000000000000000000000000000000000000000000000000000000000000000000000000000000000000000000000000000000000000000000000000000000000000000000000000000000000000000000000000000000000000000000000000000000000000000000000000000000000000000000000000000000000000000000000000000000000000000000000000000000000000000000000000000000000000000000000000000000000000000000000000000000000000000000000000000000000000000000000000000000000000000000000000000000000000000000000000000058000000000000000000000000000000000000000000000000000000000000000000000000000000000000000000000000000000000000000000000000000000000000000000000000000000000000000000000000000000000000000000000000000000000000000000000000000000000000000000000000000000000000000000000000000000000000000000000000000000000000000000000000000000000000000000000000000000000000000000000000000000000000000000000000000000000000000000000000000000000000000000000000000000000000000000000000000000000000000000000000000000000000000000000000000000000000000000000000000000000000000000000000000000000000000000000000000000000000000000000000000000000000000000000000000000000000000000000000000000000000000000000000000000000000000000000000000000000000000000000000000000000000000000000000000000000000000000000000000000000000000000000000000000000000000000000000000000000000000000000000000000000000000000000000000000000000000000000000000000000000000000000000000000000000000000000000000000000000000000000000000000000000000000000000000000000000000000000000000000000000000000000000000000000000000000000000000000000000000000000000000000000000000000000000000000000000000000000000000000000000000000000000000000000000000000000000000000000000000000000058000000000000000000000000000000000000000000000000000000000000000000000000000000000000000000000000000000000000000000000000000000000000000000000000000000000000000000000000000000000000000000000000000000000000000000000000000000000000000000000000000000000000000000000000000000000000000000000000000000000000000000000000000000000000000000000000000000000000000000000000000000000000000000000000000000000000000000000000000000000000000000000000000000000000000000000000000000000000000000000000000000000000000000000000000000000000000000000000000000000000000000000000000000000000000000000000000000000000000000000000000000000000000000000000000000000000000000000000000000000000000000000000000000000000000000000000000000000000000000000058000000000000000000000000000000000000000000000000000000000000000000000000000000000000000000000000000000000000000000000000000000000000000000000000000000000000000000000000000000000000000000000000000000000000000000000000000000000000000000000000000000000000000000000000000000000000000000000000000000000000000000000000000000000000000000000000000000000000000000000000000000000000000000000000000000000000000000000000000000000000000000000000000000000000000000000000000000000000000000000000000000000000000000000000000000000000000000000000000000000000000000000000000000000000000000000000000000000000000000000000000000000000000000000000000000000000000000000000000000000000000000000000000000000000000000000000000000000000000000000000
#003380:00003200003200000000320000320000
#004340:2a
#007320:0013
#007350:0000000000000000000000000000000000333333333333332300000000000000
#0073b1:0013
#007381:0000000000000000000000000000000000333333333333332300000000000000
#009321:0013
#009351:00000000000000000033230000000000
#0093b0:0000000000130000
#009380:00000000000000000000003323000000
#012320:0000000013230000
#012350:0000000000000013
#013320:5323000000000000
#013381:13
#0133b1:0023000000000000
#013381:0013
#0133b1:0000000000532300
#013350:0000000000130000
#013320:00000023
#013320:0000000000000013
#014350:5323000000000000
#0143b1:13
#014381:0023000000000000
#0143b1:0000000013230000
#014351:0000000000000013
#015321:5323000000000000
#015380:13
#0153b0:0023000000000000
#015350:0000000000000013
#016320:5323000000000000
#016381:13
#0163b1:0023000000000000
#0163b1:00132300
#016381:0000005300000000
#016320:00001323
#016350:0000000000530000
#0163b0:0000000000000013
#017380:5323000000000000
#017321:13
#017351:0023000000000000
#017321:0013
#017351:0000000000532300
#0173b0:0000000000130000
#017380:00000023
#017350:0000000000000013
#018320:5323000000000000
#018381:13
#0183b1:0023000000000000
#018351:00130000
#018321:0000002300000000
#018381:0013
#0183b1:0000000000230000
#021371:0000000000000013
#0223b1:23
#022361:0013000000000000
#022321:00230000
#0223b1:0000001300000000
#022371:0023
#022321:0000000000130000
#022361:00000023
#0233a1:14
#0233b1:0022000000000000
#023340:0014000000000000
#023350:00220000
#023381:00140000
#023391:0000002200000000
#023320:0000001400000000
#023330:0000000000220000
#0283a0:0014
#028360:0000000000240000
#030320:0014
#030360:0000000000240000
#032320:0014
#032360:0000000000240000
#0333a0:0014
#033360:0000000000240000
#0343b0:13230000
#034380:0033000000000000
#034321:00130000
#034351:0000002300000000
#0363a1:0014
#036361:0000000000240000
#038321:0014
#038361:0000000000240000
#040321:0014
#040361:0000000000240000
#0413a1:0014
#041361:0000000000240000
#042321:13230000
#042351:0033000000000000
#0423b0:00130000
#042380:0000002300000000
#043380:0000000000000013
#0443b0:00530000000000000000000000000000
#044380:00535353
#044360:000000000000000000000000000000000000000000000000000000000000000000000000000000000000000000000000000000000000000000000000000000000000000000000000000000000000000000000000000000000000000000000000000000000000000000000000000000000000000000000000000000000000000000000000000000000000000000000053000000000000000000000000000000000000000000000000000000000000000000000000000000000000000000000000000000000000000000000000000000000000000000000000000000000000000000000000000000000000000000000000000000000000000000000000000000000000000000000000000000000000000000000000000000000000000000000000000000000000000000000000000000000000000000000000000000000000000000000000000000000000000000000053000000000000000000000000000000000000000000000000000000000000000000000000000000000000000000000000
#0443a0:0000000000530000
#045380:23
#043351:0000000000000013
#044321:00530000000000000000000000000000
#044351:00535353
#044371:0000005300000053
#044331:0000000000530000
#045351:23
#050321:1323000000000000
#0503b1:0000132300000000
#0523b1:1323000000000000
#052321:0000132300000000
#056321:1400340034003400340034003400340000343434343434343434343434343434
#0563a1:0034
#057321:24
#061361:0014
#0613a1:0000000000240000
#062361:0014
#062321:0000000000240000
#0653a1:0014
#065361:0000000000240000
#067321:0014
#067361:0000000000240000
#069321:0014
#069361:0000000000240000
#0703a1:0014
#070361:0000000000240000
#0713b1:13
#071381:0022000000000000
#071321:00130000
#071361:0000002200000000
#0733a1:0014
#073361:0000000000240000
#075321:0014
#075361:0000000000240000
#0773a1:0014
#077361:0000000000240000
#078321:0014
#078361:0000000000240000
#079321:13
#079361:0022000000000000
#0793b1:00130000
#079381:0000002200000000
#080361:0000000000000014
#081321:0000002c
#0823b1:0013
#082381:00000000000000000033230000000000
#082320:0000000000130000
#082350:00000000000000000000003323000000
#084320:13
#084350:00330000000000000000000000000000
#084360:0023000000000000
#0843b1:0013000000000000
#084381:00000033000000000000000000000000
#084371:00230000
#084320:00130000
#084350:00000000003300000000000000000000
#084360:0000002300000000
#0843b1:0000001300000000
#084381:00000000000000330000000000000000
#084361:0024
#088321:0013
#088351:0000000000230000
#088351:00000013
#088321:00000000000000000000000000530000
#089321:23
#088380:0000000000000013
#0883b0:00000000000000000000000000000053
#0893b0:23
