This file was generated by Ched 2.7.0.0.
#TITLE ""
#ARTIST ""
#DESIGNER ""
#DIFFICULTY 0
#PLAYLEVEL
#SONGID ""
#WAVE ""
#WAVEOFFSET 0
#JACKET ""
#REQUEST "ticks_per_beat 480"
#00002: 4
#BPM01: 140
#00008: 01
#TIL00: ""
#VOLUME: ""
#HISPEED 00
#MEASUREHS 00
#00514:14
#00518:0014
#01118:14
#01112:00140000
#0101a:1414
#01014:00140014
#00918:1414
#00912:00140014
#02818:2414
#02814:00140014
#02810:41
#04614:14
#04718:14
#04812:14
#04816:0014
#05318:1414
#05314:00140014
#0541a:1414
#05412:00140014
#05812:14
#06012:14
#06118:24141414
#06214:24141414
#0631a:14
#06318:0014
#06314:00140000
#06312:00000014
#00012:14
#0001a:14
#00418:0014
#00614:14
#00814:00140014
#0081a:2414
#02018:14
#02114:14
#02218:14
#02314:14
#0241a:14
#02512:14
#01212:1414
#01218:00140000
#01210:41
#0131a:1414
#01314:00140000
#01412:1414
#01418:00140000
#0151a:1414
#01514:00140000
#01612:14
#01618:00140000
#01614:0014
#0171a:14
#01714:00140000
#01718:0014
#01812:14
#01818:00140000
#01814:0014
#02919:15
#02912:0015
#03018:2414
#03012:00140014
#03119:15
#03113:0015
#0321a:2414
#03214:00140014
#03318:15
#03312:0015
#03614:2414
#03618:00140014
#03610:41
#03712:15
#03719:0015
#03814:2414
#0381a:00140014
#03912:15
#03918:0015
#04012:2414
#04018:00140014
#04113:15
#04119:0015
#00214:14
#00218:14
#0491a:14
#05112:14
#05618:14
#0551a:14
#06518:0014
#06514:00140000
#06512:00000014
#0651a:24
#0651f:21
#0671a:0014
#06712:00140000
#06714:00000014
#06718:24
#06918:0014
#06914:00140000
#06912:00000014
#0691a:24
#07118:14
#07114:0014
#07218:14
#07212:0026
#07314:0014
#07318:00140000
#0731a:00000014
#07312:24
#07512:0014
#0751a:00140000
#07518:00000014
#07514:24
#07714:0014
#07718:00140000
#0771a:00000014
#07712:24
#07912:14
#0791a:0014
#07910:41
#08012:14
#0801a:0014
#08112:14
#04314:14
#0831a:1414
#08314:00140014
#08418:1414
#08412:00140014
#08718:14
#0851a:14
#0571f:11
#0571a:24
#0591a:24
#0641a:2424
#06412:0024
#01918:2424
#01914:00240024
#02612:2424
#0261a:2424
#02712:24242400
#0271a:24242400
#03512:0024
#0351a:0024
#06618:26
#06612:0026
#06610:41
#06818:26
#06812:0026
#07018:26
#07012:0026
#07412:26
#07418:0026
#07612:26
#07618:0026
#07812:26
#07818:0026
#04510:41
#00052:54
#0005a:54
#00654:54
#02058:54
#02154:64
#02258:54
#02354:64
#0245a:64
#02552:54
#02959:15
#02952:0015
#03159:15
#03153:0015
#03358:15
#03352:0015
#03752:15
#03759:0015
#03952:15
#03958:0015
#04153:15
#04159:0015
#00254:24
#00258:24
#0495a:54
#05152:64
#05658:24
#0555a:54
#07158:54
#07154:0064
#07258:54
#07952:54
#0795a:0064
#08052:54
#0805a:0064
#08152:54
#04354:64
#08758:24
#0855a:64
#0645a:14
#0575a:14
#06658:16
#06652:0016
#06858:16
#06852:0016
#07058:16
#07052:0016
#07452:16
#07458:0016
#07652:16
#07658:0016
#07852:16
#07858:0016
#0003a0:14
#002380:54
#0043a0:24
#000321:14
#002341:54
#004321:24
#006341:14
#007321:00000024
#011381:00001424
#020381:14
#0203a1:0024
#021341:14
#021321:0024
#022381:14
#0223a1:0024
#023341:14
#023321:0024
#0243a1:14
#024381:0024
#025321:14
#025341:0024
#034381:14240000
#034341:00001424
#0353a1:14240000
#042341:14240000
#042381:00001424
#043341:14
#043321:00240000
#0433a1:0000000014343434
#0453a1:24
#0493a1:14
#050381:0024
#051321:14
#052341:0024
#0553a1:14
#056381:54
#0573a1:24
#071381:14
#0713a1:00240000
#071341:0014
#071321:00000024
#072381:14
#0723a1:00240000
#079321:14
#079341:00240000
#0793a1:0014
#079381:00000024
#080321:14
#080341:00240000
#0803a1:0014
#080381:00000024
#081321:14
#082341:24
#0853a1:14
#087381:54
#0893a1:24
