This file was generated by Ched 2.7.0.0.
#TITLE ""
#ARTIST ""
#DESIGNER ""
#DIFFICULTY 0
#PLAYLEVEL
#SONGID ""
#WAVE ""
#WAVEOFFSET 0
#JACKET ""
#REQUEST "ticks_per_beat 480"
#00002: 4
#BPM01: 135
#00008: 01
#TIL00: ""
#VOLUME: ""
#HISPEED 00
#MEASUREHS 00
#00814:0014
#00918:0014
#01712:0014
#01812:0014
#01818:14
#0471a:0014
#04812:0014
#04918:0014
#05014:0014
#08312:0014
#08418:0014
#01118:0014
#01110:0041
#01218:0014
#01314:0014
#01414:0014
#0151a:0014
#0161a:0014
#01614:14
#0551a:0014
#0561a:14
#05612:0014
#05712:14
#05718:0014
#05814:14
#07212:0016
#07218:26
#07318:16
#01012:0014
#02812:0016
#02810:41
#02918:16
#03018:0016
#03112:16
#03212:0016
#03312:16
#03318:0016
#03418:16
#03618:0016
#03712:16
#03718:0016
#03812:16
#04012:0016
#04010:0041
#04112:16
#04218:0016
#04318:16
#05914:0014
#06018:14
#07512:16
#07510:41
#07418:0016
#0741f:0021
#07612:0016
#07718:16
#07712:0016
#07812:16
#07818:0026
#06118:0016
#06212:16
#06218:0016
#06210:41
#06312:16
#0631a:0014
#0641f:0011
#08514:0024
#07014:0024
#07018:24
#08012:0026
#08018:26
#0821a:0024
#02718:0026
#04412:0026
#06914:0024
#0691a:24
#06812:0024
#07912:26
#07918:0026
#07114:34
#0201a:3434
#02418:3434
#02614:3434
#02212:3434
#05110:0041
#001380:14
#002380:24
#003320:14
#004320:24
#0053a0:14
#0063a0:34
#0073a0:00342400
#0193a0:0014
#0203a0:3434
#021380:24
#021320:0014
#022320:3434
#023340:24
#023380:0014
#024380:3434
#0253a0:24
#025340:0014
#026340:3434
#027320:24
#027380:0016
#028380:26
#029320:0016
#030320:26
#031380:0016
#032380:26
#034320:0016
#035320:0026
#038380:0016
#039360:3636
#040380:26
#041320:0016
#042320:26
#043380:0016
#044380:26
#044320:0000000016000036
#045320:0036003600363600
#046320:26
#0513a0:0014
#052380:0024
#053320:0014
#054340:0024
#0583a0:0014
#0593a0:24
#060320:0014
#061320:24
#064340:0014
#065320:0024
#066380:0014
#0673a0:0024
#070340:0014
#071340:34
#071320:0026
#073320:0016
#074320:26
#075380:0016
#076380:26
#080320:0000000016000036
#081320:0036003600363600
#082320:26
#085340:00001434
#086340:3400002400000000
