This file was generated by Ched 2.7.0.0.
#TITLE ""
#ARTIST ""
#DESIGNER ""
#DIFFICULTY 0
#PLAYLEVEL
#SONGID ""
#WAVE ""
#WAVEOFFSET 0
#JACKET ""
#REQUEST "ticks_per_beat 480"
#00002: 4
#BPM01: 135
#00008: 01
#TIL00: ""
#VOLUME: ""
#HISPEED 00
#MEASUREHS 00
#0641f:0011
#06418:0012001200000012
#06416:00121200
#06412:12
#0641c:22
#01512:16000000000000001353535353000000
#01516:0000000000140014
#0151b:00000000000000000000000013535353
#01518:00160000
#03116:14000024000014001300000000000000
#0311b:0013
#0311a:00000014000000000000000000000000
#03112:2400002400001300
#03119:0000000000000013
#0341b:1300001313000000
#03412:0000230000000014
#03416:13000000000000130000000000000014
#03417:00230000
#03612:00001313
#03615:0013000000000000
#03618:0000130000000013
#0361b:0000001300000000
#04412:0000000014000024
#04416:0000000000000014
#0441a:00002414
#0441b:13
#04415:00230000
#05512:00220014
#05516:00001424
#05518:22
#0551a:0024
#05616:1400002414002400
#05614:0013000000000000
#05612:00000000001300002400000000000000
#0561a:24000014
#05618:00000024000000000000000000000000
#06314:00000000000000000000000000140000
#06315:0000230000130000
#06312:13
#06318:13000000000000002200002300002400
#0631b:00230000
#06518:1200000000000012
#06514:0000001200000000
#06512:00120000
#0651a:00000000000000000000001200000000
#06516:0012
#07412:12
#07415:0000130000000013
#07418:00000000130000000000001300000000
#0741f:0021
#0741c:22
#0071b:0000000013131300
#00716:00000000000000000000001300000000
#00712:0000240013000013
#00717:00000000000000000000000000000013
#0071a:00240000
#00812:1300000013000013
#00817:00130000000000000000000000000000
#00815:00000013000000000000130013000000
#0081b:00000000000000001300001300000000
#00818:00000000000000000000000000130013
#00912:00000013000000001300130013000000
#00917:00000000000000000000001300000000
#0091b:00000023000000001300000000001300
#00916:00000000000000000000000000000013
#00915:13
#0101b:13
#01016:00130000000000000000000000000000
#01018:00000013000000002600000000000000
#01012:00000026
#0111b:0013
#01112:0000002413000000
#01115:00000013
#01116:00000024000000000000000000000000
#0111a:24
#01118:0000000000230023
#01110:0041
#0701a:0014
#07012:2414
#07016:00240014
#07017:13
#0701b:00130000
#07515:00000013000000000000000013000000
#07518:0000001300000013
#07516:0000000000140000
#0751a:2414
#07512:1424
#07510:41
#07618:00130000
#07617:0013
#07616:0014000000000024
#07612:1400002424000000
#0761a:24
#0771b:13
#07717:0013
#07712:0000002424000000
#07716:2400000000000024
#06616:0000000000000012
#06612:0012
#06614:00000000000000000000001200000000
#06618:0012
#06718:0000001212000000
#06718:0000001200000000
#06716:1200000000000012
#0671a:00000012000000000000000000000000
#02715:000032003200000000000000000000000000000000320000130000000000000000000000000000000000000000000000
#02712:00120013
#0271b:00130013
#02719:0013001300000000
#02716:12
#02718:0023
#02714:0032003200000000
#02713:00000032003200000000000000000000
#0261c:00000012
#02618:00261200
#02612:00260000000000000000000013000000
#02615:0000001300000000
#02614:0000000000130013
#02619:00000000000000000032000000000032
#0261a:0000000000320032
#0261b:00000000000000000000003200320000
#0171b:0000130000000013
#01712:1313
#01715:00001353535353000000000000000000
#01716:00000013
#01718:53535300000013535300000000000000
#0181b:1313
#01818:0000001300000000
#01815:00131300
#01812:0000000000000013
#01817:00000013
#02216:00130000
#02212:13000013
#0221b:0013
#0211b:0013
#02117:00000013
#02112:0022220000000000
#02118:0022220000000000
#02315:13
#02318:13
#02316:0000001200000000
#02314:0000000000000012
#0231a:0000000000000012
#03014:0000000000140000
#03012:00001400000000000000000000140000
#0301a:00000014000000002400000000000000
#03018:00000000000000000000002400000000
#03016:0000240000000024
#03219:00000000000013000000003300000000
#0321b:1313
#03212:0000130000000013
#03214:00000000000000000000001300000000
#03317:1313
#03312:1313
#03314:00000000000013000000003300000000
#03319:00000000000000000000001300000000
#0331b:0000230000000013
#03316:00230000
#04912:0000000013130000
#04918:00000000000000000013001300000000
#04915:00000013000000000000000013000000
#0491b:13000000000000000000000000130000
#04916:0000001400000000
#05016:0013000000001300
#05014:00000000001300000000130000001300
#05012:0013
#05019:00000023000000000013000000130000
#0501b:23000000000000000000001300000000
#05017:00000000000023000000000000000013
#0471b:0000000013130000
#04715:00000000000000000013001300000000
#04718:00000013
#04712:00000000000000000000000000130000
#04817:0013000000001300
#04819:00000000001300000000130000001300
#0481b:0013
#04814:00000013000000000013000000130000
#04812:13000000000000000000001300000000
#04816:00000000000013000000000000000013
#0581b:13000013000000001300000000000000
#05812:00130000000000000000001300000000
#05818:00130000000000000000000000001300
#05815:13000013000000000000000000000000
#05817:0000000000000000000000000000000000000013000000000000000000000000
#05816:0000000000000000000000000000000000000000000000000013000000000000
#00117:13
#00112:13
#00118:0013
#00212:13
#01212:1313
#01218:0000130000230023
#0121b:1313
#01215:00002300000023000000001300000000
#0131b:0013
#01315:1300000000230023
#01312:00131300
#01318:00002300000023000000001300000000
#01418:1300000000230023
#0141b:00131300
#01412:0013
#01415:00002300000023000000001300000000
#01612:13535353530000001300000000000000
#0161b:53000000135353535300000013000000
#01616:0014001400000000
#01615:00000000000000000000135353535300
#01618:00000000000000000000000000001353
#02414:1200220000000012
#0241a:1200000000000012
#02418:0022001200000000
#0251a:12220000
#02514:12
#02516:0022001200000000
#02518:0000000026000026
#02512:00000000000000000000002600000000
#03916:14000024000014000000000000000000
#03912:00000014000000001300000000000000
#03917:0013
#0391b:00000013
#03914:0000000000000013
#0391a:2400002400000000
#03818:0000000000140000
#0381a:00000000000000000000000000140000
#0381b:13130000
#03812:0024
#03814:00000000000000000000002400000000
#03816:0000000000000024
#04215:0000001300001300
#04218:00000000230000000000001300001300
#04212:1313
#0421b:0013
#04516:0014001400141400
#0451a:0024000000240000
#04512:0000002400002400
#0531c:00120000
#05312:0022
#0511c:0012
#05112:13
#05118:00000013000000000000000000000000
#05116:0000002400000000
#05110:0041
#05212:12
#05218:0012
#05716:1400002400000000
#05719:0013000000000000
#0571b:00000000001300000000000000000000
#05714:0000000000002400000000000000000022000015000000000000000000000000
#0571a:00000000000000000000000000120000
#0571c:00000000000000002200002200000000
#05712:24
#08012:13002414
#0801a:0000000014000024
#08016:2400000000000014
#0801b:00130000
#08212:1400000023131300
#08217:00000000000000000000001300000000
#0821b:0000000023000013
#08216:14140000000000000000000000000013
#0821a:00143434000000000000000000000000
#08215:00003434000000000000000000000000
#0831b:1300000023000013
#08316:00130000000000000000000000000000
#08318:00000013000000000000130013000000
#08312:00000000000000002300001300000000
#08315:00000000000000000000000000130013
#0841b:0000000023131300
#08416:00000000000000000000001300000000
#08412:0000000023000013
#08417:00000000000000000000000000000013
#08418:1314002500000000
#08413:00000000001500000000000000000000
#08414:00000014000000000000000000000000
#08512:13002424
#08517:00130000000000000000000000000000
#08515:00000013000000000000000000000000
#08516:0000000000140014
#0851a:0024
#00513:12
#0051b:0012
#00613:12
#00618:0012
#00616:0012
#00417:00120000
#00416:24
#03512:14000000000000000000000000140000
#0351a:0000001424000000
#03514:0000000000140000
#03516:00000000000000140000000000002400
#03518:00000000000000000000002400000000
#03715:13130000
#03718:00001313
#0371b:0000001300000000
#03712:0013
#03714:00000000000000000000001300000000
#03716:0000000000000013
#04315:00000013000013000000000013000000
#0431b:13
#04318:00000000130000000000001300001300
#04312:0013
#05912:13000013000000000000000013001300
#05915:0013000023230000
#05918:13000013000000000000000023002300
#0591b:0013000013130000
#0861a:1400001400000000
#0861a:14
#08618:00000014000000000000000000000000
#08614:00000024000000000000000000000000
#08612:0000002400000000
#0191b:13
#01912:23
#0281a:00000000000000000000001400000000
#02816:0000000000142400
#02810:41
#02912:00000014000000000000000000002400
#02916:0014240024000014
#0291a:0014
#02918:00000000000000000000001400000000
#02914:00000000000000000000002400000000
#04018:0000001300000000
#04012:1313
#0401b:00130000
#04015:00000000000000000000001300001300
#04010:0041
#04118:00000013000013000000000000000000
#04115:00000000000000000000001300001300
#08116:0014001400141400
#08112:0024000000240000
#0811a:0000002400002400
#0601b:13000000130000000000000000230000
#06012:0013001300230000
#06015:2300230023002323
#06018:00002300000023000023002300000023
#0711a:1424
#07112:0000140000000014
#07114:00000000000054000000001400000000
#07118:00005400000000000000002400000000
#07116:0000540054000024
#07117:00000054000000000000000000000000
#07119:00540000000000000000000000000000
#07115:00000000000000540000000000000000
#07113:00000000005400000000000000000000
#07214:14
#07216:0014000000241400
#07218:24000000000000000000006400000000
#0721a:00000064
#07317:0012
#07316:0024140000000000
#07312:00640000
#07314:00000064000000000000000000000000
#0781b:13
#07816:2400000013000024
#07812:00130000
#0781a:0000002424000000
#07912:13
#07916:2400000013000024
#0791a:0000002424000000
#0461a:14
#04616:14140000000000000000000000000000
#04612:00143434000000000000000000000000
#04617:00003434000000000000000000000000
#06212:13
#06216:00130000
#06217:13
#0621a:0013001300000000
#0621b:00130000
#06210:41
#06112:23000000000000000000001300000000
#06117:00000000000000000013001300130000
#0611b:00130000
#06114:0000003300000000
#06812:0013
#06816:00002413
#0681a:00000024
#06912:1324
#06916:24130024
#06917:0013
#0691b:00000013
#0691a:00240000
#0201c:0022220000000000
#02016:0022220000000000
#0541c:22
#05416:0022
#0031b:23
#00315:0023
#0315b:0063
#03152:00000053
#03652:00001313
#06456:0052
#06558:52
#06556:0062
#07452:5235
#07455:00230000
#07458:00230000
#0745c:52
#07459:0045
#00857:00630000000000000000000000000000
#00855:00000063000000000000000000000000
#01056:00530000000000000000000000000000
#01058:00000053000000004600000000000000
#01052:00000036
#0705a:0014
#07052:3454
#07056:00340024
#02755:0053
#02752:00220023
#0275b:00000023
#02756:62
#02758:0053
#0265c:00000022
#02658:0052
#01752:0063
#01756:00000023
#01758:0013
#02256:00530000
#02252:23000023
#0225b:0023
#0215b:0023
#02157:00000053
#02152:00120000
#02158:00120000
#02355:53
#02358:53
#0325b:6363
#03252:00530000
#03357:63
#03352:6353
#0335b:00130000
#03356:00130000
#04956:0000001400000000
#0495b:53
#04955:00000053000000000000000000000000
#0585b:63000053000000006300000000000000
#05852:00630000000000000000006300000000
#05858:00630000000000000000000000000000
#05855:63000053000000000000000000000000
#05857:0000000000000000000000000000000000000023000000000000000000000000
#05856:0000000000000000000000000000000000000000000000000023000000000000
#07556:0000000000240000
#0755a:1464
#07552:0014
#00955:5300001300000000
#00952:00000063000000000000000000000000
#0095b:00000053000000000000000000000000
#00958:0000001300000000
#00152:53
#00158:0053
#00252:53
#0185b:0053
#01857:00000023
#04852:13
#04854:00000013000000000000000000000000
#04856:0000001300000000
#0535c:00120000
#05352:0052
#05356:00120000
#0515c:0052
#05152:63
#05158:00000063000000000000000000000000
#05156:0000001400000000
#05252:52
#05258:0052
#06658:0052
#06756:62
#06758:0052
#08052:63
#0805b:00130000
#08056:44
#08356:00530000000000000000000000000000
#08358:00000053000000000000000000000000
#08557:00630000000000000000000000000000
#08555:00000063000000000000000000000000
#08556:0000000000240024
#08552:00003454
#0855a:00005444
#00553:52
#0055b:0062
#00653:52
#00658:0062
#00656:0052
#00457:00220000
#00456:6414
#01552:16
#01558:00160000
#0345b:5363
#03456:53
#03452:00130000
#03457:00130000
#03552:54
#03556:0000000000000014
#03755:13130000
#03758:00001313
#0385b:13130000
#04252:6353
#04255:00000023
#0425b:1313
#04258:00130000
#0445b:53
#04455:00130000
#04452:13
#0435b:6313
#04358:00230000
#04352:1353
#04355:00000023
#05754:0000000000000000000000000000000052000025000000000000000000000000
#0575a:00000000000000000000000000220000
#0575c:00000000000000000000005200000000
#05952:53000063000000000000000000000000
#05955:0053000000000000
#05958:53000063000000000000000000000000
#0595b:0053000000000000
#08458:1300001500000000
#08454:00000014000000000000000000000000
#08658:00000044000000000000000000000000
#0865a:4400004400000000
#08654:00000034000000000000000000000000
#08652:3400003400000000
#01255:00000000000000000000002300000000
#01358:00000000000000000000002300000000
#01455:00000000000000000000002300000000
#0195b:53
#01952:53
#0195c:00000012
#01956:00000012
#03952:0053
#0395b:00000063
#04052:5313
#07656:0024000000000000
#07652:5434
#0765a:14
#0785b:53
#07852:00130000
#0785a:0044
#07856:34
#08252:54160000
#08256:54240000000000000000000000000000
#0825a:00240000000000000000000000000000
#08258:00160000
#08156:00000054
#0815a:00000054
#0465a:64
#04656:64240000000000000000000000000000
#04652:00240000160000000000000000000000
#04658:00160000
#04556:00000064
#04552:00000064
#06252:53
#06256:00230000
#06352:53
#06358:53
#06355:00130000
#0635b:00130000
#07256:00000014
#0725a:00000014
#07356:00140000
#07352:00140000
#01156:00000014000000000000000000000000
#01152:0000001400000000
#0115a:14
#0205c:00120000
#02056:00120000
#02052:00000012
#02058:00000012
#02454:00120000
#0255a:00120000
#0505b:13
#05059:00000013000000000000000000000000
#05057:0000001300000000
#0545c:52
#05456:0052
#05552:00120000
#05558:00120000
#07956:44
#0795a:0044
#0035b:63
#00355:0063
#00752:00140000
#0075a:00140000
#02856:00000034
#02858:16
#02852:16
#02956:00440000
#03056:00140000
#06152:13
#07752:0034
#07756:34
#06856:0044
#0685a:00000044
#06956:44000034
#0695a:00440000
#06952:0034
#04152:0013
#0415b:13
#001320:13
#001350:0023
#001381:0013
#0023b1:23
#002320:13
#003360:23
#0033b1:13
#003381:0023
#003350:0013
#004320:23
#004361:1424
#004371:00520000
#005331:12
#005361:0022
#0053b0:0012
#006380:22
#006331:12
#006361:0032
#007321:00240000
#006380:0012
#0073a0:00240000
#008370:00130000000000000000000000000000
#0083b0:0000002300000000
#008351:00000013000000000000000000000000
#008321:0000002300000000
#009351:1300002300000000
#009321:00000033000000000000000000000000
#0093b0:00000013000000000000000000000000
#009380:0000002300000000
#010360:00130000000000000000000000000000
#010320:0000002300000000
#010381:00000013000000000000000000000000
#0103b1:0000002300000000
#012351:00000000000000000000001300000000
#012321:0000000000000023
#013381:00000000000000000000001300000000
#0133b1:0000000000000023
#014351:00000000000000000000001300000000
#014321:0000000000000023
#017321:0013
#017361:00000033
#018321:23
#0183b1:0013
#018371:00000033
#0193b1:33
#019381:00530000230000000000000000000000
#019320:13
#019350:00530000230000000000000000000000
#019380:0012
#0193c0:00000022
#019321:0012
#019361:00000022
#020361:0012
#020321:00000022
#0203c0:0012
#020380:00000022
#0213b0:0013
#021370:00000033
#0223b0:23
#022321:1323
#022361:00330000
#0223b0:0013
#022380:00000023
#022321:00000013
#023351:33
#023321:00230000
#023380:13
#0233b0:00230000
#023380:00001222
#024360:00001222
#026380:0012
#026390:00000000000000000032000000000032
#0263a0:0000000000320032
#0263b0:00000000000000000000003200320000
#0263c0:00000032
#027380:23
#027361:12
#027351:000032003200000000000000000000000000000000320000330000000000000000000000000000000000000000000000
#027341:0032003200000000
#027331:00000032003200000000000000000000
#027321:00320053
#028321:26
#027380:0013
#0273b0:00000053
#028380:26
#0283a0:0000000014240000
#029320:1424000000000000
#030360:14
#0303a0:0024000000000000
#0313b0:0013
#031370:00000023
#031321:00000013
#032361:23
#0323b0:13
#032370:00230000
#032321:00130000
#032361:0023
#0323b0:0013
#032390:00000000000000000000003300000000
#032370:0000000000000033
#033370:33
#0333b0:00230000
#033321:13
#033361:00230000
#033321:0013
#033341:00000000000000000000003300000000
#033361:0000000000000033
#034361:33
#034321:00230000
#0343b0:13
#034370:00230000
#0343b0:0013
#0343c0:0000000000000022
#035320:1400002200000000
#036380:00001323
#0373b0:13230000
#038360:13230000
#039320:0013
#039360:00000023
#0393b1:00000013
#040371:23
#040320:13
#040360:00230000
#0403b0:0013
#0413b0:23
#041321:1323
#0413b0:0013
#0423b0:23
#042321:13
#042351:00230000
#042321:0013
#042351:00000053
#043321:23
#0433b0:1323
#043380:00530000
#043321:0013
#043351:00000053
#044321:23
#0443b0:13
#044380:00230000
#045320:00000014
#045360:00000000000000000000000000540000
#046360:34
#046320:00543434260000000000000000000000
#045361:00000014
#0453a1:00000000000000000000000000540000
#0463a1:34
#046361:00540000000000000000000000000000
#046371:00003434000000000000000000000000
#046381:00260000
#047381:0000000000000013
#048381:23
#0493b1:13
#049381:00530023000000000000000000000000
#049350:00000013000000000000000000000000
#049320:0000532300000000
#049350:0000000000000013
#050350:23
#051320:13
#051350:00530023000000000000000000000000
#051381:00000013000000000000000000000000
#0513b1:0000532300000000
#0513c1:0012
#052381:22
#052320:12
#052360:0022
#052381:0012
#0533c1:22
#053360:12220000
#053320:0012
#054360:22
#0543c1:12
#054381:0022
#054360:0012
#055320:22
#055381:12220000
#057341:0000000000000000000000000000000012000055000000000000000000000000
#057371:00000000000000000000003200002200
#0573c0:00000000000000000000001200000000
#0573a0:00000000000000000000000000520000
#057390:0000000000000022
#0583b0:13000033000000000000000000000000
#058380:00330000000023000000000000000000
#058351:13000033000000000000000000000000
#058321:00330000000023000000000000000000
#0583b1:00000000000000001300002300000000
#058371:0000000000000000000000000000000000000053000000000000000000000000
#058320:00000000000000000000001300002300
#058360:0000000000000000000000000000000000000000000000000053000000000000
#059320:13000033000000000000000000000000
#059350:0033002300000000
#059381:13000033000000000000000000000000
#0593b1:0033002300000000
#061361:00130000
#061341:0000003300000000
#061321:0023
#061321:00000000000000000000000000130000
#062321:3323
#062361:00530000
#062370:0013
#0623b0:00000000000000000000002300000000
#062361:00000000000000000000001300000000
#062321:0000000000000023
#0623b0:0000000000000013
#063380:33
#0633b0:00230000
#063321:13
#063351:00230000
#064361:0012
#065321:22
#065380:12
#0653c0:0022
#065361:0012
#066321:32220000
#066380:12220000
#066380:0012
#0673c0:22
#067361:12
#067321:0022
#067380:0012
#0683c0:32220000
#068361:12220000
#070321:0014
#070361:00000054
#071321:24
#0723a1:0014240000000000
#072340:0000142400000000
#072381:0000001424000000
#072320:0000000014240000
#0733a0:1424000000000000
#074320:1225
#074350:00530000
#0743c1:12
#074381:00530000
#074391:0025
#0753a1:00001424
#075361:0000000000540000
#076321:14240000
#076361:0054000000000000
#0763b1:00000000000000000000001300002300
#077371:00000013000023000000000000000000
#0773b1:00000000000000000000001300002300
#0783b1:13
#078371:00230000
#078361:00000000000000000000001300000000
#078321:0000000000000023
#079321:00000013000000000000000000000000
#079361:0000002300000000
#079361:00000000000000000000001300000000
#079321:0000000000000023
#080321:13
#080361:00230000
#0813a1:00000014
#081361:00000000000000000000000000540000
#082361:34
#0823a1:00543434000000000000000000000000
#082381:00260000
#081360:00000014
#081320:00000000000000000000000000540000
#082320:34260000
#082360:00540000000000000000000000000000
#082350:00003434000000000000000000000000
#083360:00130000000000000000000000000000
#083320:0000002300000000
#083381:00000013000000000000000000000000
#0833b1:0000002300000000
#085371:00130000000000000000000000000000
#0853b1:0000002300000000
#085350:00000013000000000000000000000000
#085320:0000002300000000
#0853a0:00001424
#085360:0000000000540000
#085321:00000014
#085361:0000000000000054
#086321:24
#015920:00001323
#0159b1:00000013
#0169b1:23
#016920:13230000
#0169b1:00132300
#016951:0000000000130023
#016980:0000000000000013
#017980:0023000000000000
#017951:0013002300000000
#017980:0000001323000000
#0719a0:14
#071960:00240000
#071921:00140000
#071961:0024
#072961:0000000000140000
#0729a1:00000024
#073961:0014000000000000
#073921:00240000
