This file was generated by Ched 2.7.0.0.
#TITLE ""
#ARTIST ""
#DESIGNER ""
#DIFFICULTY 0
#PLAYLEVEL
#SONGID ""
#WAVE ""
#WAVEOFFSET 0
#JACKET ""
#REQUEST "ticks_per_beat 480"
#00002: 4
#BPM01: 135
#00008: 01
#TIL00: ""
#VOLUME: ""
#HISPEED 00
#MEASUREHS 00
#0641f:0011
#06418:0012001200000000
#06416:00121200
#06413:0000000000000032
#01512:1313
#01518:0000000000130000
#0151b:0000130000000013
#01515:00000013
#04412:0000000014000024
#0441a:0000000024000014
#04418:13
#0441b:00230000
#05515:00000013
#0551b:0013
#00718:0000000000130013
#00715:00000013
#0071b:0013
#00712:00260000
#00915:0000000000130013
#00918:00000013
#00912:0013
#0111b:0013
#01118:00000013
#01115:2300000000130000
#01112:0000000000000013
#01110:0041
#04912:0000001400000000
#0491a:14
#04916:00000014000000000000000000000000
#04918:00000000000000001300003333330000
#04915:00000000000000000013000000000000
#00812:00000033000000000000000000001300
#00815:1300000000130000
#0081b:0013
#00818:00000013
#00813:00330000000000000000000000000000
#0011b:13
#00212:13
#01215:0013000000000000
#0121b:00131300
#01218:13000000000000000000003300000000
#01212:0000001300000000
#0141b:00131300
#01415:0000001300000000
#01418:13000000000000000000003300000000
#01419:0000000000330000
#01615:13000000000000000000003300000000
#01618:0013000000000000
#01612:00131300
#0161b:0000001300000000
#0451a:0024001400241400
#04512:0014002400142400
#04812:1414
#04816:00000014000000000000000000000000
#0481a:0000001400000000
#04815:00000000000000000000003400000000
#04814:0000000000340000
#04813:00000000000000000034000000000000
#05618:00000013
#05612:0013
#05619:2500002500000000
#05615:00000025000000000000000000000000
#00512:14
#00516:0014
#0061a:14
#01315:13000000000000000000003300000000
#01312:00131300
#01318:0000001300000000
#01718:1300001300000000
#01715:00131300
#01712:00000000000000000000001300000000
#01018:13
#0101b:00000033000000000000000023000000
#01012:0023
#0101a:00330000000000000000000000000000
#01815:0000001300000000
#01818:00131300
#0181b:13000000000000000000001300000000
#02215:0013
#02218:0013
#02214:13
#02219:13
#02616:0000140014340034
#0261a:0000001400000000
#02613:00000014
#02717:00140000
#0271a:1434003414000000
#02718:00000014
#02714:00000014
#02712:0024
#0301a:14
#03012:0024
#03016:00240000
#03014:00000000000000000000003400003400
#03014:0000000000000034
#03115:14
#0311a:0014
#0311b:00000013
#03116:00000013
#03112:00000034000000000000000000000000
#0361b:0013000000001300
#03615:0000000013000013
#03612:00130000
#03618:0000001300000000
#03712:00000000130000000000001300000000
#03718:1300001300000000
#03715:0013
#03917:14000013
#03912:00001413
#0391a:00000034000000000000000000000000
#01912:13
#0231b:0013
#02315:0013
#03218:00000013
#0321b:0013
#03219:13000000000000000000003300003300
#03214:13
#03217:00130000
#03212:00130000
#03312:0013
#03315:00000013
#0331b:13
#03318:00230000
#03314:00000000000000000000003300003300
#04215:13
#0421b:0013
#04212:00230000
#04218:00000000000000000000003300000000
#04012:0013
#04014:13
#04019:13
#04016:00130000
#0401b:00130000
#04015:00000000000000000000003300000000
#04010:0041
#04112:00000033000000001300000000000000
#04115:13000000000000000000003300000000
#04318:13000000000000000000003300000000
#0431b:00000033000000001300000000000000
#07318:0012
#07312:00240000
#0801a:2400000014000024
#08012:0000000024000014
#08112:0024001400241400
#0811a:0014002400142400
#07818:0000001400000000
#07812:0024
#07512:0014
#07514:00000014
#07518:26
#07510:41
#07616:14
#07618:00140000
#04614:14
#04618:14
#08214:14
#08218:14000013
#08215:0000000000130013
#0821b:0023
#08212:0023
#0211b:0013
#02112:00231300
#02118:0023000000000000
#03412:13
#0341b:00000000000000000000001300000000
#03418:0013
#03415:00230000
#03512:00000013000000000000000000002300
#03515:13000000000000000000002300000000
#03518:0023
#0351b:0000000000000023
#03815:13
#0381a:0024
#03818:00000000000000000000003400003400
#03818:0000000000000034
#05015:00000000000000001300003300000000
#05018:00000000000000000013000000000000
#05012:24
#05016:00000024000000000000000000000000
#0501a:0000002400000000
#05014:00000033
#05013:00000000000000000000000000333333
#05218:0012
#05416:0012
#0581b:13
#05812:0013
#05815:00000000000000000000003313003300
#05818:00330033000000000000000000000000
#05718:00000000000000000000003313003300
#0571b:0013
#05712:2500002500000000
#05716:00000025000000000000000000000000
#05912:13000023
#0591b:0023
#05915:00003333000000000000000000002300
#05918:0000000000230000
#06312:13
#06318:13
#06512:1200000000000032
#06516:0012
#06514:00000000320000000000003200000000
#06515:0000003200000000
#06618:0012
#0661b:0000000000000032
#0661a:00000000000000000000003200000000
#0671c:1200000000000032
#06718:0012
#06719:0000003200000000
#0671a:00000032000000000000000000000000
#0681a:0014
#06817:00000014
#06812:00002424
#0691a:14002424
#06917:00140000
#06912:24241400
#06915:00000014
#07012:1414
#07015:00140000
#0701a:24240000
#08418:0000000000130013
#08415:23000013
#0841b:0023
#08412:0023
#0831b:00000033000000002300000000001300
#08318:1300000000130000
#08315:00000013
#08312:0023
#0831a:00330000000000000000000000000000
#08515:13
#08514:00000024
#08518:0024
#08513:00330000000000000000000000000000
#08512:00000033000000000000000000000000
#08612:14000014000014000000000000000000
#0861a:24000024000024000000000000000000
#07116:14
#07112:00140000
#07115:00340000000000340000000000000000
#07114:0034003400000000
#07113:00000034003400000000000000000000
#02412:0013
#02418:0013
#02415:0023000000000000
#0241b:00230000
#0471a:0014
#04719:00000000000000000034000000000000
#04718:0000000000340000
#04717:00000000000000000000003400000000
#06118:00000000130000000013001300000000
#06115:0000001300000000
#06112:6313
#0741f:0021
#07416:22
#0251a:0024
#02518:0023000000000000
#02512:00230000
#05316:0022
#0721a:00000024
#0031b:23
#00312:0023
#0041a:24
#0601b:23
#06018:0023002300000000
#06015:00000000230000000000006300630000
#06013:00000000000000000063000000000063
#06014:0000000000630063
#06016:00000063
#06012:0063
#0281a:00000024
#02810:41
#02912:0000240000000024
#0291a:0024
#02916:00000000000000000000002400000000
#07914:0024
#07918:24
#02015:0023000000000000
#0201b:00230000
#05112:0000002400000000
#0511a:24
#05116:00000024000000000000000000000000
#05110:0041
#06212:0033330000000000
#06210:41
#04952:0000001400000000
#0015b:53
#00252:53
#0485a:0000001400000000
#04852:0054
#0155b:00130000
#01552:13
#00855:63
#0125b:0053
#01058:53
#0105b:00000013
#01052:0013
#01652:0063
#01352:0063
#0145b:0063
#01858:0063
#0185b:00000000000000000000002300000000
#02255:0053
#02258:0053
#02757:00240000
#0275a:6454
#02758:00000024
#02754:00000024
#02752:0054
#0305a:54
#03052:0054
#03056:00140000
#03155:54
#0365b:00000013
#03752:00000000130000000000002300000000
#03755:0063
#03957:64
#01755:0063
#01752:00000000000000000000002300000000
#0235b:0053
#02355:0053
#03258:00000023
#0325b:0063
#03352:0053
#03355:00000023
#0335b:53
#03358:00130000
#04255:53
#0425b:0063
#04252:00130000
#04052:0053
#04152:0053
#04155:53
#04358:63
#0435b:0063
#04458:63
#0445b:00130000
#08152:00000054
#0815a:00000054
#0455a:00000064
#04552:00000064
#04654:24
#04658:24
#0465a:00140000
#04652:00140000
#08254:24
#08258:24
#08252:00140000
#0825a:00140000
#03452:53
#0345b:00000000000000000000002300000000
#03458:0053
#03455:00130000
#03552:00000023000000000000000000001300
#03555:63
#0355b:0000000000000013
#03855:63
#0385a:0064
#03852:00130000
#05258:0052
#05456:0062
#0585b:63
#05852:0053
#05855:00000023
#05758:00000023
#0575b:0063
#05952:53
#06352:53
#06358:53
#06355:0013
#0635b:0013
#06456:0052
#06552:52
#06556:0062
#06658:0062
#0675c:62
#06758:0052
#08358:53
#08555:63
#08554:00000014
#08558:0014
#08652:0000003400000000
#0865a:0000004400000000
#07052:0054
#07156:54
#07152:00240000
#02452:0063
#02458:0063
#0475a:0054
#02656:0054
#02653:00000024
#0725a:00000014
#07256:14
#07352:00140000
#00752:00160000
#0285a:14000014
#02852:14
#02952:00140000
#07456:52
#07452:0016
#05152:0000001400000000
#07558:16
#0505a:0000001400000000
#06152:13
#00958:0000001300000000
#0045a:0014
#01155:0000001300000000
#07852:00140000
#0805a:00140000
#08455:0000001300000000
#0013b0:13
#001380:0023
#002320:13
#002350:0023
#0043a0:1424
#006330:0014
#007320:00260000
#008350:13
#008330:00330000000000000000000000000000
#008320:00000033000023000000000000000000
#009380:13000033000023000000000000000000
#010380:13
#0103a0:00330000000000000000000000000000
#0103b0:00000033000023000000000000000000
#011350:13000033000023000000000000000000
#0123b0:0013
#012380:00000000000000000000003353002300
#013320:0013
#013350:00000000000000000000003353002300
#0143b0:0013
#014390:0000000000330000
#014380:00000000000000000000003300002300
#016320:0013
#016350:00000000000000000000003300002300
#017350:0000000013000023
#017320:00000000000000000000005300000000
#018380:0000000013000023
#0183b0:00000000000000000000005300000000
#019380:0013
#020380:23
#019321:0013
#020321:23
#020351:0013
#021351:23
#0203b0:0013
#0213b0:23
#022350:0013
#023320:23
#022381:0013
#0233b1:23
#0233b1:0013
#024381:23
#023350:0013
#024320:23
#024320:0013
#025350:23
#024381:0013
#0253b1:23
#0253a1:0000000014000034
#025381:00000000000000000000003400000000
#026381:00340000000000000000000000000000
#0263a1:00240000
#026361:0000000014340034
#026331:00000034
#027361:24
#0273a0:1434003434000000
#027370:00340000
#027380:00000054
#0283a0:24
#027321:0014
#027341:00000054
#028321:24
#0283a1:00001424
#029321:14240000
#0303a1:14
#030361:00240000
#030321:0014
#030341:00000000000000000000003400003400
#031351:34
#031321:00000034000024000000000000000000
#0323b1:0013
#032391:00000000000000000000003300003300
#032381:00000053
#0333b1:33
#033381:00230000
#033321:0013
#033341:00000000000000000000003300003300
#033351:00000053
#034321:33
#034351:00230000
#034381:0000000013000023
#0343b1:00000000000000000000005300000000
#035351:1300002300000000
#035321:00000053000000000000000000000000
#037351:0000000013000033
#037321:00000000000000000000003300000000
#038351:33
#038321:00230000
#0383a1:0014
#038381:00000000000000000000003400003400
#039371:34
#0393a1:00000034000024000000000000000000
#040321:0013
#040351:00000000000000000000003300003300
#041351:33000000000000000000003300003300
#041321:00000033000033003300000000000000
#042351:33
#042321:00230000
#0423b1:0013
#042381:00000000000000000000003300003300
#043381:33000000000000000000003300003300
#0433b1:00000033000033003300000000000000
#044381:33
#0443b1:00230000
#0453a1:00000014
#046381:34
#0463a1:00240000
#045320:00000014
#046340:34
#046320:00240000
#0473a0:0014
#047390:00000000000000000034000000000000
#047380:0000000000340000
#047370:00000000000000000000003400000000
#047360:00000000000000000000000034343400
#048360:24
#048320:0014
#048330:00000000000000000034000000000000
#048340:0000000000340000
#048350:00000000000000000000003400000000
#048360:00000000000000000000000034343434
#049360:24
#049380:00000000000000000000133333330000
#0493b0:0000000000000023
#050350:00000000000000000000133300000000
#050340:00000033
#050330:00000000000000000000000000333333
#051320:23
#051380:0012
#0523b0:32
#052380:0032
#0533c0:22
#053360:0012
#054330:32
#054360:0032
#055320:22
#0573b0:0013
#057380:00000000000000000000003353003300
#0583b0:33
#058380:00330033000023000000000000000000
#058320:0013
#058350:00000000000000000000003353003300
#059320:33
#059350:00003333000023000000000000000000
#061320:00000000000000000000000000130000
#062320:3333330000000000
#062350:0000002300000000
#0623b0:0013
#062380:00000000000000000000002300000000
#062351:0013
#062321:00000000000000000000002300000000
#062321:0000000000000013
#063321:33
#063351:0023
#062380:0000000000000013
#063380:33
#0633b0:0023
#064360:0012
#064330:0000000000000032
#065320:3200000000000032
#065340:00000000320000000000003200000000
#065350:0000003200000000
#065360:0032
#066320:22
#066380:0012
#0663a0:00000000000000000000003200000000
#0663b0:0000000000000032
#0673c0:3200000000000032
#0673a0:00000032000000000000000000000000
#067390:0000003200000000
#067380:0032
#0683c0:22
#070320:0014
#071360:34000000000000003400003400003400
#071350:00340000000000340000000000000000
#071340:0034003400000000
#071330:00000034003400000000000000000000
#071320:00340000
#072360:24
#0723a0:00001424
#073320:14240000
#074360:12
#074320:0026
#0763a0:0014
#0773a0:24
#077341:1424
#077380:0014
#078380:24
#078321:14240000
#078321:0014
#079321:24
#079380:1424
#079341:0014
#080341:24
#0803a0:14240000
#081320:00000014
#082340:34
#082320:00240000
#0813a1:00000014
#082381:34
#0823a1:00240000
#083381:13
#0833a1:00330000000000000000000000000000
#0833b1:00000033000023000000000000000000
#084351:13000033000023000000000000000000
#085351:13
#085331:00330000000000000000000000000000
#085321:00000033000023000000000000000000
#060920:0013
#060960:00000053
#061920:23
