This file was generated by Ched 2.7.0.0.
#TITLE ""
#ARTIST ""
#DESIGNER ""
#DIFFICULTY 0
#PLAYLEVEL
#SONGID ""
#WAVE ""
#WAVEOFFSET 0
#JACKET ""
#REQUEST "ticks_per_beat 480"
#00002: 4
#BPM01: 135
#00008: 01
#TIL00: ""
#VOLUME: ""
#HISPEED 00
#MEASUREHS 00
#0641f:0011
#06414:00140000
#08017:14
#08012:0024
#07815:14
#0781a:0024
#07819:00000000000000000000003400000000
#08514:00140000
#0851a:14
#08518:0026
#08412:00140000
#08414:00000014
#0841a:0014
#08418:14
#08314:00140000
#08312:00000014
#08318:0014
#0831a:14
#08214:34000014
#0821a:0014
#03418:0016
#03412:14
#0071a:0014
#00714:00240000
#0051a:14
#00512:0014
#00618:14
#0011a:14
#00119:00140014
#00118:0014
#0021a:14
#00219:00140000
#00312:14
#00313:00140014
#00314:0014
#00412:14
#00413:00140000
#0081a:14
#00812:0014
#00912:14
#0091a:0014
#0101a:14
#01014:0024
#01518:14
#01514:00140000
#0151a:0014
#01516:00000014
#02918:16
#02912:0016
#02914:00000016
#03018:0016
#03112:16
#03118:0016
#03116:00000016
#03212:0014
#03216:00000014
#0331a:1414
#03316:00000014
#03512:16
#03518:0000000000000026
#03612:0016
#03618:00000016
#03712:16000000000000005600005600005600
#03718:00160000
#03912:0000003414000000
#03913:00000034000000000000000000000000
#0401a:0014
#04010:0041
#04116:14
#04112:0014
#0421a:14
#04212:0014
#04316:14
#0431a:0014
#04412:14
#0441a:0024
#0521a:14
#05212:0014
#0531a:0014
#05412:14
#0541a:0014
#05614:0014
#0561a:00000014
#05612:14
#05618:00140000
#07218:0016
#07212:26
#07312:16
#07319:0014
#02412:0014
#02418:00240000
#0231a:0014
#02312:14
#04712:0014
#04718:00000014
#04814:00000014
#0481a:0014
#04812:54000054000054000000000000000000
#05512:0014
#05518:00000014
#0121a:14
#01212:0014
#01213:00000000000000000000003400000000
#01214:0000000000000034
#01414:0014
#0131a:0014
#01319:00000000000000000000003400000000
#01318:0000000000000034
#01612:14
#0161a:0014
#01616:00140014
#01712:14
#01716:00140000
#0171a:0014
#01718:0000000000000034
#01812:0014
#01814:0000000000000034
#0211a:0014
#02112:00240000
#02214:14
#02218:0014
#02014:0014
#0201a:00240000
#01918:0014
#02812:0016
#02814:28
#02810:41
#0251a:0014
#02514:00240000
#02519:00000000000000000000003400003400
#02617:1400343400000000
#0261a:0014
#02616:00000034
#02618:00340000000000000000000000000000
#04912:0014
#04918:00000014
#0491a:54000054000054000000000000000000
#05014:0000005400001400
#0501a:0014
#05012:54
#05013:00000054000000000000000000000000
#05112:0014
#05110:0041
#0511a:54
#05119:00000054000000000000000000000000
#05118:0000005400000000
#05714:14
#0571a:00140000
#07413:14
#0741f:0021
#07412:0026
#03818:00160000
#03813:00000000000000000000003400000000
#03814:0000000000000034
#03812:56
#06112:0014
#06118:00000014
#06212:14140000
#06214:0000000000000034
#06213:00000000000000000000003400000000
#06210:41
#0681a:0024
#06812:00000024
#0691a:24
#06918:0024
#06914:00000024
#06912:00240000
#07018:24
#07014:00240000
#05914:0024
#05918:00000024
#06012:24
#06014:0024
#0601a:00240000
#07118:0026
#07119:00343434343434340000000000000000
#07512:0026
#07518:26
#07510:41
#07618:26
#07613:00000000000000000000003400000000
#07713:00000034000000000000003400000000
#07919:00000034000000000000003400000000
#04618:34
#02716:34
#01110:0041
#0805a:00140000
#08057:54
#07852:00140000
#07855:64
#08655:0000001600000000
#01154:0014
#03052:16
#03258:16
#04055:14
#06154:14
#04656:00180000
#08252:00180000
#00754:00140000
#02854:18
#07158:0016
#03558:0000000000000016
#07452:0016
#07453:24
#07552:0016
#07558:16
#07658:16
#0015a:24
#00159:00540054
#00158:0024
#0025a:24
#00259:00540000
#00352:24
#00353:00640064
#00354:0024
#00452:24
#00453:00640000
#01558:14
#01554:00140000
#02952:0056
#02954:00000026
#03158:0066
#03156:00000026
#03952:0064
#05252:0064
#0545a:0064
#02452:0064
#0235a:0064
#01252:0064
#0135a:0064
#0175a:0054
#01852:0054
#02054:0054
#01958:0054
#0255a:0054
#02657:24
#0265a:0054
#0013a0:14
#001390:00540054
#001380:0034
#0023a0:34
#002390:00540000
#002380:0024
#003320:14
#003330:00540054
#003340:0034
#004320:34
#004330:00540000
#004340:0024
#006340:0014
#007340:00240000
#010340:00001434
#011340:34000034000034002400000000000000
#012320:0014
#012330:00000000000000000000003400000000
#012340:0000000000000034
#013340:24
#0133a0:0014
#013390:00000000000000000000003400000000
#013380:0000000000000034
#014380:24
#0173a0:0014
#017380:0000000000000034
#018380:24
#018320:0014
#018340:0000000000000034
#019340:24
#019380:0014
#0203a0:24
#020340:0014
#021320:24
#0233a0:0014
#024380:24
#024320:0014
#025340:24
#0253a0:0014
#025390:00000000000000000000003400003400
#026370:5400343400000000
#026380:00340000000000000000000000000000
#0263a0:0034
#026360:00000034
#027360:34343400
#028340:28
#029320:0016
#029340:00000056
#030320:26
#031380:0016
#031360:00000056
#032380:26
#035380:00000000000000001600003600002600
#038320:0014
#038330:00000000000000000000003400000000
#038340:0000000000000034
#039340:34
#039330:00000034000000000000000000000000
#039320:0000003434000000
#039350:0000000000000034
#040350:24
#0443a0:0014
#044380:0000000000000034
#0453a0:0034000000000000
#045380:0000003400343400
#046380:34
#046360:00280000
#052320:0014
#053340:24
#0543a0:0014
#055380:24
#057320:0014
#057340:00000034
#058320:34
#058340:00240000
#0583a0:0014
#058380:00000034
#0593a0:34
#059380:00240000
#060340:0000000014343434
#061340:24
#062320:0014
#062330:00000000000000000000003400000000
#062340:0000000000000034
#063340:24
#063380:0014
#064380:24
#0643a0:0014
#065370:3434
#0663a0:24
#066320:0014
#067350:3434
#068320:24
#070390:0014
#071390:34343434343434340000000000000000
#071380:0026
#074330:14
#074320:0026
#076320:0014
#076330:00000000000000000000003400000000
#076350:0000000000000034
#077350:3400000000000034
#077330:00000034000000000000003400000000
#077320:0000003434000000
#078350:34
#078320:00240000
#0783a0:0014
#078390:00000000000000000000003400000000
#078370:0000000000000034
#079370:3400000000000034
#079390:00000034000000000000003400000000
#0793a0:0000003434000000
#080370:34
#0803a0:00240000
#080320:0014
#080340:0000000000000034
#081320:0034000000000000
#081340:0000003400343400
#082340:34
#082320:00280000
#085380:0016
#085350:00000036
#086380:36
#086350:00000036000026000000000000000000
#037920:0016
#038920:26
#048920:1400002400000000
#0499a0:1400002400000000
#050920:14
#050940:0000002400000000
#0519a0:14
#051980:0000002400000000
