This file was generated by Ched 2.7.0.0.
#TITLE ""
#ARTIST ""
#DESIGNER ""
#DIFFICULTY 0
#PLAYLEVEL
#SONGID ""
#WAVE ""
#WAVEOFFSET 0
#JACKET ""
#REQUEST "ticks_per_beat 480"
#00002: 4
#BPM01: 140
#00008: 01
#TIL00: ""
#VOLUME: ""
#HISPEED 00
#MEASUREHS 00
#0091a:14
#00910:41
#0101a:14
#01112:14
#01212:14
#01318:14
#01414:14
#01518:14
#01614:14
#0171a:14
#01812:14
#0191a:14
#02012:14
#02118:14
#02110:41
#02218:14
#02314:14
#02414:14
#0251a:14
#0261a:14
#02712:14
#03818:2616
#03810:41
#03912:16
#03918:0016
#04012:2616
#04118:16
#04112:0016
#04218:1616
#04312:16
#04318:0016
#04612:2616
#04718:16
#04712:0016
#04818:2616
#04912:16
#04918:0016
#05012:1616
#05010:41
#05118:16
#05112:0016
#05418:14
#05514:14
#05618:14
#05614:0014
#05812:14
#0581f:11
#0591a:14
#06014:14
#06118:14
#06214:14
#06614:0014
#06712:0016
#06718:26
#0671f:21
#06918:0016
#06912:26
#07118:16
#07112:0016
#07218:16
#07212:0016
#07518:14
#07514:0014
#0761a:14
#07612:0014
#08012:14
#0811a:14
#08214:14
#06810:41
#03010:41
#0013a0:14
#0023a0:24
#003320:14
#004320:24
#005380:14
#006380:24
#007340:14
#008340:24
#028320:14
#029320:24
#030380:14
#0313a0:34
#032380:34
#0333a0:24
#034340:14
#035320:34
#036340:34
#037320:24
#044320:1626
#045380:1626
#052380:1626
#053320:1626
#057380:1424
#063380:14
#063390:0034
#0643a0:34
#064390:0034
#065380:34
#066380:24
#068380:1626
#070320:1626
#073380:1626
#074320:1626
#0773a0:1434
#0783a0:3434
#0793a0:0024
#083380:14003424
