This file was generated by Ched 2.7.0.0.
#TITLE ""
#ARTIST ""
#DESIGNER ""
#DIFFICULTY 0
#PLAYLEVEL
#SONGID ""
#WAVE ""
#WAVEOFFSET 0
#JACKET ""
#REQUEST "ticks_per_beat 480"
#00002: 4
#BPM01: 140
#00008: 01
#TIL00: ""
#VOLUME: ""
#HISPEED 00
#MEASUREHS 00
#0581f:11
#05817:1212
#05916:00000012
#05918:1200000000120012
#05912:0000121200000000
#06018:0012000000120000
#06016:12000012
#06012:0012
#0601c:0000000000000012
#06118:0012
#06116:00120000
#06114:00000012
#0611a:0000000000000012
#06516:00000000343434143434340000000000
#0651a:14
#06512:0000000000000014
#06517:00000034000000000000003400000000
#06518:0034000000003400
#06519:00340000000000000000000000340000
#0791a:00000014
#07915:00000000000000130000000000000000
#07918:000000000000000000000000000000000000000000000000130000000000000000000000005400000000000000000000
#07912:0000000000130000
#07916:000000000000000000000000000000000000000000000000000000000000000000000000000000545454545454545454
#07917:000000000000000000000000000000000000005400000000
#0641b:00000013
#06412:00130000
#0631b:00000013
#06312:00130000
#06712:1600260000000014
#06718:26160000
#0671a:0000000014000014
#06714:00000014
#06717:0000000000140000
#0671f:21
#06214:0000000000130000
#06219:0000000000130000
#0621b:00000023
#06212:00000023
#02512:13
#0251b:1313
#02518:00130013
#07416:1400001424002400
#0741a:14000014
#07412:0014
#07316:13
#0731a:14
#07317:0013
#07312:0014
#07216:0014000014000014
#07212:00141414
#0721a:0014001400140000
#08018:0000000000000013
#08012:13
#0801b:00130000
#08016:64
#04518:00001313
#04515:00001313
#04513:0000001300000000
#0451a:0000001300000000
#06816:0014140014140014
#06812:0014000000001400
#0681a:0000001414000000
#06810:41
#0701a:0014000000001400
#07016:00000000140000000014000000000000
#07012:0000001400000000
#04916:00000000000000000013000000000000
#04912:0000001300000000
#04915:0000130000000013
#0491b:00000013
#04918:0013001300000000
#04812:0000130000000013
#0481b:1313
#04815:00000013
#04818:0000000000130000
#04817:00230000
#04816:23
#04717:00001300000000000000001300000000
#0471b:0000001313000000
#04716:00000000001300000000000000000000
#04712:0013000000001300
#04714:0000000000000013
#04112:00000000000000000013000000000000
#04117:00000000000000000013000000000000
#04116:0000001300000000
#0411b:0000001300000000
#04115:0013000000000000
#04118:00130000
#0401b:0000130000000013
#04012:1313
#04018:00000013
#04015:0000000000130000
#04016:00230000
#04017:23
#03916:00001300000000000000001300000000
#03912:0000001313000000
#03917:00000000001300000000000000000000
#0391b:0013000000001300
#03919:0000000000000013
#0441b:1313
#04416:1313
#01018:0000000013000013
#0101b:0013000000001300
#01015:0000001313000000
#01115:1313
#01118:00130013
#01112:00130013
#0111b:13
#0291b:0000000013000013
#02912:0000001300000000
#02918:00130013
#02915:1300000000130000
#03817:13
#03816:00130000
#03818:00000013
#03815:0000000000130000
#0381b:00231300
#03812:2300000000000013
#03810:41
#04617:00130000
#04616:13
#04615:00000013
#04618:0000000000130000
#04612:00231300
#0461b:2300000000000013
#08318:0000001313000000
#08315:13
#0831b:00000023
#08312:00000023
#0821b:0000001300000013
#08218:00130013
#08212:0013000000130000
#08215:1313
#08118:0000001300000013
#08115:00000013
#0551b:0000000000000013
#05518:0000001300130000
#05512:0013000000000000
#0541b:2300000000000013
#05015:00130013
#0501b:00231300
#05012:2300000000000013
#05018:1300000000130000
#05010:41
#05212:1313
#05217:1313
#05312:0000001313000000
#0531b:0000001313000000
#05116:0000001313000000
#05112:0013000000000000
#05117:0013000000001313
#0751b:00130000
#07512:1313
#07518:00000013
#07517:13
#07515:0000000000130000
#0761b:0000001300000000
#07615:0013000000001300
#07618:0000130000130000
#07612:0000000000000013
#07116:0014001400140014
#0711a:2424
#07112:00240024
#04317:0000001313000000
#0431b:0013000000000000
#04316:0013000000001313
#02818:00130013
#02818:00000013
#02815:0013
#02812:00000013
#0281b:23
#02718:00130013
#0271b:1313
#02712:0013
#0261b:1313
#02618:00130013
#02615:1300000000000013
#02612:00130000
#02415:0000130000000013
#02418:00000013
#0241b:0000000000130000
#02412:1313
#0231b:00001313
#02315:00130013
#02312:1313
#02218:1300000000000013
#02212:1313
#02215:00130013
#0221b:00130000
#01619:0000000000120000
#01617:00000012
#01615:0000000000000012
#01916:00000012
#01918:0012
#01816:00120000
#01814:0000000000000012
#01518:00000012
#01516:0012
#01418:00120000
#0141a:0000000000000012
#01218:0013
#0121b:13
#01215:0000001300120000
#01217:00000012
#01219:0000000000000012
#0361b:0000000000000013
#03618:0013
#03615:0000001300000000
#03115:00000000001300130000000000000000
#03112:00130013000000000000000013001300
#03117:00000000000000000000000000000013
#0311b:0000232300000000
#03118:2323000000000000
#0301b:00130013000000000000130000001300
#03018:00000000001300130000000000000000
#03015:23002300000000000000000000000013
#03012:0000232300000000
#03010:41
#0421b:0013000000002300
#04218:0000001323000000
#04215:0000230000130000
#04212:2300000000000013
#06912:2600160014000014
#06918:16260014
#0691a:0000000000000014
#06915:0000000000140000
#02112:1313
#02115:00130013
#0211b:23
#02110:41
#02015:0000000000120000
#02017:00000012
#02019:0000000000000012
#00912:2300000000000013
#00918:13
#00915:00130000
#00910:41
#00816:12
#00812:0012
#0081c:0000001212000000
#00716:0012
#0071a:00000012
#00714:12
#00718:00120000
#00618:0000001212000012
#00616:0012000000001200
#00216:0000001212000012
#00218:0012000000001200
#00512:12120000
#00518:0012001200120000
#00516:0000000012000012
#0051a:00000012
#0031a:1200120000000012
#00314:12121200
#00318:00000012
#00316:0000000000120000
#00116:1200120000120012
#00114:0012
#00118:00000012
#0011c:12120000
#03718:00002616
#03712:2223242516002600
#0371b:0023000000000000
#0371a:00240000
#03719:0000002500000000
#0371c:22
#03518:00000013000023000000130000000013
#03515:00000000230000000000001300001300
#0351b:0023000000001300
#0351b:00000013
#03512:2313
#0341b:2313
#03418:00000000230000000000001300001300
#03415:00000013000023000000130000000000
#03412:0023000000001300
#03316:00000000000000000013000000000013
#0331b:0000000013000013
#03317:00000013
#03312:13000000000000000000001300000000
#03212:1300000000000013
#0321b:0000001313000000
#00416:0000120000120000
#0041a:00000012
#00418:0000001200000000
#00414:0012000000000000
#06615:26
#06612:00000026
#06618:00000026
#07818:0000002626000000
#07812:26
#07718:0000000000000022
#07716:00000022
#0771a:2424
#07712:00240000
#06652:00001c16
#06658:00000016
#07356:63140014
#07352:00135400
#0735b:00000013
#0735a:64
#07357:0053
#04457:00130013
#04452:00130013
#0445b:6363
#04456:6363
#08055:00130000
#08056:14
#08058:0000000000000053
#08052:53
#0805b:00630000
#05452:00130000
#0545b:1300000000000063
#05256:00130013
#0525b:00130013
#05252:5353
#05257:5353
#05358:00000013
#05355:00000013
#05352:0053
#0535b:0063
#0415b:0000006300004300
#04156:0000006300004300
#04152:00000000000000000023000000000000
#04157:00000000000000000023000000000000
#07052:0000005400003400
#0705a:00000044
#07056:00000000000000000024000000000000
#01255:13
#01258:0013
#0125b:63
#0115b:6313
#01155:1363
#01158:00530000
#01152:00000053
#0095b:00130000
#00952:1300000000000053
#00958:53
#00955:00630000
#00858:00000012
#00856:62000012
#00852:0052
#0085c:0062
#06758:46
#06752:0000360000000014
#0675a:0000000000000014
#04857:00130000
#04856:13
#04852:0000530000000013
#0485b:63
#04056:00130000
#04057:13
#0405b:0000630000000013
#04052:53
#0285b:13
#02858:00000053
#0835b:00000013
#08352:00000013
#08358:0053
#08355:63
#04652:00130000
#0465b:1300000000000013
#04657:00530000
#04656:63
#07852:56
#07858:0066
#0775a:6464
#07752:00540000
#06958:00460000
#06952:3600000000000014
#0695a:0000000000000014
#0385b:00130000
#03852:1300000000000013
#03857:53
#03856:00630000
#05952:0000005200000000
#05958:52
#06058:0052000000000000
#0605c:0000000000000062
#06158:0052
#06156:00620000
#0615a:0000000000000012
#05857:5262
#06556:00000000000000240000000000000000
#0655a:64
#07456:64
#07452:0014
#0745a:00000014
#0725a:0000000000240000
#07256:0064000054000000
#07252:00240000
#04555:00000013
#04558:0013
#06856:0000240000240000
#0685a:0064
#06852:0054000000000000
#04956:00000000000000000023000000000000
#04952:0000005300000000
#04757:00000000000000000000002300000000
#0475b:0063
#04756:00000000002300000000000000000000
#04752:0053000000000000
#03956:00000000000000000000002300000000
#03952:0053
#03957:00000000002300000000000000000000
#0395b:0063000000000000
#0825b:0000002300000023
#08258:00530053
#08252:0023000000230000
#08255:6363
#05552:0053000000000000
#05156:0063
#05157:0053000000000000
#05055:00130000
#05058:13
#0755b:00630000
#07552:53
#04357:0053
#04356:0063000000000000
#02955:63
#01055:0063
#0105b:0063000000000000
#00756:0062
#0075a:00000062
#00754:52
#00758:00520000
#00658:0052
#00656:0062000000000000
#03758:00000016
#03752:0016
#0355b:00000013
#03452:00000013
#03352:53
#0325b:0063
#03252:53
#0045a:00000012
#00256:0062
#00258:0052000000000000
#002380:0012000000000000
#0023a0:0000002200000000
#002360:0012
#002340:00000022
#006360:0012000000000000
#006340:0000002200000000
#006380:0012
#0063a0:00000022
#007340:12
#007360:00220000
#007381:00120000
#0073a1:0022
#007360:0012
#007340:00000022
#0073a1:00000012
#008381:22
#008360:12000022
#008320:0000003232000000
#0083c1:0012
#008381:00000022
#009381:13
#0093b1:00230000
#009350:00130000
#009320:0023
#0093b1:0000000013230000
#009350:0000000000132300
#009381:0000000000001323
#009320:0000000000000013
#010350:0023000000000000
#0103b1:0013000000000000
#010381:0000002300000000
#010351:0013
#010321:00000023
#0113b1:1323
#011381:00330000
#011350:0013
#011320:00000033
#012350:23
#0123b1:13
#012381:0000002300000000
#0133c1:00122200
#013320:00001222
#0133a1:00000012
#0143a1:22
#014340:12220000
#014360:0000001200000000
#014320:00000022
#015340:12220000
#0153a1:00122200
#015361:0000000000000012
#016321:00220000
#017321:00122200
#0173c0:00001222
#017341:00000012
#018341:22
#0183a0:12220000
#018380:0000001200000000
#0183c0:00000022
#0193a0:12220000
#019341:00122200
#019381:0000000000000012
#0203c1:00220000
#0213b1:00130023
#021381:0033
#0223b1:0000001300000000
#022381:00000023
#023381:13
#0233b1:00230000
#023381:0000000000000013
#0243b1:00230000
#025321:00130023
#025351:0033
#026321:0000001300000000
#026351:00000023
#027351:13
#027321:00230000
#027321:0000000000130000
#027351:0000000000000033
#028321:00230000
#028381:00000013
#0293b1:23
#029350:13
#029320:00230000
#030320:0013
#030340:00000000000000000033000000000000
#030360:0000000000230000
#0313b0:0013
#0313a0:00000000000000000033000000000000
#031390:0000000000330000
#031380:00000000000000000000003300000000
#031370:00000023
#032320:13
#032360:0023
#0323b1:0013
#033371:23
#033320:13
#033360:0023
#036320:13000023000000000000000000000000
#0363b1:00000013000023000000000000000000
#036351:0013
#036321:0000000000000023
#038371:13
#0383b1:00230000
#038360:00130000
#038320:0023
#0393b0:0013000023000000
#039370:00000000005300000000000000000000
#039321:0000000013000023
#039361:00000000000000000000005300000000
#040321:13
#040361:00230000
#0403b0:00130000
#040370:0023
#0413b0:0000001300002300
#041370:00000000000000000053000000000000
#041361:0000001300002300
#041321:00000000000000000053000000000000
#043361:0013000000000000
#043321:0023
#043370:0013
#0433b0:0000000000000023
#0443b0:13
#044370:00230000
#044361:13
#044321:00230000
#0443b1:0013
#044371:00000023
#044360:0013
#044320:00000023
#045320:13230000
#045350:0053000000000000
#0453b1:13230000
#045381:0053000000000000
#046361:13
#046321:00230000
#046370:00130000
#0463b0:0023
#047320:0013000023000000
#047360:00000000005300000000000000000000
#0473b1:0000000013000023
#047371:00000000000000000000005300000000
#0483b1:13
#048371:00230000
#048320:00130000
#048360:0023
#049320:0000001300002300
#049360:00000000000000000053000000000000
#051370:0013000000000000
#0513b0:0023
#051361:0013
#051321:0000000000000023
#052321:13
#052361:00230000
#052370:13
#0523b0:00230000
#052320:0013
#052360:00000023
#052371:0013
#0523b1:00000023
#0533b1:13230000
#053381:0053000000000000
#053320:13230000
#053350:0053000000000000
#0533b0:0013
#053380:00000023
#053321:0013
#053351:00000023
#054321:13230000
#054380:00132300
#054321:0000000013230000
#054380:0000000000132300
#054351:0000000000001323
#0543b0:0000000000000013
#055380:0023000000000000
#055321:0013000000000000
#055351:0000002300000000
#055321:0000000013230000
#055351:0000000000001323
#056321:1323000000000000
#0563b0:0013230000000000
#056361:00130000
#056351:00000000003300000000000000000000
#056341:0000003300000000
#056331:00000000000000330000000000000000
#056321:0023
#056370:0013
#056380:00000000000000000033000000000000
#056390:0000000000330000
#0563a0:00000000000000000000003300000000
#0563b0:00000023
#056361:00000013
#056351:00000000000000000000000000330000
#056341:0000000000000033
#056331:00000000000000000000000000000033
#057321:23
#057370:13
#057390:0053000053000000000000000000000000000000000000000000000000000000
#057380:00530000000000000000000000000000
#0573a0:0000005300005300530053005300530023000000000000000000000000000000
#0573b0:0000000000530053005300530053005300000000000000000000000000000000
#057361:0013
#057341:0000000000000000000000000000000000530000530000000000000000000000
#057351:00000000000000000053000000000000
#057331:0000000000000000000000000000000000000053000053005300530053005300
#057321:0000000000000000000000000000000000000000005300530053005300530053
#058331:23
#058370:12
#0583c0:0022
#058371:0012
#059321:22
#059380:12
#0593c0:00220000
#059320:0000001200000000
#059360:0000000000220000
#060380:0012000000000000
#0603c0:0022
#0603c0:0000000000000012
#061380:00220000
#061361:00120000
#061321:0022
#061380:0012
#0613c0:00000022
#0633b0:13
#063390:00330000
#063370:0023
#063321:0013
#063341:00000033
#064361:23
#0643b0:1323
#064390:0033003300000000
#064370:00330000
#064321:0013
#064341:0000000000330033
#064361:00000033
#065321:23
#0653a0:1400000000000024
#065390:00340000000000000000000000340000
#065380:0034000000003400
#065370:00000034000000000000003400000000
#065360:00000000343434343434340000000000
#066350:160000000000000000000000000000000000000000000000000000000000000000000000000000000000000000000000000000000000000000000000000000000000000000000000000000000000000000000000000000000000000000000000000000000000000000000000000000000000000000000000000000000000000000000000000000000000000000000000000000000000000000000000000000000000000000000000000000000000000000000000000000000000000000000000000000000000000000000000000000000000000000000000000000000000000000000000000000000000000000000056000000000000000000000000000000000000000000000000000000000000000000000000000000000000000000000000000000000000000000000000000000000000000000000000000000000000000000000000000000000000000000000000000000000000000000000000000000000000000000000000000000000000000000000000000000000000000000000000000000000000000000000000000000000000000000000000000000000000000000000000000000000000000000000000000000000000000000000000000000000000000000000000000000000000000000000000000000000000000000000000000000000000000000000000000000000000000000000000000000000000000000000000000000000000000000000000000000000000000000000000000000000000000000000000000000000000000000000000000000000000000000000000000000000000000000000000000000000000000000000000000000000000000000000000000000000000000000000000000000000000000000000000000000000000000000000000000000000000000000000000000000000000000000000000000000000000000000000000000000000000000000000000000000000000000000000000000000000000000000000000000000000000000000000000000000000000000000000000000000000000000000000000000000000000000000000000000000000000000000000000000000000000000000000000000000000000000000000000000000000000000000000000000000000000000000000000000000000000000000000000000000000000000000000000000000000000000000000000000000000000000000000000000000000000000000000000000000000000000000000000000000000000000000000000000000000000000000000000000000000000000000000000000000000000000000000000000000000000000000000000000000000000000000000000000000000000000000000000000000000000000000000000000000000000000000000000000000000000000000000000000000000000000000000000000000000000000000000000000000000000000000000000000000000000000000000000000000000000000000000000000000000000000000000000000000000000000000000000000000000000000000000000000000000000000000000000000000000000000000000000000000000000000000000000000000000000000000000000000000000000000000000000000000000000000000000000000000000000000000000000000000000000000000000000000000000000000000000000000000000000000000000000000000000000000000000000000000000000000000000000000000000000000000000000000000000000000000000000000000000000000000000000000000000000000000000000000000000000000000000000000000000000000000000000000000000000000000000000000000000000000000000000000000000000000000000000000000000000000000000000000000000000000000000000000000000000000000000000000000000000000000000000000000000000000000000000000000000000000000000000000000000000000000000000000000000000000000000000000000000000000000000000000000000000000000000000000000000000000000000000000000000000000000000000000000000000000000000000000000000000000000000000000000000000000000000000000000000000000000000000000000000000000000000000000000000000000000000000000000000000000000000000000000000000000000000000000000000000000000000000000000000000000000000000000000000000000000000000000000000000000000000000000000000000000000000000000000000000000000000000000000000000000000000000000000000000000000000000000000000000000000000000000000000000000000000000000000000000000000000000000000000000000000000000000000000000000000000000000000000000000000000000000000000000000000000000000000000000000000000000000000000000000000000000000000000000000000000000000000000000000000000000000000000000000000000000000000000000000000000000000000000000000000000000000000000000000000000000000000000000000000000000000000000000000000000000000000000000000000000000
#066340:000000000000000000000000000000000000000000000000000000000000000000000000000000000000000000000000000000000000000000000000000000000000000000000000000000000000000000000000000000000000000000000000000000000000000000000000000000000000000000000000000000000000000000000000000000000000000000000000000000000000000000000000000000000000000000000000000000000000000000000000000000000000000000000000000000000000000000000000000000000000000000000000000000000000000000000000000000000000000000000000380000000000000000000000000000000000000000000000000000000000000000000000000000000000000000000000000000000000000000000000000000000000000000000000000000000000000000000000000000000000000000000000000000000000000000000000000000000000000000000000000000000000000000000000000000000000000000000000000000000000000000000000000000000000000000000000000000000000000000000000000000000000000000000000000000000000000000000000000000000000000000000000000000000000000000000000000000000000000000000058000000000000000000000000000000000000000000000000000000000000000000000000000000000000000000000000000000000000000000000000000000000000000000000000000000000000000000000000000000000000000000000000000000000000000000000000000000000000000000000000000000000000000000000000000000000000000000000000000000000000000000000000000000000000000000000000000000000000000000000000000000000000000000000000000000000000000000000000000000000000000000000000000000000000000000000000000000000000000000000000000000000000000000000000000000000000000000000000000000000000000000000000000000000000000000000000000000000000000000000000000000000000000000000000000000000000000000000000000000000000000000000000000000000000000000000000000000000000000000000000000000000000000000000000000000000000000000000000000000000000000000000000000000000000000000000000000000000000000000000000000000000000000000000000000000000000000000000000000000000000000000000000000000000000000000000000000000000000000000000000000000000000000000000000000000000000000000000000000000000000000000000000000000000000000000000000000000000000000000000000000000000000000000000000000000000000000000000000000000000000000000000000000000000000000000000000000000000000000000000000000000000000000000000000000000000000000000000000000000000000000000000000000000000000000000000000000000000000000000000000000000000000000000000000000000000000000000000000000000000000000000000000000000000000000000000000000000000000000000000000000000000000000000000000000000000000000000000000000000000000000000000000000000000000000000000000000000000000000000000000000000000000000000000000000000000000000000000000000000000000000000000000000000000000000000000000000000000000000000000000000000000000000000000000000000000000000000000000000000000000000000000000000000000000000000000000000000000000000000000000000000000000000000000000000000000000000000000000000000000000000000000000000000000000000000000000000000000000000000000000000000000000000000000000000000000000000000000000000000000000000000000000000000000000000000000000000000000000000000000000000000000000000000000000000000000000000000000000000000000000000000000000000000000000000000000000000000000000000000000000000000000000000000000000000000000000000000000000000000000000000000000000000000000000000000000000000000000000000000000000000000000000000000000000000000000000000000000000000000000000000000000000000000000000000000000000000000000000000000000000000000000000000000000000000000000000000000000000000000000000000000000000000000000000000000000000000000000000000000000000000000000000000000000000000000000000000000000000000000000000000000000000000000000000000000000000000000000000000000000000000000000000000000000000000000000000000000000000000000000000000000000000000000000000000000000000000000000000000000000000000000000000000000000000000000000000000000000000000000000000000000000000000000000000000000000000000000000000000000000000
#066330:0000000000000000000000000000000000000000000000000000000000000000000000000000000000000000000000000000000000000000000000000000000000000000000000000000000000000000000000000000000000000000000000000000000000000000000000000000000000000000000000000000000000000000000000000000000000000000000000000000000000000000000000000000000000000000000000000000000000000000000000000000000000000000000000000000000000000000000000000000000000000000000000000000000000000000000000000000000000000000000000000000000000000000000000000000000000000000000000000000000000000000000000000000000000000000000000000000000000000000000000000000000000000000000000000000000000000000000000000000000000000000000000000000000000000000000000000000000000000000000000000000000000000000000000000000000000000000000000000000000000000000000000000000000000000000000000000000000000000000000000000000000000000000000000000000000000000000000000000000000000000000000000000000000000000000000000000000000000000000000000003a000000000000000000000000000000000000000000000000000000000000000000000000000000000000000000000000000000000000000000000000000000000000000000000000000000000000000000000000000000000000000000000000000000000000000000000000000000000000000000000000000000000000000000000000000000000000000000000000000000000000000000000000000000000000000000000000000000000000000000000000000000000000000000000000000000000000000000000000000000000000000000000000000000000000000000000000000000000000000000005a000000000000000000000000000000000000000000000000000000000000000000000000000000000000000000000000000000000000000000000000000000000000000000000000000000000000000000000000000000000000000000000000000000000000000000000000000000000000000000000000000000000000000000000000000000000000000000000000000000000000000000000000000000000000000000000000000000000000000000000000000000000000000000000000000000000000000000000000000000000000000000000000000000000000000000000000000000000000000000000000000000000000000000000000000000000000000000000000000000000000000000000000000000000000000000000000000000000000000000000000000000000000000000000000000000000000000000000000000000000000000000000000000000000000000000000000000000000000000000000000000000000000000000000000000000000000000000000000000000000000000000000000000000000000000000000000000000000000000000000000000000000000000000000000000000000000000000000000000000000000000000000000000000000000000000000000000000000000000000000000000000000000000000000000000000000000000000000000000000000000000000000000000000000000000000000000000000000000000000000000000000000000000000000000000000000000000000000000000000000000000000000000000000000000000000000000000000000000000000000000000000000000000000000000000000000000000000000000000000000000000000000000000000000000000000000000000000000000000000000000000000000000000000000000000000000000000000000000000000000000000000000000000000000000000000000000000000000000000000000000000000000000000000000000000000000000000000000000000000000000000000000000000000000000000000000000000000000000000000000000000000000000000000000000000000000000000000000000000000000000000000000000000000000000000000000000000000000000000000000000000000000000000000000000000000000000000000000000000000000000000000000000000000000000000000000000000000000000000000000000000000000000000000000000000000000000000000000000000000000000000000000000000000000000000000000000000000000000000000000000000000000000000000000000000000000000000000000000000000000000000000000000000000000000000000000000000000000000000000000000000000000000000000000000000000000000000000000000000000000000000000000000000000000000000000000000000000000000000000000000000000000000000000000000000000000000000000000000000000000000000000000000000000000000000000000000000000000000000000000000000000000000000000000000000000000000000000000000000000000000000000000000000000000000000000000000000000000000000000000000
#066320:0000003c2c000000
#068320:0014002400000000
#068360:00540000
#0683a0:00001424
#068360:0000000000540000
#070320:0000001400002400
#070360:00000000000000000054000000000000
#072360:0014002400000000
#072320:00540000
#072360:00001424
#0723a0:0000000000540000
#0733a0:14
#073360:00240000
#073361:13
#073321:00230000
#073321:0014
#073361:00000024
#073370:0013
#0733b0:00000023
#074360:14
#074320:0000002400000000
#075320:13
#075360:00230000
#0753b1:00130000
#075371:0023
#0753b1:0000000000000013
#0763b1:0023000000000000
#076321:0000001300230000
#0773a1:14
#077381:00220000
#077320:00140000
#077360:0022
#0773a1:0014
#077381:00000022
#078321:16
#079361:00220000
#078380:0016
#079380:00220000
#080320:13
#080350:00230000
#0803b1:00130000
#080381:0023
#080320:0000000013230000
#0803b1:0000000000132300
#080350:0000000000001323
#080381:0000000000000013
#0813b1:0023000000000000
#081320:0013002300000000
#0813b0:00001323
#082350:13230000
#082320:0053000000000000
#082381:00132300
#0823b1:0000005300000000
#082350:00001323
#082320:0000000000530000
#082381:00000013
#0823b1:0000000000000053
#083381:23
#083350:13
#083320:00000023
#083381:0013
#0833b1:00000023
#0799a0:00000014
#079980:000000000000000000000000000000000000000000000000000000000000000000000000005400000000000000000000
#079970:000000000000000000000000000000000000005400000000
#079960:00000000000000000000000000540000
#080960:24
