This file was generated by Ched 2.7.0.0.
#TITLE ""
#ARTIST ""
#DESIGNER ""
#DIFFICULTY 0
#PLAYLEVEL
#SONGID ""
#WAVE ""
#WAVEOFFSET 0
#JACKET ""
#REQUEST "ticks_per_beat 480"
#00002: 4
#BPM01: 140
#00008: 01
#TIL00: ""
#VOLUME: ""
#HISPEED 00
#MEASUREHS 00
#0351b:2313
#03515:00230013
#03518:0023000000130013
#03512:0000002300000000
#04115:00130000
#04118:0013000000000000
#0411b:0000001300000000
#02918:0000000000130013
#02915:13000013
#04318:0000000013000013
#04315:0013000000001300
#07618:0000001300001300
#07615:0000130000000013
#07612:0013000000000000
#0761b:0000000000130000
#03015:0000000013000013
#03018:0000000000130000
#03012:23230000
#0301b:0023002300000000
#03010:41
#0011b:13130000
#00112:00001313
#00118:0000000000130013
#00915:0013
#00918:0000130000130000
#0091b:2300000000000013
#00912:23000013
#00910:41
#05516:0013
#05519:0000000000130000
#05517:0000000000000013
#05514:00000013
#05518:0013000000000000
#05918:0000001200001200
#05916:0000000000120000
#01018:0013
#01015:0013000000001300
#0101b:0000000000000013
#02215:13
#02218:00130000
#0221b:0000000000000013
#02212:0000001300000000
#0641a:14
#06416:0014
#06418:00340034
#0081b:13
#00818:0013
#00812:13
#00815:0013
#03118:00001313
#03115:0000000000130013
#0311b:23230000
#03112:0023002300000000
#0321b:13
#03212:0013
#03318:13
#0331b:00130000
#03418:00230013
#03412:2313
#03415:0023000000130013
#0341b:0000002300000000
#03612:1413
#03616:00000014000000000000000000000000
#0361a:0000001400000000
#03712:00000013
#0371b:13
#03718:00130000
#0381b:0013
#03818:24000013
#03815:0000000000130000
#03812:0000000000000013
#03814:00240000
#03810:41
#03918:00000013
#03915:0000000013000013
#0391b:0013000000000000
#0401b:00000013
#04018:0013
#04015:0000000000130000
#04012:0000240000000013
#0401a:24
#04218:0000000000000013
#0421b:0013000000000000
#0421a:0000001300000000
#04219:0000000000130000
#04215:23
#04214:00230000
#04213:0023
#04212:00000023
#0451b:00000013
#04515:13
#04412:13
#0441b:0013
#04918:00130000
#04915:0013000000000000
#04912:0000001300000000
#05115:0000000013000013
#05118:0013000000001300
#04612:0013
#04615:00000013
#04618:0000240000130000
#0461b:0000000000000013
#04614:24
#04715:00000013
#04718:0000000013000013
#04712:0013000000000000
#04812:24000013
#04815:0013
#04818:0000000000130000
#0481b:0000000000000013
#0481a:00240000
#0501b:00230013
#05015:0000130000000013
#05018:1313
#05012:2300000000130000
#05010:41
#0521b:13
#05212:0013
#05318:13
#05612:13
#0561b:0013000000000000
#06312:14
#06316:0014
#06314:00340034
#06515:00000000340034143400340000000000
#06512:14
#06514:0034000000003400
#0671a:0000000014000014
#06716:0000000000140000
#06712:00260014
#06718:26
#0671f:21
#06814:00000014
#06818:0000000000000014
#0681a:0014
#06812:0014000000000000
#06810:41
#06912:2600000014000014
#06916:0000000000140000
#0691a:00000014
#06918:00260000
#08212:1313
#08215:00130013
#0821b:1313
#08218:00130013
#08312:13000023
#08315:0013
#0831b:13000023
#08318:0013
#07412:00000014
#0741a:14
#07417:00000014000000000000000000000000
#07512:0013
#07518:0000000000130000
#0751b:0000000000000013
#07515:00000013
#07915:0013
#07918:00000013
#07218:00000014
#07214:0000000000000014
#07212:0014
#0721a:0014000000000000
#0731a:14
#07312:0014
#07016:00140000
#0701a:0014000000000000
#07012:0000001400000000
#07015:00000000000000000014000000000000
#07112:0014000000140000
#07114:0000001400000014
#0711a:2424
#07118:00240024
#0801b:0000130000130000
#08012:2313
#08015:00000013
#08018:0000000000000013
#08118:0013
#08115:0013000000000000
#0021b:0013
#00215:00000013
#00218:0000000000000013
#00312:13130000
#0031b:00001313
#00315:0000000000130013
#00418:0013000000000000
#00412:00130000
#00515:00131300
#00512:13000013
#0051b:0000001300130000
#00518:0013000000000013
#0061b:0013
#00615:00000013
#00618:0000000000000013
#00718:0013
#00715:13
#01112:13
#0111b:0013
#01212:1300000000000013
#01218:0000000000130000
#01215:00000013
#01615:0000000000130000
#01618:00000013
#0161b:0000000000000013
#01418:0000130000000013
#01412:13
#0131b:00130000
#01318:0013
#01315:00000013
#01518:0013
#01515:00000013
#01815:0000130000000013
#0181b:13
#01712:00130000
#01715:0013
#01718:00000013
#01915:0013
#01918:00000013
#0201b:0000000000130000
#02018:00000013
#02015:0000000000000013
#02618:13
#02615:00130000
#02612:0000000000000013
#0261b:0000001300000000
#02715:00001313
#02718:0000000000130013
#02315:00000013
#02318:0000000013000013
#02412:0000000000130000
#02415:00000013
#02418:0000000000000013
#0601a:0012
#06018:00000012
#06016:0000000000120000
#06014:0000000000000012
#06116:00000012
#06118:0000000000000012
#06214:0000000000140000
#06218:00000024
#05418:0013
#05415:0000130000130000
#05412:2300000000000013
#0541b:23000013
#0581f:11
#07818:2323
#07815:0023
#0661a:24
#06619:00240000
#06618:0024
#06613:0000002400000000
#06612:0024000000000000
#06614:00000024
#07712:23
#0771b:0023
#07715:0000000000000023
#02110:41
#0645a:64
#06456:0054
#0085b:63000013
#00858:0053
#00852:53000013
#00855:0063
#0325b:63
#03252:0053
#03358:53
#0335b:00230000
#0375b:6313
#03752:00000013
#03758:00230000
#03858:14
#03854:00140000
#0395b:0063000000000000
#0405a:14
#04052:00140000
#04158:00000013
#0415b:0000006300000000
#04355:0063000000000000
#0455b:00000013
#04555:63
#04552:0013
#04452:53
#0445b:0063
#04752:0053000000000000
#05158:0053000000000000
#04952:0000005300000000
#04955:00000013
#0525b:63
#05252:0053
#05358:53
#0535b:0013
#04654:14
#04658:00140000
#04852:14
#0485a:00140000
#06352:54
#06356:0064
#06555:00000000000000240000000000000000
#06552:54
#06658:0014
#06654:00000014
#06758:16
#06752:00160000
#06952:16
#06958:00160000
#06852:0054000000000000
#08352:53000013
#08355:0063
#0835b:63000013
#08358:0053
#08252:5353
#08255:00630063
#0825b:6363
#08258:00530053
#0745a:6414
#07452:00000014
#07457:00000024000000000000000000000000
#07752:53
#0775b:0063
#07855:0063
#07858:0053
#0725a:0064000000000000
#0735a:64
#07352:0054
#07052:0000005400001400
#07055:00000000000000000024000000000000
#0805b:00130000
#08052:13
#08158:0053
#08155:0063000000000000
#00758:0053
#00755:63
#01055:0063000000000000
#01152:53
#0115b:0063
#01252:53
#03652:0053
#02955:63
#0265b:0000006300000000
#02252:0000005300000000
#06158:0000000000000012
#02758:0000000000000053
#02358:0000000000000053
#05558:0053000000000000
#00458:00000013
#05755:0014
#002350:0013002300000000
#004380:0000001300002300
#006350:0013002300000000
#007350:13
#007320:00230000
#007380:0013
#0073b0:00000023
#0083b0:13000023
#008380:0000003333000000
#008321:13000023
#008351:0000003333000000
#010351:0013000000000000
#010321:0000002300000000
#011321:13
#011351:00230000
#0113b1:0013
#011381:00000023
#012321:13
#012351:0000003323000000
#014351:0000001300002300
#015321:13230000
#0153b1:0000000000000013
#0163b1:00230000
#018381:0000001300002300
#0193b1:13230000
#019321:0000000000000013
#020321:00230000
#0213b1:00130023
#021381:0033
#022321:0000001300000000
#022351:00000023
#023351:13
#023321:00230000
#023381:0000000000000013
#0243b1:00230000
#025321:00130023
#025351:0033
#0263b1:0000001300000000
#026381:00000023
#027381:13
#0273b1:00230000
#027381:0000000000000013
#0283b1:00230000
#028351:00000013
#029351:33
#029321:0000002300000000
#0323b1:13
#032381:0000002300000000
#032321:0013
#032351:0000000000000023
#033381:1323
#0333b1:00530000
#036321:0013
#036351:0000000000000023
#0373b1:1323
#037381:00530000
#0393b1:0013000000000000
#039381:0000002300000000
#0413b1:0000001300000000
#041381:0000000000332300
#043351:0013000000000000
#043321:0000002300000000
#044321:13
#044351:00230000
#0443b1:0013
#044381:00000023
#045351:13
#045321:0000003323000000
#047321:0013000000000000
#047351:0000002300000000
#049321:0000001300000000
#049351:0000000000332300
#051381:0013000000000000
#0513b1:0000002300000000
#0523b1:13
#052381:00230000
#052321:0013
#052351:00000023
#053381:13
#0533b1:0000003323000000
#055381:0013000000000000
#0553b1:0000002300000000
#056321:0000143434000000
#056331:00000000003400340000340000000000
#056341:00000000000000000034000034000000
#056351:00000000000000000000003400003400
#056361:00000000000000000000000000340034
#057351:3424
#058381:1222
#059361:12220000
#059341:0000000000000012
#060341:00220000
#0613a1:00122200
#063321:14
#063341:00340034
#063361:0034
#064321:24
#0643a0:14
#064380:00340034
#064360:0034
#0653a0:24
#065321:1400000000000024
#065341:0034000000003400
#065351:00000000340034543400340000000000
#068321:0014000000000000
#068361:0000002400000000
#070321:0000001400002400
#070351:00000000000000000054000000000000
#0723a1:0014000000000000
#072361:0000002400000000
#0733a1:14
#073361:00240000
#073321:0014
#073361:00000024
#0743a1:1400003424000000
#074371:00000054000000000000000000000000
#0753b1:13
#075381:00230000
#075350:13
#075320:00230000
#077320:13
#077350:00230000
#0773b0:0013
#077380:00000023
#078380:1333
#0793b0:00230000
#078351:0013
#079321:00230000
#081351:0013000000000000
#081321:0000002300000000
#081381:0013
#0813b1:00000023
#082321:1333
#082351:00330033
#083321:33000023
#083351:0000003333000000
#0823b0:1333
#082380:00330033
#0833b0:33000023
#083380:0000003333000000
